#TITLE:SON OF SUN;
#SUBTITLE:;
#ARTIST:Hosoe Shinji;
#TITLETRANSLIT:;
#SUBTITLETRANSLIT:;
#ARTISTTRANSLIT:;
#GENRE:;
#CREDIT:;
#MENUCOLOR:#FFFF00;
#NEWMETERSYSTEM:NO;
#BANNER:SON OF SUN-bn.png;
#BACKGROUND:SON OF SUN-bg.png;
#LYRICSPATH:;
#CDTITLE:MixMania 4 CD Title.png;
#MUSIC:SON OF SUN.mp3;
#OFFSET:-0.180;
#SAMPLESTART:14.540;
#SAMPLELENGTH:12.000;
#SELECTABLE:YES;
#LISTSORT:;
#BPMS:0.000=200.000;
#STOPS:;
#BGCHANGES:;
#ATTACKS:;

//---------------dance-single - ----------------
#NOTES:
     dance-single:
     :
     Easy:
     4:
     0.357,0.474,0.187,0.233,0.000:
0000
0000
0000
0000
,
0000
0000
0000
0000
,
0000
0000
0000
0000
,
0000
0000
0000
0000
,
0001
0000
1000
0100
,
0010
0000
0010
0000
,
1000
0000
1000
0000
,
0001
0000
0001
0000
,
0100
0000
0010
1000
,
0001
0000
0001
0000
,
0100
0000
0010
0000
,
2000
3002
2003
3002
,
0103
0000
0100
0000
,
0010
1000
0010
0100
,
0001
0000
0001
0000
,
0010
0001
1000
0100
,
1001
0000
0100
0000
,
0010
1000
0010
0100
,
0001
0000
0010
0000
,
0200
2300
3200
2300
,
3001
0000
0001
0000
,
0101
0000
0101
0000
,
1000
0000
1000
0000
,
1100
0000
1000
1000
,
0001
0000
0100
0000
,
0110
0000
0110
0000
,
1000
0000
0100
0000
,
1000
0001
1000
0002
,
0013
0000
0010
0100
,
0010
0000
1000
0001
,
1000
0000
0100
0000
,
2000
0000
0010
3010
,
0001
0100
0001
0000
,
1000
0100
1000
0000
,
0010
0100
0010
0000
,
0002
0000
0100
0103
,
1000
1000
0100
0000
,
0100
0100
0010
0000
,
0001
0001
0010
0000
,
0001
0100
0001
0100
,
0010
0010
1000
0000
,
1000
1000
0001
0000
,
0001
0001
0100
0000
,
0010
0100
0010
0100
,
0001
1000
0100
0000
,
1000
0001
0100
0000
,
0010
0100
0010
0000
,
1000
0100
0010
0001
,
1000
0100
1000
0000
,
0001
0100
0001
0000
,
2000
0002
0000
0000
,
0000
3003
0010
0010
,
1001
0000
0001
0000
,
1000
0000
0100
0000
,
1001
1001
0000
0000
,
0100
0000
0100
0000
,
1001
0000
0010
0000
,
0100
0000
0001
0000
,
1001
1001
0000
0000
,
1000
0100
0010
0001
,
0101
0000
1000
0000
,
1100
0000
0010
0000
,
0110
0000
0001
0000
,
1000
0100
1000
0001
,
1001
0000
0010
0000
,
1100
0000
0001
0000
,
0101
0000
0010
0000
,
0002
0203
0320
2030
,
3001
0001
1000
0000
,
0100
0100
1000
0000
,
0010
0010
0100
0000
,
2002
0000
0000
3003
,
1000
1000
0100
0000
,
0010
0010
0001
0000
,
0100
0100
0010
0000
,
0001
0000
0000
1000
0000
0000
1001
0000
,
1000
0100
1000
0100
,
1000
0100
2000
3000
,
0001
0100
0001
0100
,
0002
0003
0200
0300
,
0010
0100
0010
0100
,
0010
0100
0020
0030
,
1000
0001
1000
0001
,
1000
1000
0002
2000
,
0000
0000
0000
3003
;

//---------------dance-single - Copied from----------------
#NOTES:
     dance-single:
     Copied from:
     Beginner:
     2:
     0.165,0.234,0.075,0.075,0.000:
0000
0000
0000
0000
,
0000
0000
0000
0000
,
0000
0000
0000
0000
,
0000
0000
0000
0000
,
1000
0000
0001
0000
,
0000
0000
0000
0000
,
0000
0000
0000
0000
,
0000
0000
0000
0000
,
0010
0000
1000
0000
,
0000
0000
0000
0000
,
0000
0000
0000
0000
,
0020
0000
0030
0000
,
0001
0000
0000
0000
,
0001
0000
0000
0000
,
1000
0000
0000
0000
,
0100
0000
0000
0000
,
1000
0000
0000
0000
,
0010
0000
0000
0000
,
0010
0000
0000
0000
,
0100
0000
0100
0000
,
0001
0000
0001
0000
,
1000
0000
0000
0000
,
1000
0000
1000
0000
,
0100
0000
0000
0000
,
0010
0000
0010
0000
,
0100
0000
0000
0000
,
0001
0000
1000
0000
,
0001
0000
1000
0000
,
1100
0000
0000
0000
,
0101
0000
0000
0000
,
1100
0000
0000
0000
,
0002
0000
0003
0000
,
0011
0000
0000
0000
,
1010
0000
0000
0000
,
0011
0000
0000
0000
,
2000
0000
3000
0000
,
0100
0000
0000
0000
,
0100
0000
0000
0000
,
0100
0000
0000
0000
,
1000
0000
0100
0000
,
0010
0000
0000
0000
,
0010
0000
0000
0000
,
0010
0000
0000
0000
,
0001
0000
0010
0000
,
0100
0000
1000
0000
,
0001
0000
0000
0000
,
0100
0000
0001
0000
,
1000
0000
0000
0000
,
0010
0000
0100
0000
,
0010
0000
0000
0000
,
1000
2000
0000
0000
,
3000
0000
0001
0001
,
0001
0000
0000
0000
,
0000
0000
0000
0000
,
0100
0100
0000
0000
,
0000
0000
0000
0000
,
0010
0000
0000
0000
,
0000
0000
0000
0000
,
0010
0010
0000
0000
,
2000
0000
3000
0000
,
1000
0000
0001
0000
,
1000
0000
0001
0000
,
0100
0000
0010
0000
,
0100
0000
0000
0000
,
0001
0000
0010
0000
,
0001
0000
0010
0000
,
0100
0000
1000
0000
,
0200
0000
0300
0000
,
1001
0000
0001
0000
,
1000
0000
0000
0000
,
0100
0000
1000
0000
,
0020
0000
0030
0000
,
1001
0000
1000
0000
,
0100
0000
0000
0000
,
0010
0000
0100
0000
,
0020
0000
0030
0000
,
0001
0000
0001
0000
,
0100
0000
0100
0000
,
1000
0000
1000
0000
,
0100
0000
0100
0000
,
0010
0000
0010
0000
,
1000
0000
1000
0000
,
0001
0000
0001
0000
,
0100
0000
0100
0100
;

//---------------dance-single - Copied from Copied f----------------
#NOTES:
     dance-single:
     Copied from Copied f:
     Medium:
     7:
     0.490,0.593,0.252,0.233,0.000: // measure 1
0000
0000
0000
0000
,  // measure 2
0000
0000
0000
0000
,  // measure 3
0000
0000
0000
0000
,  // measure 4
0000
0000
0000
0000
,  // measure 5
0001
0000
0000
0100
0001
1000
0100
0000
,  // measure 6
0100
0000
0000
0100
0000
0000
1000
0000
,  // measure 7
0010
0000
0000
1000
0000
0000
0001
0000
,  // measure 8
0001
0000
0000
0100
0000
0000
0001
0000
,  // measure 9
0001
0000
0000
1000
0100
1000
0010
0000
,  // measure 10
0100
0000
0000
0001
0000
0000
1000
0000
,  // measure 11
1000
0000
0000
0001
0000
0000
0001
0000
,  // measure 12
0020
0032
2003
3200
,  // measure 13
1300
0000
1000
0010
1000
0000
0001
0000
,  // measure 14
0100
0000
0000
0100
0000
0000
0001
0000
,  // measure 15
1000
0000
0100
1000
0001
0000
0010
0000
,  // measure 16
0100
0000
0000
1000
0000
0000
1000
0000
,  // measure 17
0010
0000
0100
0001
0100
0000
0010
0000
,  // measure 18
1000
0000
0000
0001
0000
0000
0010
0000
,  // measure 19
0001
0000
1000
0100
0010
0000
0100
0000
,  // measure 20
2000
3002
0203
0320
,  // measure 21
1030
1100
1000
1100
,  // measure 22
1000
0000
0001
0010
0001
0000
0100
0000
,  // measure 23
0001
0011
0001
0011
,  // measure 24
0001
0000
0100
0001
0100
0001
0100
0000
,  // measure 25
0010
1010
0010
1010
,  // measure 26
0100
0000
0100
0010
0100
0000
0100
0010
,  // measure 27
0100
0101
0100
0101
,  // measure 28
0001
0010
0100
1000
0001
1000
0002
0000
,  // measure 29
0103
0010
0100
0000
0010
0000
0010
0000
,  // measure 30
1000
0100
1000
0000
0001
0000
0001
0000
,  // measure 31
0010
0001
0010
0000
0100
0000
0100
0000
,  // measure 32
1000
0000
0000
1000
0100
0010
0001
0000
,  // measure 33
0100
0001
0100
0000
0010
0000
0010
0000
,  // measure 34
1000
0010
1000
0000
0100
0000
0100
0000
,  // measure 35
1000
0001
1000
0000
0010
0000
0010
0000
,  // measure 36
0001
0000
0000
0001
0010
0100
1000
0000
,  // measure 37
1001
0000
0000
0010
0000
0000
0100
0000
,  // measure 38
1001
0000
0000
0100
0000
0000
0010
0000
,  // measure 39
1001
0000
0000
0001
0000
0000
1000
0000
,  // measure 40
2000
3200
0320
0031
,  // measure 41
0101
0000
0000
0001
0000
0000
0100
0000
,  // measure 42
1100
0000
0000
1000
0000
0000
0100
0000
,  // measure 43
0101
0000
0000
0001
0000
0000
0010
0000
,  // measure 44
0200
2300
3020
0230
,  // measure 45
0301
0000
0001
0000
0001
0000
0100
0010
,  // measure 46
0000
0010
1000
0000
0100
0000
1000
0000
,  // measure 47
0010
0000
1000
0000
0100
0000
0010
0001
,  // measure 48
0000
0001
0100
0000
0010
0000
1000
0000
,  // measure 49
0001
0000
0100
0000
0100
0000
0010
1000
,  // measure 50
0000
1000
0100
0000
0010
0000
0100
0000
,  // measure 51
0020
0002
0000
0000
,  // measure 52
0000
0033
1100
1010
,  // measure 53
1001
0000
0000
0000
1000
0000
0000
0001
,  // measure 54
0000
0100
0001
0000
,  // measure 55
0010
0000
0010
0000
0100
0000
0000
0100
,  // measure 56
0000
1000
0010
0000
,  // measure 57
0100
0000
0100
0000
0001
0000
0000
1000
,  // measure 58
0000
0001
0010
0100
,  // measure 59
1000
0000
1000
0000
0100
0000
0000
1000
,  // measure 60
0000
0010
0100
0001
,  // measure 61
1001
0001
0100
0010
,  // measure 62
1001
1000
0100
0010
,  // measure 63
1001
0100
0010
0100
,  // measure 64
1001
0001
0010
0100
,  // measure 65
1100
1000
0010
0100
,  // measure 66
0101
0001
0010
0100
,  // measure 67
1100
1000
0010
0100
,  // measure 68
0002
0023
0230
2300
,  // measure 69
3001
0001
0100
0010
,  // measure 70
1000
0100
1100
0000
,  // measure 71
1000
0001
0100
0001
,  // measure 72
2002
0000
0000
3003
,  // measure 73
0010
0100
0001
1000
,  // measure 74
0100
1000
1001
0000
,  // measure 75
0010
0100
0001
0010
,  // measure 76
0001
0000
0000
0010
0000
0000
0100
0000
,  // measure 77
1000
0100
0000
0100
0000
0010
0000
0010
,  // measure 78
0000
0001
0000
0001
0000
0001
1000
0000
,  // measure 79
0000
0100
0000
0100
0000
1000
0000
1000
,  // measure 80
0000
1000
0001
0000
0000
1000
0001
0000
,  // measure 81
0000
0100
0000
0100
0000
0010
0000
0010
,  // measure 82
0000
1000
0000
1000
0000
0001
0100
0000
,  // measure 83
0000
0001
0000
0001
0000
0010
0000
0010
,  // measure 84
0100
0000
0000
1000
0001
1000
0200
0000
,  // measure 85
0000
0000
0000
0300
;

//---------------dance-single - Copied from----------------
#NOTES:
     dance-single:
     Copied from:
     Hard:
     8:
     0.622,0.630,0.270,0.214,0.000: // measure 1
0000
0000
0000
0000
,  // measure 2
0000
0000
0000
0000
,  // measure 3
0000
0000
0000
0000
,  // measure 4
0000
0000
0000
0000
,  // measure 5
0001
1000
0000
1000
0100
0010
0001
0000
,  // measure 6
0100
0000
0001
1000
0000
0001
1000
0000
,  // measure 7
0010
0000
0100
0010
0000
1000
0100
0000
,  // measure 8
0010
0000
0100
0001
0000
0001
0100
0000
,  // measure 9
0001
1000
0000
1000
0100
0010
0001
0000
,  // measure 10
0001
0000
0001
1000
0000
0010
0100
0000
,  // measure 11
0010
0000
0100
0001
0000
1000
0100
0000
,  // measure 12
2000
3200
0320
0032
,  // measure 13
0103
0000
0100
0010
0100
0010
0100
0000
,  // measure 14
0001
0000
0001
0010
0000
0010
0001
1000
,  // measure 15
0001
0000
0001
0100
0001
0100
0001
0000
,  // measure 16
1000
0000
1000
0100
0000
0100
1000
0010
,  // measure 17
1000
0000
1000
0010
1000
0010
1000
0000
,  // measure 18
0100
0000
0010
0100
0000
1000
0100
0010
,  // measure 19
0001
0000
0001
0010
0001
0010
0001
0000
,  // measure 20
2000
3002
0023
0130
,  // measure 21
1100
0010
0101
0010
,  // measure 22
1100
0000
1000
0100
0010
0000
0010
0000
,  // measure 23
0101
0010
1100
0010
,  // measure 24
0101
0000
1000
0000
0100
1000
0001
0000
,  // measure 25
1001
0100
0110
0001
,  // measure 26
1001
0000
0010
0100
0001
0000
1000
0000
,  // measure 27
0110
0001
1001
0100
,  // measure 28
0010
1000
0010
1000
0010
1000
0002
0000
,  // measure 29
0103
0010
1000
0000
0001
0000
1000
0000
,  // measure 30
0100
1000
0001
0000
0100
0000
0010
0000
,  // measure 31
0010
1000
0001
0000
0100
0000
0100
0000
,  // measure 32
0010
1000
0000
0001
0010
0100
1000
0000
,  // measure 33
1000
0001
0010
0000
0100
0000
0100
0000
,  // measure 34
1000
0100
0010
0000
0100
0000
1000
0000
,  // measure 35
0001
0010
0001
0000
0100
0000
0100
0000
,  // measure 36
0010
0100
0000
0001
0010
0100
1000
0000
,  // measure 37
0001
0000
1000
0100
0000
0100
0010
0000
,  // measure 38
0001
0000
1000
0100
0000
0100
0010
0000
,  // measure 39
0001
0000
1000
0100
0000
0100
0010
0000
,  // measure 40
2000
3200
0320
0032
,  // measure 41
1003
0000
0001
0010
0000
0010
0100
0000
,  // measure 42
1000
0000
0001
0010
0000
0010
0100
0000
,  // measure 43
1000
0000
0001
0010
0000
0010
0100
0000
,  // measure 44
2000
0000
3200
0000
0310
0100
0020
0000
,  // measure 45
0031
0000
1000
0000
0001
0000
0100
0001
,  // measure 46
0000
0001
0010
0000
0100
1000
0100
0000
,  // measure 47
1000
0000
0010
0000
0100
0000
0001
1000
,  // measure 48
0000
1000
0001
0000
0010
0001
0010
0000
,  // measure 49
0100
0000
1000
0000
0010
0000
0100
0010
,  // measure 50
0000
0010
0100
0000
0001
1000
0100
0000
,  // measure 51
1002
0200
0000
0000
,  // measure 52
0000
0000
0303
0000
0001
0010
0100
0000
,  // measure 53
1100
0000
1000
0000
0001
0000
0100
0001
,  // measure 54
0000
1000
0010
0000
0100
0000
0001
0010
,  // measure 55
0010
0000
0110
0000
1000
0000
0001
1000
,  // measure 56
0000
0100
1000
0000
0010
0000
0100
0000
,  // measure 57
1001
0000
0010
0000
0001
0000
1000
0100
,  // measure 58
0000
0100
0010
0000
0001
0000
1000
0001
,  // measure 59
0001
0000
0101
0000
0001
0000
0010
0001
,  // measure 60
0200
0302
2003
3010
,  // measure 61
1001
0000
0100
0001
1000
0000
0010
0000
,  // measure 62
0101
0000
0010
1000
0001
0000
0010
0000
,  // measure 63
1010
0000
1000
0001
0100
0000
0010
0000
,  // measure 64
0011
0000
0100
0010
0100
0000
0010
0000
,  // measure 65
1010
0000
0001
1000
0001
0000
0100
0000
,  // measure 66
1001
0000
0100
0010
0100
0000
0001
0000
,  // measure 67
0101
0000
1000
0001
1000
0000
0010
0000
,  // measure 68
1000
0100
0010
0001
1000
0100
0001
0100
,  // measure 69
1000
0100
0000
0100
0010
0000
0001
0000
,  // measure 70
0100
0001
0011
0001
,  // measure 71
0100
0001
1000
0100
0010
0000
0100
0000
,  // measure 72
2000
0001
0001
3001
,  // measure 73
0001
0100
0000
0100
0010
0000
1010
0000
,  // measure 74
0100
1000
1010
0001
,  // measure 75
0010
0001
1000
0100
1000
0000
0010
0000
,  // measure 76
0110
0000
0000
1001
0000
0000
0110
0000
,  // measure 77
0010
1000
0010
1000
0001
0100
0001
0100
,  // measure 78
0001
0010
0001
0010
0100
1000
0010
0000
,  // measure 79
0100
0010
0100
0010
1000
0100
1000
0100
,  // measure 80
0000
0001
0100
0000
0000
1000
0100
0000
,  // measure 81
0001
0100
0001
0100
0010
0100
0010
0100
,  // measure 82
0010
1000
0010
1000
0100
0010
0001
0000
,  // measure 83
1000
0100
1000
0100
0001
0100
0001
0100
,  // measure 84
2000
0000
3001
1000
0100
0010
0002
0000
,  // measure 85
0000
0000
0003
0000
;

//---------------dance-single - Copied from ----------------
#NOTES:
     dance-single:
     Copied from:
     Challenge:
     9:
     0.711,0.711,0.289,0.345,0.000: // measure 1
0000
0000
0000
0000
,  // measure 2
0000
0000
0000
0000
,  // measure 3
0000
0000
0000
0000
,  // measure 4
0000
0000
0000
0000
,  // measure 5
0001
0100
0000
0100
0010
1000
0100
0000
,  // measure 6
0010
0000
0001
0100
0000
0010
1000
0000
,  // measure 7
1000
0100
0010
0100
0000
0010
0100
0000
,  // measure 8
0010
0001
0100
0001
0000
1000
0100
0000
,  // measure 9
0010
0100
0000
0001
0010
0100
1000
0000
,  // measure 10
0010
0000
0100
0001
0000
1000
0100
0000
,  // measure 11
0010
0100
0001
1000
0000
0001
0100
0000
,  // measure 12
0020
0230
0302
1003
,  // measure 13
1000
0001
1000
0100
0010
0001
0100
0000
,  // measure 14
0001
0000
1000
0100
0000
0001
0100
0000
,  // measure 15
0010
0100
0001
1000
0001
0010
0100
0000
,  // measure 16
1000
0000
0100
0010
0000
0010
0001
1000
,  // measure 17
0100
1000
0100
0010
0001
1000
0100
0000
,  // measure 18
0010
0000
0100
1000
0000
0001
0010
0000
,  // measure 19
0001
0100
0001
0010
1000
0010
0001
1000
,  // measure 20
0020
0230
0302
1003
,  // measure 21
1001
0010
1001
0100
,  // measure 22
1001
0000
0001
0001
0010
0100
1000
0000
,  // measure 23
1001
0100
1001
0010
,  // measure 24
1001
0000
1000
0100
1000
0100
0010
0000
,  // measure 25
1001
0010
1001
0100
,  // measure 26
1001
0000
1000
1000
0100
0010
0001
0000
,  // measure 27
1001
0100
1001
0010
,  // measure 28
0001
0100
0001
0100
0001
0010
0200
0000
,  // measure 29
1300
0100
1000
0100
0010
0000
0010
0000
,  // measure 30
0001
0100
0001
0100
0010
0000
0010
0000
,  // measure 31
1000
0100
1000
0100
0010
0000
0010
0000
,  // measure 32
0001
0100
0000
1000
0100
0010
0001
0000
,  // measure 33
0001
0100
0001
0100
0010
0000
0010
0000
,  // measure 34
1000
0100
1000
0100
0010
0000
0010
0000
,  // measure 35
0001
0100
0001
0100
0010
0000
0010
0000
,  // measure 36
1000
0010
0000
0001
0010
0100
1000
0000
,  // measure 37
1001
0000
0100
0010
0000
1000
0100
0010
,  // measure 38
0001
0000
0100
0001
0000
0001
0010
0100
,  // measure 39
1000
0000
0010
0100
0000
1000
0010
0100
,  // measure 40
0002
0203
0320
1030
,  // measure 41
1100
0000
0001
0100
0000
0100
1000
0000
,  // measure 42
1001
0000
1000
0100
0000
0100
0001
0000
,  // measure 43
1001
0000
0100
0010
0000
0010
0001
0000
,  // measure 44
2000
3200
0320
0032
,  // measure 45
0103
0010
0100
0001
1000
0001
0010
0100
,  // measure 46
0000
1000
0100
0001
0100
1000
0010
0000
,  // measure 47
0100
0001
1000
0100
0001
0100
1000
0001
,  // measure 48
0000
0100
0010
1000
0001
0010
0001
0000
,  // measure 49
0010
0100
0001
0100
0010
0100
1000
0100
,  // measure 50
0000
0010
1000
0100
0010
0001
0100
0000
,  // measure 51
0110
1002
2003
3002
,  // measure 52
2003
0000
3002
0000
1003
0001
1000
0000
,  // measure 53
0110
0000
0001
0000
1000
0000
0100
0010
,  // measure 54
0000
0010
0001
1000
0100
0000
1000
0010
,  // measure 55
0110
0000
1001
0000
0010
0000
0010
0100
,  // measure 56
0000
1000
0100
0010
0001
0000
1000
0000
,  // measure 57
0011
0000
0001
0000
0100
0000
1000
0100
,  // measure 58
0000
0001
0100
0010
1000
0000
0001
1000
,  // measure 59
0110
0000
1100
0000
0100
0000
0010
0001
,  // measure 60
1000
0100
1000
0100
0010
0001
0010
0001
,  // measure 61
0100
0010
0100
0001
2000
0000
3200
0000
,  // measure 62
1300
0010
1000
0001
0200
0000
0302
0000
,  // measure 63
0013
0001
1000
0001
0200
0000
0302
0000
,  // measure 64
0013
0001
1000
0010
2000
0000
3020
0000
,  // measure 65
1030
0001
0100
0010
2000
0000
3020
0000
,  // measure 66
0130
0001
1000
0100
0020
0000
0230
0000
,  // measure 67
1300
0001
0100
0001
2000
0000
3200
0000
,  // measure 68
0310
0110
0110
0110
,  // measure 69
1000
0001
0000
0100
0010
1000
0001
0000
,  // measure 70
0100
0000
0001
0010
0000
0100
1000
0000
,  // measure 71
0100
0010
0001
1000
0100
1000
0001
0000
,  // measure 72
2010
0010
0001
3010
,  // measure 73
1000
0100
0000
0100
0010
0000
0001
0100
,  // measure 74
0000
0000
1000
0001
1000
0000
0100
0000
,  // measure 75
0010
0100
1000
0001
0010
0100
1000
0001
,  // measure 76
0110
0000
0000
0011
0000
0000
1100
0000
,  // measure 77
0010
0100
0010
0100
0001
0100
0001
0100
,  // measure 78
1000
0100
1000
0100
0010
1000
0100
0000
,  // measure 79
0010
0001
0010
0001
1000
0100
1000
0100
,  // measure 80
0001
0100
1000
0000
0001
0100
1000
0000
,  // measure 81
0001
0010
0001
0010
0100
0010
0100
0010
,  // measure 82
0100
1000
0100
1000
0001
0100
0001
0000
,  // measure 83
1000
0001
0010
0001
1000
0010
0001
0010
,  // measure 84
1002
0000
1003
0100
0010
0002
2000
0000
,  // measure 85
0000
0000
0000
3003
;
