#TITLE:S.O.S. (The Tiger Took My Family);
#SUBTITLE:;
#ARTIST:Dr. Jekyll;
#TITLETRANSLIT:;
#SUBTITLETRANSLIT:;
#ARTISTTRANSLIT:;
#GENRE:;
#CREDIT:;
#MENUCOLOR:;
#NEWMETERSYSTEM:NO;
#BANNER:S.O.S. (The Tiger Took My Family)-bn.png;
#BACKGROUND:S.O.S. (The Tiger Took My Family)-bg.png;
#LYRICSPATH:;
#CDTITLE:MixMania 4 CD Title.png;
#MUSIC:S.O.S. (The Tiger Took My Family).mp3;
#OFFSET:-0.180;
#SAMPLESTART:96.120;
#SAMPLELENGTH:12.000;
#SELECTABLE:YES;
#LISTSORT:;
#BPMS:0.000=170.060;
#STOPS:;
#BGCHANGES:;
#ATTACKS:;

//---------------dance-single - ----------------
#NOTES:
     dance-single:
     :
     Easy:
     4:
     0.323,0.501,0.216,0.407,0.000:
0000
0000
0000
0000
,
0000
0000
0000
0000
,
0000
0000
0000
0000
,
0000
0000
0000
0000
,
2000
3200
0320
0032
,
0023
0230
2300
3000
,
0002
0000
0203
0000
,
0310
1000
0001
0100
,
2002
0003
3200
0000
,
0320
0000
0032
0003
,
0200
0000
0320
0000
,
2030
0000
3200
0000
,
2300
3000
0020
0000
,
0230
0000
0302
0003
,
0020
0000
0032
0000
,
0203
0000
0320
0030
,
0100
0001
1000
0000
,
1000
0100
0001
0000
,
0001
0100
1000
0000
,
1000
0100
0010
0000
,
0100
1000
0001
0000
,
0010
0001
1000
0000
,
0010
0100
0010
0000
,
0100
0001
2000
3000
,
1100
0000
0101
0000
,
0010
0100
0001
0000
,
0011
0000
1100
0000
,
0010
1000
0100
0000
,
0110
0000
1001
0000
,
0010
0100
0010
0000
,
1100
0000
0011
0000
,
0100
0001
0010
0100
,
2000
0000
0100
0000
,
3002
0000
0100
0000
,
2003
0000
0010
0000
,
3002
0000
0100
0003
,
1001
0000
0100
0000
,
0010
1000
0001
0000
,
0010
0000
0100
0000
,
0010
0001
1000
1000
,
0100
0000
1000
0000
,
0010
0100
0010
0000
,
1000
0100
0010
0000
,
0001
0010
0002
0003
,
1001
0000
1001
0000
,
1000
0100
0010
0000
,
0110
0000
0110
0000
,
0001
0100
1000
0000
,
0101
0000
0101
0000
,
1000
0100
0001
0000
,
1010
0000
1010
0000
,
0010
1000
0001
1000
,
0200
0000
2300
0000
,
3002
0000
0023
0030
,
0002
0000
0203
0000
,
0320
0000
2030
3000
,
0200
0000
2300
0000
,
3020
0000
0230
0300
,
0002
0000
0023
0000
,
0032
0000
2003
3000
,
0100
0010
0100
0000
,
1000
0001
1000
0000
,
0001
0100
0001
0000
,
0010
0100
1000
1000
,
0100
0000
0100
0000
,
1000
0001
1000
0000
,
0010
0000
0100
0000
,
0001
1000
0001
0000
,
1100
0000
0011
0000
,
1000
0100
0010
0000
,
0011
0000
1100
0000
,
0001
0100
1000
0000
,
0101
0000
1010
0000
,
1000
0100
0001
0000
,
1010
0000
0101
0000
,
1000
0100
0010
0001
,
0100
0000
0100
0000
,
0010
0100
0010
0000
,
1000
0000
1000
0000
,
1000
0100
0010
0001
,
0002
0000
0003
0000
;

//---------------dance-single - Copied from----------------
#NOTES:
     dance-single:
     Copied from:
     Beginner:
     1:
     0.087,0.166,0.125,0.008,0.000:
0000
0000
0000
0000
,
0000
0000
0000
0000
,
0000
0000
0000
0000
,
0000
0000
0000
0000
,
1000
0000
0000
0000
,
0001
0000
0000
0000
,
0100
0000
0010
0000
,
0200
0000
0300
0000
,
0001
0000
0000
0000
,
0000
0000
0000
0000
,
1000
0000
0000
0000
,
0000
0000
0000
0000
,
0100
0000
0000
0000
,
0000
0000
0000
0000
,
0010
0000
0000
0000
,
0000
0000
0000
0000
,
0110
0000
0000
0000
,
1000
0000
0000
0000
,
0001
0000
0000
0000
,
0010
0000
0010
0000
,
0010
0000
0000
0000
,
0100
0000
0000
0000
,
0001
0000
0000
0000
,
0010
0000
0000
0000
,
1100
0000
0000
0000
,
0000
0000
0000
0000
,
0101
0000
0000
0000
,
0000
0000
0000
0000
,
1001
0000
0000
0000
,
0000
0000
0000
0000
,
0110
0000
0000
0000
,
0000
0000
0000
0000
,
1000
0000
0000
0000
,
0100
0000
0000
0000
,
0010
0000
0000
0000
,
0001
0000
0000
0000
,
0110
0000
0000
0000
,
0000
0000
0000
0000
,
0001
0000
0000
0000
,
0000
0000
0000
0000
,
0100
0000
0000
0000
,
0000
0000
0000
0000
,
0010
0000
0000
0000
,
0000
0000
0000
0000
,
1100
0000
0000
0000
,
0000
0000
0000
0000
,
1010
0000
0000
0000
,
0000
0000
0000
0000
,
0011
0000
0000
0000
,
0000
0000
0000
0000
,
0101
0000
0000
0000
,
0000
0000
0000
0000
,
1001
0000
0000
0000
,
0100
0000
0000
0000
,
0010
0000
0000
0000
,
0001
0000
0000
0000
,
0100
0000
0000
0000
,
0100
0000
0000
0000
,
0001
0000
0000
0000
,
0010
0000
0000
0000
,
0010
0000
0000
0000
,
0000
0000
0000
0000
,
1000
0000
0000
0000
,
0001
0000
0001
0000
,
0001
0000
0000
0000
,
0000
0000
0000
0000
,
0100
0000
0000
0000
,
0000
0000
0000
0000
,
0011
0000
0000
0000
,
0000
0000
0000
0000
,
0101
0000
0000
0000
,
0000
0000
0000
0000
,
1100
0000
0000
0000
,
0000
0000
0000
0000
,
1010
0000
0000
0000
,
0000
0000
0000
0000
,
0010
0000
0000
0000
,
0100
0000
0000
0000
,
0001
0000
0000
0000
,
1000
0000
0000
0000
,
0100
0000
0000
0000
;

//---------------dance-single - Copied from----------------
#NOTES:
     dance-single:
     Copied from:
     Medium:
     7:
     0.555,0.498,0.125,0.216,0.000:
0000
0000
0000
0000
,
0000
0000
0000
0000
,
0000
0000
0000
0000
,
0000
0000
0000
0000
,
1000
0100
0010
0001
1000
0100
0010
0001
,
1000
0100
0010
0001
0010
0000
0000
0100
,
1000
0000
0000
0001
0100
0000
0000
0010
,
1000
0001
1000
0001
0100
0000
0000
0000
,
0001
0010
0100
1000
0100
0000
0010
0000
,
0100
0000
1000
0000
0001
0001
0001
0000
,
0010
0100
1000
0100
0010
0001
0100
0000
,
0010
0000
0100
0000
1000
1000
1000
0000
,
0100
0010
0100
1000
0001
0010
0001
0000
,
0100
0000
0001
0000
0010
0010
0010
0000
,
0100
1000
0001
0010
0001
0100
0010
0000
,
0100
0000
0100
0000
1000
1000
1000
0000
,
0100
0010
1000
0100
,
0010
0001
0100
0000
1001
0000
0010
0000
,
0100
0100
0001
0000
0010
0010
0100
0000
,
1000
0100
1000
0000
0010
0010
0100
0000
,
0001
0010
0001
0000
0100
0000
0001
0000
,
1000
0100
1000
0000
0010
0000
0100
0000
,
0001
0010
0100
0000
0001
0010
0100
0000
,
1000
0100
0010
0001
0010
0100
0100
0000
,
2000
3200
0320
0031
,
0100
0001
0010
0100
1000
0010
0100
0000
,
0002
0203
0320
1030
,
0100
1000
0010
0100
0001
0010
0100
0000
,
2000
3200
0320
0031
,
0100
0001
0010
0100
1000
0000
0010
0000
,
0200
0302
0023
0130
,
1000
0100
0010
0001
0010
0100
1000
0000
,
0001
0100
0010
1000
,
0001
0100
0010
1000
,
0100
0010
0001
0000
1000
0100
0010
0000
,
0001
0010
0100
0000
0010
0100
1000
0000
,
0001
0100
0010
1000
0001
0000
0100
0000
,
0101
1010
1100
1000
,
0100
0010
0100
1000
0010
0000
0100
0001
,
0000
0100
0010
0000
1000
0001
1000
0001
,
0100
0000
0010
1000
0001
0000
0100
0000
,
0001
0010
0100
1000
0010
0000
0100
0000
,
1000
0100
0010
0000
0100
0010
0001
0000
,
2000
0000
3020
0000
0130
0001
0100
0000
,
0002
0203
0320
1030
,
0100
0010
0100
1000
0001
0000
0010
0000
,
0200
0320
0032
0103
,
0010
1000
0001
0100
0001
0000
1000
0000
,
0200
0320
0230
1300
,
0100
1000
0010
0100
0001
0000
1000
0000
,
0002
2003
3200
1300
,
0010
0100
0001
0010
0100
1000
0001
0000
,
0100
0001
1000
0100
0010
0000
0100
0000
,
1000
0001
0010
0100
0010
0001
1000
0000
,
0010
0100
0001
1000
0100
0000
1000
0000
,
0010
0100
0010
0100
0001
0100
0001
0000
,
1000
0100
0010
0100
1000
0000
0100
0000
,
0010
0001
1000
0001
0010
0001
0100
0000
,
0010
1000
0001
0100
0010
0000
0100
0000
,
0010
1000
0010
1000
0001
0100
0001
0000
,
0010
0100
1000
0001
0010
0000
0100
0000
,
0010
0001
1000
0000
1100
0000
0011
0000
,
1000
0001
0100
0010
1000
0000
0001
0100
,
0000
0100
0010
0000
1000
0001
1000
0001
,
0100
0000
0010
1000
0001
0000
0100
0000
,
0001
0001
0010
0010
0100
0000
1000
0000
,
0100
0010
1000
0000
0100
0010
1000
0000
,
0100
0000
0010
0000
0100
1000
1001
0000
,
0100
0101
1100
0100
,
1000
0010
0100
0001
0010
0000
0100
0000
,
0010
1010
0011
0010
,
0100
0001
0010
0100
1000
0000
0001
0000
,
0100
1100
0101
0100
,
1000
0010
0100
0001
0010
0000
0100
0000
,
0001
0011
0101
1000
,
0100
0010
0001
0010
0100
1000
0100
0000
,
1000
0100
0010
0001
1000
0100
0010
0001
,
1000
0100
0010
0001
0100
0000
0000
0100
,
0001
0000
0000
0100
1000
0000
0000
0100
,
0010
0100
1000
0001
0010
0000
0100
0000
,
0010
0000
0000
0000
;

//---------------dance-single - Copied from----------------
#NOTES:
     dance-single:
     Copied from:
     Hard:
     8:
     0.589,0.535,0.174,0.108,0.000:
0000
0000
0000
0000
,
0000
0000
0000
0000
,
0000
0000
0000
0000
,
0000
0000
0000
0000
,
0001
0010
0100
0010
0001
1000
0100
0010
,
0100
1000
0001
0100
0001
0000
1000
0100
,
0010
0000
0010
0100
1000
0000
0001
0100
,
0010
0100
0010
1000
0001
0100
0101
0000
,
1000
0100
0010
0100
1000
0001
0100
0000
,
0010
0100
0001
0000
1000
0100
0010
0000
,
0100
1000
0010
0100
0001
0100
1000
0000
,
0100
0010
0100
0000
0001
1000
0001
0000
,
0001
0010
0100
0010
0001
1000
0100
0000
,
0100
1000
0010
0000
0100
0001
0010
0000
,
0100
0010
0100
0001
1000
0001
0100
0010
,
1000
0100
0010
0000
0001
0100
0010
0000
,
1000
0001
0100
0001
0100
0000
1000
0100
,
0010
0100
1000
0001
0100
0000
0000
0010
,
0100
0000
0101
0000
1100
0000
0100
0010
,
0000
0100
1000
0000
0100
0010
0001
0000
,
1000
0001
0100
0000
0010
0000
0100
0001
,
0100
1100
0101
0010
,
0100
0001
0100
0000
0010
1000
0010
0000
,
0100
0000
0001
0000
0010
0100
0100
0000
,
2000
3100
0110
0100
,
1000
0010
0100
0001
0010
0100
1000
0000
,
0002
0103
0011
0100
,
1000
0010
0100
0001
0010
0100
1000
0000
,
0020
0130
1100
0100
,
0010
1000
0001
0100
0001
0001
1000
0000
,
2000
0000
3001
0000
0101
0000
0100
0010
,
1000
1000
0100
0010
0001
0001
0100
0010
,
0100
0000
0100
0000
0010
0100
0010
0000
,
1000
0000
1000
0000
0001
1000
0001
0000
,
0010
0001
0100
0000
0001
0100
0010
0000
,
1000
0100
0010
0100
1000
0100
0100
0000
,
0100
0010
0001
1000
0100
0010
0100
0000
,
1000
0001
1000
0000
0101
0000
1000
0000
,
0010
0100
0001
0010
0100
1000
0100
0010
,
0000
0100
0010
0000
0001
0010
0001
0000
,
0100
0001
1000
0100
1000
0000
0010
0100
,
0010
1000
0100
0000
1100
0000
0010
0000
,
0100
0010
0001
0010
0001
0000
0100
0001
,
0010
0100
1000
0100
1000
0100
0100
0000
,
0020
0130
0011
1000
,
0001
0100
1000
0100
0001
0010
0100
0000
,
2000
3100
1001
0010
,
0001
0010
0100
1000
0001
0100
0001
0000
,
0200
0310
1010
0100
,
0010
1000
0100
0010
0001
0100
0010
0000
,
2000
0000
3001
0000
0011
0000
0010
0001
,
0001
0100
0010
0100
0001
0010
0100
0010
,
0001
0000
1000
0000
0100
1000
0010
0000
,
0100
0001
0010
0100
1000
0000
0010
0000
,
0100
0000
0010
0100
0010
1000
0100
0000
,
0010
0100
0010
0001
1000
0000
0001
0000
,
0100
0001
0010
0000
0100
1000
0010
0000
,
0100
0010
0100
0001
0100
0000
1000
0000
,
0100
0010
1000
0100
0010
0001
0100
0000
,
0001
0000
0010
0000
0001
0100
0001
0000
,
1000
0100
0010
0100
1000
0001
0100
0000
,
0001
0010
0001
0000
0101
0000
0001
0000
,
1000
0100
0010
0100
1000
0001
0010
0100
,
0000
0010
0001
0000
0100
0010
0100
0000
,
0010
1000
0100
0000
1000
0100
0010
0000
,
0001
0010
0001
0000
0101
0000
0010
0000
,
0100
0010
0100
0001
1000
0100
1000
0000
,
0100
0000
0001
0000
0100
0010
0010
0000
,
0002
1003
0101
1000
,
0010
0100
0010
1000
0100
0010
0001
0000
,
0200
0000
1300
0000
0110
0000
0001
1000
,
0100
0010
0100
1000
0001
0010
0100
0000
,
0002
0000
0103
0000
0110
0000
0001
1000
,
0100
0010
0100
1000
0001
0010
0100
0000
,
0200
0000
0310
0000
0011
0000
1000
0100
,
0010
0001
1000
0100
0010
0100
0010
0000
,
0001
0010
0100
1000
0100
0010
0100
0001
,
0100
1000
0010
0100
0010
0000
0100
0001
,
0010
0000
0010
0100
0010
0000
0100
1000
,
0001
0010
0001
0100
1000
0100
0010
0000
,
2000
0000
3000
0000
;

//---------------dance-single - Copied from ----------------
#NOTES:
     dance-single:
     Copied from:
     Challenge:
     9:
     0.685,0.602,0.349,0.066,0.025: // measure 1
0000
0000
0000
0000
,  // measure 2
0000
0000
0000
0000
,  // measure 3
0000
0000
0000
0000
,  // measure 4
0000
0000
0000
0000
,  // measure 5
0001
0010
0100
0010
0100
0010
1000
0001
,  // measure 6
0100
0010
1000
0001
0100
0000
0100
0001
,  // measure 7
0100
0000
0000
0000
0100
0000
0010
1000
0001
0000
0000
0000
0010
0000
0001
0000
,  // measure 8
0100
0000
0001
1000
0001
0000
0100
0000
0010
0000
0100
0000
0010
0000
0000
0000
,  // measure 9
1001
0001
0100
0010
1000
0100
0010
0001
,  // measure 10
0100
0001
0010
0100
0010
0001
1000
0100
,  // measure 11
0010
0100
1000
0001
0100
1000
0100
0001
,  // measure 12
0100
0010
0100
0001
0010
0100
0010
0100
,  // measure 13
1000
0100
0010
0100
1000
0001
0100
0001
,  // measure 14
1000
0010
1000
0100
0010
0001
0100
0010
,  // measure 15
0100
0001
1000
0010
0001
0010
1000
0100
,  // measure 16
0010
0001
0100
0010
1000
0010
0100
0001
,  // measure 17
1000
0100
1000
0100
1000
0000
0010
0100
,  // measure 18
0001
0100
0001
0100
0010
0000
0100
0010
,  // measure 19
1000
0001
1000
0001
0100
0000
0100
0001
,  // measure 20
0000
0100
1000
0000
0001
1000
0001
0000
,  // measure 21
0110
0010
1000
0100
0001
0000
0100
1000
,  // measure 22
0010
0100
0001
0010
0100
0000
1000
0100
,  // measure 23
0010
0100
0010
0100
1000
0000
0001
0100
,  // measure 24
0002
0000
0023
0000
0130
0010
1001
0000
,  // measure 25
0011
0000
0110
0000
1100
0000
0010
0100
,  // measure 26
0001
0010
0001
1000
0010
1000
0100
0000
,  // measure 27
0110
0000
1100
0000
0011
0000
1000
0100
,  // measure 28
1000
0001
0010
0100
1000
0001
0100
0000
,  // measure 29
1100
0000
0110
0000
0011
0000
0100
0001
,  // measure 30
0010
0100
0010
0001
1000
0100
1000
0000
,  // measure 31
0011
0000
1100
0000
0110
0000
1000
0001
,  // measure 32
0010
1000
0010
0001
0100
0010
0100
0001
,  // measure 33
1000
0100
0010
0001
0010
0100
1000
0100
,  // measure 34
0010
0001
0010
0100
1000
0000
1000
0100
,  // measure 35
1000
0100
0010
0001
0010
0100
1000
0100
,  // measure 36
0010
0001
0010
0100
1000
0001
0001
0000
,  // measure 37
0101
0001
0100
0010
0100
0000
0001
1000
,  // measure 38
0100
0010
0100
0010
0100
0000
1000
0100
,  // measure 39
0010
0001
0010
0001
0010
0000
0010
0100
,  // measure 40
0000
0000
0010
0000
0001
0000
0000
0000
1000
0000
0001
0100
0001
0000
1000
0100
,  // measure 41
1000
0010
1000
0010
2000
0000
3100
0010
,  // measure 42
0001
0100
0001
0100
0001
0000
0010
0000
,  // measure 43
0001
0100
0010
0100
0010
0000
0010
0001
,  // measure 44
0020
0000
2030
0000
3010
0100
1001
0000
,  // measure 45
0101
0000
1010
0000
0011
0000
0010
0100
,  // measure 46
0010
1000
0001
0100
0001
1000
0010
0000
,  // measure 47
0011
0000
0101
0000
1010
0000
0100
1000
,  // measure 48
0001
0100
0001
0010
0100
1000
0010
0000
,  // measure 49
1010
0000
0011
0000
0101
0000
0010
0100
,  // measure 50
0001
1000
0001
0010
0100
1000
0010
0000
,  // measure 51
0011
0000
1010
0000
0101
0000
0010
0100
,  // measure 52
0001
1000
0100
0010
0001
1000
0100
0010
,  // measure 53
0001
0100
0001
1000
0010
0100
0001
0010
,  // measure 54
0100
1000
0010
0100
0001
1000
0010
0010
,  // measure 55
0100
0001
0010
1000
0010
0001
0100
0010
,  // measure 56
1000
0100
0010
0100
1000
0001
0010
0001
,  // measure 57
0100
0010
0100
0001
0001
0010
0100
0010
,  // measure 58
0001
0100
1000
0100
0001
0010
0100
1000
,  // measure 59
0010
1000
0001
0100
0001
0010
0001
0100
,  // measure 60
0001
0010
0100
1000
0010
0100
0001
1000
,  // measure 61
0100
0010
0100
0010
0100
0010
0000
0100
,  // measure 62
1000
0001
1000
0001
0010
0000
0001
0100
,  // measure 63
0001
0010
0001
0010
0001
1000
0001
1000
,  // measure 64
0000
1000
0100
0000
0010
0100
0010
0000
,  // measure 65
0001
1000
0001
1000
0001
0010
0000
0001
,  // measure 66
1000
0100
1000
0100
0010
0000
0100
1000
,  // measure 67
0010
1000
0010
1000
0010
1000
0001
0100
,  // measure 68
0002
0000
0023
0000
0130
0010
1001
0000
,  // measure 69
0110
0000
1001
0000
0101
0000
1000
0100
,  // measure 70
0010
0100
1000
0001
0010
0100
0010
0000
,  // measure 71
0101
0000
1001
0000
0110
0000
0001
0100
,  // measure 72
0010
1000
0100
0010
0010
0100
1000
0000
,  // measure 73
1001
0000
0101
0000
0110
0000
1000
0100
,  // measure 74
0010
0001
0010
0100
0010
0001
1000
0000
,  // measure 75
0110
0000
0101
0000
1001
0000
0100
0001
,  // measure 76
0010
0100
0010
0001
1000
0100
0001
0100
,  // measure 77
1000
0010
1000
0010
0100
0001
0100
0001
,  // measure 78
0010
0100
0010
0100
1000
0000
1000
0100
,  // measure 79
0010
0000
0000
0000
0010
0000
0001
1000
0001
0000
0000
0000
0100
0000
0100
0000
,  // measure 80
0010
0000
1000
0001
1000
0000
0100
0000
0010
0000
0100
0000
1000
0000
0001
0000
,  // measure 81
0020
0000
0030
0000
;
