#TITLE:流星☆ハニー (Perforation Mix);
#SUBTITLE:;
#ARTIST:新谷あきら rmx by good-cool;
#TITLETRANSLIT:Ryusei Honey (Perforation Mix);
#SUBTITLETRANSLIT:;
#ARTISTTRANSLIT:Akira Shintani rmx by good-cool;
#GENRE:;
#CREDIT:;
#MENUCOLOR:;
#NEWMETERSYSTEM:NO;
#BANNER:Ryusei Honey Perforation Mix-bn.png;
#BACKGROUND:Ryusei Honey Perforation Mix-bg.png;
#LYRICSPATH:;
#CDTITLE:MixMania 4 CD Title.png;
#MUSIC:Ryusei Honey Perforation Mix.mp3;
#OFFSET:-0.440;
#SAMPLESTART:62.040;
#SAMPLELENGTH:12.000;
#SELECTABLE:YES;
#LISTSORT:;
#BPMS:0.000=148.000,184.000=296.000,248.000=74.000,256.000=148.000;
#STOPS:;
#BGCHANGES:;
#ATTACKS:;

//---------------dance-single - ----------------
#NOTES:
     dance-single:
     :
     Easy:
     5:
     0.356,0.436,0.209,0.072,0.004:
0000
0000
0000
0000
,
0000
0000
0000
0000
,
0001
1000
0001
0100
,
0001
1000
0100
0100
,
1000
0010
0100
0001
,
1000
0001
1000
0000
0000
0000
0000
0000
,
0110
0000
0001
0000
1000
0000
0001
0100
,
1000
0100
0010
1000
,
0100
0000
0100
0000
0010
0000
0001
1000
,
0100
0100
0100
0000
,
0010
0000
0001
0000
1000
0000
0001
0100
,
1000
0010
0100
0010
,
1000
0000
1000
0000
0100
0000
0010
0001
,
1000
0100
1000
0001
,
0000
0101
0000
1000
,
0001
0100
1000
0000
0010
0000
0100
0000
,
0010
0000
0000
1000
0000
0000
0100
0000
,
0010
0001
1000
1001
,
0000
0011
0000
0001
,
0100
0001
0010
0000
0001
0000
1000
0000
,
0100
0000
0000
0010
0000
0000
0001
0000
,
1000
0000
0010
0000
0100
0010
0100
0000
,
0000
1001
0000
0100
,
1000
0010
0100
0000
0010
0000
1000
0000
,
0001
0000
0000
0010
0000
0000
1000
0000
,
0000
0000
0100
0000
0010
0001
1000
0000
,
0000
1001
0000
0001
,
1000
0001
0010
0100
,
0010
0000
0000
0100
0000
0000
1000
0000
,
0001
1000
0001
0010
,
0110
0000
0001
0000
1000
0000
0001
0100
,
0001
1000
0100
0010
,
0010
0000
0100
0000
1000
0000
1000
0010
,
0100
0010
0100
0000
,
0001
0000
0010
0000
0100
0000
0010
0001
,
1000
0001
0100
0010
,
1000
0000
1000
0000
0100
0000
0010
0001
,
0010
0001
0202
0303
,
1001
0100
1001
0010
,
0001
0100
1000
0000
1000
0100
0001
0000
,
1001
0100
1001
0100
,
1000
0100
0010
0000
1000
0100
0010
0000
,
1001
0001
1001
1000
,
0100
0010
0100
0000
0001
1000
0001
0000
,
1100
0001
0101
1000
,
0010
0100
0010
0000
0001
1000
0001
1000
,
0100
0000
1000
0000
,
0010
0000
0100
0000
,
0001
0000
1000
0000
,
0001
0010
0001
0000
,
0200
0000
0010
0000
,
0301
0000
1001
0000
,
0020
0000
0100
0000
,
1030
0000
1001
0000
,
0001
0000
0100
0000
,
0010
0000
1000
0000
,
0100
0000
0010
0000
,
0100
1000
0100
0000
,
0020
0000
0001
0000
,
0130
0000
0110
0000
,
0200
0000
0010
0000
,
1300
0000
1001
0000
,
0100
0010
0001
1000
,
0001
0100
0010
0100
,
1001
0100
0000
0100
,
1001
0010
0000
0010
,
0001
0100
1000
0100
,
0001
1000
0001
1000
0200
0000
0300
0000
,
1001
0010
0100
1000
,
0100
0000
0010
0000
0100
0010
0000
0000
,
0001
0000
0000
0000
1000
0000
0000
0000
0001
0000
0000
0000
0100
0000
0000
0001
,
0000
1000
1001
1001
,
0001
0100
0001
0000
0001
0100
0010
0000
,
0010
0100
0010
0000
0010
1000
0100
0000
,
1000
0100
0010
0001
,
1000
0000
0001
1000
0000
0000
0010
0000
,
2002
0000
0000
0000
,
0000
0000
3003
0000
;

//---------------dance-single - Copied from----------------
#NOTES:
     dance-single:
     Copied from:
     Beginner:
     1:
     0.124,0.249,0.145,0.064,0.000:
0000
0000
0000
0000
,
0000
0000
0000
0000
,
0110
0000
0001
0000
,
1000
0000
0100
0000
,
0010
0000
0100
0000
,
2000
3000
0000
0000
,
1001
0000
0000
0000
,
0001
0000
0000
0000
,
1000
0000
0000
0000
,
0100
0000
0100
0000
,
0010
0000
0000
0000
,
0100
0000
0000
0000
,
1000
0000
0000
0000
,
0001
0000
0000
0000
,
0000
0011
0000
0000
,
0000
0000
0000
0001
,
0001
0000
0000
0000
,
0100
0000
0000
0000
,
0000
1001
0000
0000
,
0000
0000
0000
1000
,
1000
0000
0000
0000
,
0100
0000
0000
0000
,
0000
0110
0000
0000
,
0000
0000
0000
0010
,
0010
0000
0000
0000
,
0001
0000
0000
0000
,
0000
1010
0000
0000
,
0000
0000
0000
0010
,
0010
0000
0000
0000
,
0100
0000
0000
0000
,
1001
0000
0000
0000
,
0010
0000
0000
0000
,
1000
0000
0000
0000
,
0100
0000
0100
0000
,
1000
0000
0000
0000
,
0001
0000
0000
0000
,
0010
0000
0000
0000
,
0200
0000
0300
0000
,
0110
0000
0110
0000
,
0020
0000
0030
0000
,
1001
0000
1001
0000
,
2000
0000
3000
0000
,
0110
0000
0110
0000
,
0002
0000
0003
0000
,
1001
0000
1001
0000
,
0200
0000
0300
0000
,
0100
0000
0000
0000
,
0000
0000
0000
0000
,
0100
0000
0000
0000
,
0010
0000
0000
0000
,
0100
0000
0000
0000
,
0000
0000
0000
0000
,
0001
0000
0000
0000
,
0000
0000
0000
0000
,
1001
0000
0000
0000
,
0000
0000
0000
0000
,
1000
0000
0000
0000
,
0001
0000
0000
0000
,
0010
0000
0000
0000
,
0000
0000
0000
0000
,
0100
0000
0000
0000
,
0000
0000
0000
0000
,
0200
0000
0000
0000
,
0000
0000
0300
0000
,
1001
0000
0000
0000
,
1001
0000
0000
0000
,
0010
0000
0010
0000
,
0010
0010
0010
0000
,
0100
0000
0000
0000
,
0100
0000
0000
0000
,
0001
0000
0000
0000
,
1000
0000
0001
0001
,
0001
0000
0000
0000
,
0100
0000
0000
0000
,
1000
0000
0000
0000
,
0100
0000
0000
0000
,
2000
0000
0000
0000
,
0000
3000
0000
0000
;

//---------------dance-single - Copied from----------------
#NOTES:
     dance-single:
     Copied from:
     Medium:
     7:
     0.483,0.530,0.467,0.225,0.004:
0000
0000
0000
0000
,
0000
0000
0000
0000
,
0110
1001
0100
0001
,
0100
0000
1000
0000
0100
0001
0010
0000
,
0110
0000
1001
0000
0001
0100
1000
0000
,
1000
0100
0002
0000
0010
0000
0103
0000
,
1001
0000
1100
0000
1001
0000
0010
0001
,
0100
0001
1000
1100
,
1010
0000
0110
0000
0001
0100
1000
0100
,
0001
0010
0010
0000
,
0110
0000
0001
0000
0101
0000
1000
0100
,
1100
0010
0100
1001
,
0110
0001
1100
1000
,
1010
0000
0100
0000
0001
0010
0100
1000
,
0110
0000
2010
0000
3100
0000
0001
1000
,
0100
0010
0001
0000
0100
0000
0001
0000
,
0020
0000
0031
0200
0000
0310
2000
0000
,
3100
0000
0010
0000
0001
0001
0010
0000
,
0101
0000
2001
0000
3010
0000
1000
0010
,
0001
1000
0001
0000
0010
0000
0100
0000
,
2000
0000
3100
0020
0000
0031
0200
0000
,
0310
0000
0010
0000
1000
0001
1000
0000
,
0011
0000
1200
0000
0310
0000
0001
0100
,
0010
1000
0001
0000
1000
0000
0100
0000
,
2000
0000
3001
0020
0000
0031
2000
0000
,
3010
0000
0100
0000
0010
0100
0010
0000
,
1001
0000
0120
0000
1030
0000
0001
0010
,
0100
0010
0001
0000
1000
0000
0001
0000
,
0200
0000
0310
2000
0000
3001
0020
0000
,
0031
0000
1000
0000
0001
1000
0001
0000
,
0110
0000
1001
0000
0110
0000
0001
0100
,
1000
0100
0010
0011
,
0101
0000
1100
0000
1000
0100
0010
0001
,
0100
0010
0110
0000
,
1100
0000
0001
0000
0101
0000
0010
0001
,
0011
0001
1000
1100
,
1010
0100
0110
0001
,
2002
0000
3003
0000
0001
0010
0100
1000
,
0110
0001
0110
1000
,
0001
0100
1000
0010
0100
0000
0100
0000
,
0110
1000
0110
0001
,
0010
0001
0010
0000
0100
0100
0100
0000
,
0110
0001
0110
1000
,
0001
0100
1000
0100
0001
0000
1000
0000
,
0110
1000
0110
0001
,
0100
0010
0100
0000
0001
0001
1000
1000
,
0001
0000
1001
0000
,
1000
0100
1000
0000
,
0001
0100
0001
0000
,
0010
0100
0020
0000
,
0130
0000
0001
1000
,
0001
0100
0001
0000
,
1000
0000
0010
1000
,
0010
1000
0100
0000
,
0010
0000
1001
0000
,
0001
0100
0010
0000
,
1000
0100
0010
0000
,
0100
1000
0002
0000
,
1003
0000
0001
0100
,
0001
0100
0001
0000
,
1001
0000
1000
0010
,
1000
0010
1000
0000
,
0110
0010
1000
0001
,
0100
0000
0001
0000
1000
0100
0010
0001
,
1001
0100
0010
0100
,
1001
0100
0010
0100
,
0001
0010
0100
1000
0001
0010
0100
1000
,
0002
2003
3010
0000
,
0110
1001
1000
0100
,
0010
0001
0010
0100
1000
0000
1000
0000
,
0001
0000
0000
0000
1000
0000
0000
0000
0001
0000
0000
0000
0200
0000
0000
0320
,
0000
1030
0110
0110
,
0001
0100
0001
0100
0010
1000
0010
1000
,
0001
0000
1000
0000
0100
0010
0100
0000
,
0010
0001
1000
0001
0100
1000
0100
0001
,
0100
0001
0010
0200
0000
1300
1000
0000
,
0220
0000
0000
0000
,
0000
0000
0330
0000
;

//---------------dance-single - Copied from----------------
#NOTES:
     dance-single:
     Copied from:
     Hard:
     9:
     0.600,0.655,0.627,0.265,0.048:
0000
0000
0000
0000
,
0000
0000
0000
0000
,
1001
0001
0100
1000
0100
0010
0001
0100
,
0010
1000
0100
0010
0200
0000
0310
0000
,
0100
0001
0010
0100
1000
0001
0100
0010
,
0100
0100
0110
0000
0002
0000
2003
0000
,
3100
0000
0110
0000
1010
0000
0001
0100
,
1100
0110
0101
1001
,
0110
0000
0110
0000
0001
0010
0100
1000
,
1001
0110
1002
0103
,
1100
0000
0010
0000
0110
0000
0010
0001
,
0101
0010
0001
0101
,
1100
0000
0010
0000
1100
0010
0001
0010
,
1001
0110
2001
3010
,
0001
0000
0110
0000
0001
0000
1000
0100
,
0010
0001
0100
0010
2000
0000
3002
0000
,
0203
1000
1300
0200
0010
0310
2000
0000
,
3001
0000
0110
0000
1000
0100
0001
0000
,
0010
0000
0110
0000
0001
0000
1000
0100
,
0001
0010
0100
1000
0001
0100
0001
0000
,
2000
0100
3100
0020
0001
0031
0020
0000
,
0130
0000
0010
0000
0001
1000
0001
0100
,
0010
0000
0110
0000
1000
0000
0001
0010
,
0100
1000
0001
0010
0100
0000
0010
0000
,
0002
0100
0103
0020
1000
1030
0200
0000
,
0310
0000
1000
0000
1000
0001
1000
0001
,
0100
0000
1001
0000
1000
0000
0001
0100
,
1000
0100
0001
0010
1000
0000
0010
0000
,
0002
0010
0013
2000
0010
3010
0002
0000
,
1003
0000
0001
0000
1000
0001
0000
0100
0000
0001
0010
0000
0100
0000
0010
0000
,
1001
0000
1001
0000
0101
0000
1010
0100
,
1010
1001
0101
0011
,
1001
0000
1001
0000
0011
0010
0100
1000
,
1010
1001
0201
0310
,
0011
0000
0110
0000
1100
0000
1001
0010
,
1001
0011
1100
0011
,
1010
0000
0101
0000
0110
0001
1000
0001
,
0210
0000
0310
0000
0001
1000
0010
1001
,
0110
0000
0000
0001
0100
0000
0010
0000
1000
0000
0100
0000
0110
0000
0000
0000
,
0001
0100
1000
0100
0001
0010
0100
1000
,
0110
0000
0000
1000
0100
0000
0001
0000
0100
0000
1000
0000
0110
0000
0000
0000
,
0001
1000
2000
0000
3100
0010
1001
0000
,
0011
0000
0000
0100
1000
0000
0100
0000
0010
0000
0100
0000
0011
0000
0000
0000
,
1000
0001
0100
0001
0010
1000
0010
0001
,
0011
0000
0000
0001
0100
0000
0010
0000
1000
0000
0100
0000
0011
0000
0000
0000
,
0001
1000
0002
0000
0103
0100
0100
0010
,
1001
0001
0100
0010
,
1000
0100
0001
0100
,
1000
0010
0100
0001
,
1000
0001
0101
0000
,
0001
1000
0100
1000
,
0020
0100
0130
0000
,
0001
1000
0100
0010
,
0002
0100
0103
0000
,
1000
0100
0010
0001
,
0010
0100
1000
0010
,
0100
0001
1000
0010
,
1000
0001
0110
0000
,
0010
0100
0001
1000
,
0020
0100
0130
0000
,
0001
0100
0001
1000
,
2000
0100
3100
0000
,
1001
0000
1000
0001
0100
0001
0010
0000
,
0110
0000
0001
1000
0001
0100
1000
0000
,
0110
1001
0010
0100
,
1001
0110
0001
1000
,
0001
0010
0001
0010
0100
1000
0100
1000
,
0001
0000
1000
0000
0001
1000
0001
1000
0002
0000
0000
0000
0003
0000
0000
0000
,
1001
0000
1100
0000
1000
0100
0010
0001
,
1000
0100
0010
0000
0100
0010
0001
0000
0100
0000
0010
0000
0100
0000
0000
0000
,
0010
0000
1000
0000
0001
0000
0100
0000
0001
0000
0010
0000
0100
0000
1000
0200
,
0000
0310
1100
0011
,
1000
0100
1000
0100
0010
0001
0010
0001
,
0100
0001
1000
0010
0100
0200
0000
0300
,
0010
1000
0001
0100
0001
0010
1000
0010
,
0001
0100
0010
2000
0001
3001
0110
0000
,
2002
0000
0000
0000
,
0000
0000
3003
0000
;

//---------------dance-single - Copied from----------------
#NOTES:
     dance-single:
     Copied from:
     Challenge:
     10:
     0.673,0.748,0.756,0.209,0.113: // measure 1
0000
0000
0000
0000
,  // measure 2
0000
0000
0000
0000
,  // measure 3
1001
0010
1000
0010
0001
0100
0010
1000
,  // measure 4
0001
0100
0010
1000
0001
0100
0101
0000
,  // measure 5
1001
0100
1000
0010
0100
0001
0010
0100
,  // measure 6
0010
0001
0010
0001
2000
0000
0000
0000
3100
0000
0000
0000
0010
0000
0000
0000
,  // measure 7
1001
0000
1100
0000
1010
0000
1001
0100
,  // measure 8
1001
0000
0101
0000
1010
0000
1001
0010
,  // measure 9
0101
0000
1001
0000
0011
0100
0011
1000
,  // measure 10
1010
0110
1002
0013
,  // measure 11
1001
0000
1100
0000
0110
0000
0011
0100
,  // measure 12
0011
0000
1001
0000
1010
0100
1001
0000
,  // measure 13
0011
0000
1100
0000
1010
0100
0101
0010
,  // measure 14
0101
1001
0210
0301
,  // measure 15
1010
0000
1001
0000
0010
0000
0001
0100
,  // measure 16
0010
1000
0001
0100
1000
0100
0010
0000
,  // measure 17
1000
0001
0100
0001
0010
0100
1000
0010
,  // measure 18
0100
0001
1000
0001
0200
0010
0301
0000
,  // measure 19
1001
0000
0110
0000
0001
0000
1000
0100
,  // measure 20
0001
0100
1000
0010
0100
0001
0010
0000
,  // measure 21
0100
1000
0001
1000
0001
0010
0100
0010
,  // measure 22
0001
1000
0001
0100
0002
0100
1003
0000
,  // measure 23
0011
0000
1100
0000
0001
0000
1000
0100
,  // measure 24
0001
0100
1000
0010
0100
0001
0010
0000
,  // measure 25
1000
0100
0010
0001
1000
0001
0100
0010
,  // measure 26
1000
0010
0001
0010
0100
0010
0001
0100
,  // measure 27
1001
0000
1001
0000
1000
0000
0001
0010
,  // measure 28
0100
0010
0001
1000
0100
1000
0010
0000
,  // measure 29
0100
0010
1000
0001
0010
0100
0010
0001
,  // measure 30
1000
0000
0001
0000
1000
0010
0000
1000
0000
0001
0010
0000
0100
0010
0001
1000
,  // measure 31
0010
0000
0110
0000
1001
0000
0011
0100
,  // measure 32
0101
0000
1010
0000
1001
0000
0110
0001
,  // measure 33
1001
0000
0101
0000
1010
0100
0011
0100
,  // measure 34
1001
1100
0012
0103
,  // measure 35
0101
0000
1010
0000
1001
0000
0110
0001
,  // measure 36
1010
0000
1100
0000
0110
0000
0110
1000
,  // measure 37
1001
0000
1001
0000
0011
0100
1010
0100
,  // measure 38
0110
1000
0001
1000
0001
0011
0110
1100
,  // measure 39
1001
0000
0000
1000
0100
0000
0010
0000
0001
0100
0001
0000
0101
0000
0000
0000
,  // measure 40
0002
0010
0100
0010
1000
0100
1003
0000
,  // measure 41
1100
0000
0000
0010
0001
0000
0100
0000
0001
1000
0001
0000
0110
0000
0000
0000
,  // measure 42
2000
0100
3010
0000
0002
0010
0103
0000
,  // measure 43
0110
0000
0000
1000
0001
0000
1000
0000
0001
0100
0001
0000
1001
0000
0000
0000
,  // measure 44
2000
0010
0001
0100
0001
0010
3100
0000
,  // measure 45
1001
0000
0000
0100
0010
0000
0100
0000
0010
1000
0001
0000
0101
0000
0000
0000
,  // measure 46
2000
0100
3010
0000
0001
0001
0100
0100
,  // measure 47
1001
1000
0001
0100
,  // measure 48
0001
0010
0100
1000
,  // measure 49
0001
0100
0001
1000
,  // measure 50
0010
0000
0100
0000
0001
1000
0001
0010
,  // measure 51
0100
0010
0100
1000
,  // measure 52
0001
0100
0001
0000
2002
0000
3003
0000
,  // measure 53
0100
0010
0001
0010
,  // measure 54
1000
0001
1000
0000
0220
0000
0330
0000
,  // measure 55
1000
0100
0001
0100
,  // measure 56
1000
0010
0100
0001
,  // measure 57
1000
0001
0100
1000
,  // measure 58
0100
0000
0001
0000
1000
0010
1000
0001
,  // measure 59
0100
0010
1000
0001
,  // measure 60
0010
0100
1000
0000
0220
0000
0330
0000
,  // measure 61
0001
1000
0100
0001
,  // measure 62
0100
0000
1000
0000
0001
0010
0100
1000
,  // measure 63
0110
0010
0100
0001
1000
0100
0010
0001
,  // measure 64
1000
0001
0100
1000
0100
0001
0010
0100
,  // measure 65
1001
1000
0100
0010
0001
1000
0001
0010
,  // measure 66
1001
0100
1000
0001
0010
0100
0010
0001
,  // measure 67
1100
0100
0010
0010
0001
0001
1000
1000
,  // measure 68
0001
0010
0001
0010
0100
1000
0100
1000
0020
0000
0000
0000
0030
0000
0000
0000
,  // measure 69
0110
0000
1001
0000
1000
0100
0001
0100
,  // measure 70
1000
0010
1000
0000
0001
0100
0001
0000
0020
0000
0200
0000
0000
0000
0330
0000
,  // measure 71
1001
0000
1000
0000
0001
0000
0100
0000
0001
0000
0010
0000
0001
0100
0001
2000
,  // measure 72
0000
3100
0011
1100
,  // measure 73
0001
0010
0001
0000
0001
0010
0001
0000
1000
0100
1000
0000
1000
0100
1000
0000
,  // measure 74
0010
0100
0001
1000
0200
0020
0000
0330
,  // measure 75
1000
0001
0100
0001
0010
1000
0010
0001
,  // measure 76
1000
0001
1000
0000
0010
0000
0200
0000
0000
0000
0310
0000
0110
0000
0000
0000
,  // measure 77
0022
0000
0000
0000
,  // measure 78
0000
0000
0033
0000
;
