#TITLE:Rapunzel;
#SUBTITLE:;
#ARTIST:MAKI;
#TITLETRANSLIT:;
#SUBTITLETRANSLIT:;
#ARTISTTRANSLIT:;
#GENRE:;
#CREDIT:;
#MENUCOLOR:;
#NEWMETERSYSTEM:NO;
#BANNER:Rapunzel-bn.png;
#BACKGROUND:Rapunzel-bg.png;
#LYRICSPATH:;
#CDTITLE:MixMania 4 CD Title.png;
#MUSIC:Rapunzel.mp3;
#OFFSET:-1.120;
#SAMPLESTART:80.180;
#SAMPLELENGTH:12.000;
#SELECTABLE:YES;
#LISTSORT:;
#BPMS:0.000=170.000;
#STOPS:;
#BGCHANGES:;
#ATTACKS:;

//---------------dance-single - ----------------
#NOTES:
     dance-single:
     :
     Easy:
     3:
     0.205,0.289,0.093,0.162,0.000:
0000
0000
0000
0000
,
0000
0000
0000
0000
,
0000
0000
0000
0000
,
0000
0000
0000
0000
,
0001
0000
0100
0000
,
0010
0000
0010
0000
,
1000
0000
0100
0000
,
0010
0000
0010
0000
,
2001
0000
0200
0000
,
0000
0000
3300
0000
,
1001
0000
0010
0000
,
0010
0000
0010
0000
,
0001
0000
0100
0000
,
1000
0000
0100
0010
,
1000
0000
0100
0000
,
0010
0000
2001
0000
,
3002
0000
0200
0000
,
0000
0000
0303
0000
,
1001
0000
0100
0000
,
0100
0000
0100
0000
,
0001
0000
1000
0000
,
0100
0010
0001
0000
,
1000
0000
0001
0000
,
0100
0000
0100
0000
,
1001
0000
0010
0100
,
0010
0000
1000
0000
,
0001
0000
0010
0000
,
0100
0000
0100
0000
,
1000
0000
0001
0000
,
0100
0000
0010
0000
,
0220
0000
0000
0300
,
2000
0000
0000
3030
,
1001
0000
0100
0000
,
0001
0000
1000
0000
,
0100
0000
0100
0000
,
0010
0000
0100
0000
,
1000
0000
0001
0000
,
0010
0000
0001
0100
,
0010
0000
0010
0000
,
2000
0000
0002
3003
,
0110
0000
0010
0100
,
0010
0000
1000
0001
,
2000
0000
3002
0000
,
0203
0000
0302
0000
,
0013
0000
0100
1000
,
0100
0000
1000
1000
,
1000
0000
0001
0000
,
0010
0000
0001
0001
,
0010
0000
0001
0000
,
0100
0000
1000
0000
,
0100
0000
0010
0000
,
1000
0100
0010
0001
,
1000
0000
0001
0000
,
0100
0000
0000
0000
,
2002
0000
0000
3003
,
0220
0000
0000
0330
,
0001
0000
1000
0000
,
0100
0000
0010
0000
,
0100
0000
1000
0000
,
0001
0000
0010
0000
,
0001
0000
1000
0000
,
0100
0000
0010
0000
,
0100
0000
1000
0000
,
0020
0000
0130
0000
,
0110
0000
1000
0000
,
0001
0000
0100
0000
,
0010
0000
1000
0000
,
0200
0000
1300
0000
,
1001
0000
0100
0000
,
0010
0000
0001
0000
,
0100
0000
0100
0000
,
0010
0000
1000
0000
,
0100
0000
0100
0000
,
0100
0000
0100
0000
,
0010
0000
0010
0000
,
0010
0000
0010
0000
,
0001
0000
0001
0000
,
0100
0000
0000
0000
,
1000
0000
0000
0000
,
1000
0000
0010
0000
,
2000
0000
0000
0000
,
0000
0000
0000
0000
,
0000
0000
0000
0000
,
0000
3000
0000
0000
;

//---------------dance-single - Copied from----------------
#NOTES:
     dance-single:
     Copied from:
     Beginner:
     1:
     0.094,0.129,0.008,0.070,0.000:
0000
0000
0000
0000
,
0000
0000
0000
0000
,
0000
0000
0000
0000
,
0000
0000
0000
0000
,
0000
1000
0000
1000
,
0000
0001
0000
0001
,
0000
1000
0000
0001
,
0000
0200
0000
0300
,
0000
0010
0020
0000
,
0000
0000
0000
0000
,
0030
0000
0000
0000
,
0000
0000
0000
0000
,
0000
1000
0000
0000
,
0001
0000
0000
0000
,
1000
0000
0000
0000
,
0010
0000
0010
0000
,
0100
0000
0020
0000
,
0000
0000
0000
0000
,
0030
0000
0000
0000
,
0000
0000
0000
0000
,
1000
0000
0000
0000
,
0100
0000
0000
0000
,
0010
0000
0000
0000
,
0001
0000
0001
0000
,
1000
0000
0000
0000
,
0100
0000
0000
0000
,
1000
0000
0000
0000
,
0001
0000
0000
0000
,
0010
0000
0000
0000
,
0100
0000
0000
0000
,
0002
0000
0000
0000
,
0000
0000
0003
0000
,
1000
0000
0000
0000
,
0100
0000
0000
0000
,
1000
0000
0000
0000
,
0010
0000
0000
0000
,
0100
0000
0000
0000
,
0001
0000
0000
0000
,
0010
0000
0000
0000
,
2000
0000
3000
0000
,
0100
0000
0000
0000
,
0100
0000
0000
0000
,
0010
0000
0000
0000
,
1000
0000
0000
0000
,
0001
0000
0000
0000
,
0010
0000
0000
0000
,
0100
0000
0000
0000
,
0001
0000
0000
0000
,
1000
0000
0000
0000
,
0100
0000
0000
0000
,
0010
0000
0000
0000
,
0100
0000
0000
0000
,
0100
0000
0000
0000
,
1000
0000
0000
0000
,
0001
0000
0000
0000
,
0000
0000
0000
0000
,
0110
0000
0000
0000
,
0100
0000
0000
0000
,
1000
0000
0000
0000
,
0001
0000
0000
0000
,
0001
0000
0000
0000
,
1000
0000
0000
0000
,
0001
0000
0000
0000
,
0200
0000
0300
0000
,
0100
0000
0000
0000
,
0010
0000
0000
0000
,
0010
0000
0000
0000
,
1000
0000
0000
0000
,
0001
0000
0000
0000
,
0100
0000
0000
0000
,
0001
0000
0000
0000
,
0010
0000
0000
0000
,
0200
0000
0000
0000
,
0300
0000
0000
0000
,
2000
0000
0000
0000
,
3000
0000
0000
0000
,
0100
0000
0100
0000
,
0010
0000
0000
0000
,
0100
0000
0000
0000
,
1000
0000
0000
0000
,
0002
0000
0000
0000
,
0000
0000
0000
0000
,
0000
0000
0000
0000
,
0000
0003
0000
0000
;

//---------------dance-single - Copied from----------------
#NOTES:
     dance-single:
     Copied from:
     Medium:
     5:
     0.348,0.450,0.124,0.232,0.000:
0000
0000
0000
0000
,
0000
0000
0000
0000
,
0000
0000
0000
0000
,
0000
0000
0000
0000
,
1000
0100
1000
0100
,
0001
0100
0001
0100
,
1000
0100
1000
0100
,
0001
0100
0001
0100
,
0001
1000
0120
0000
,
1000
0000
0001
0030
,
0001
0100
1000
0000
,
1000
0100
0001
0000
,
0100
0000
1000
0000
,
0010
0000
0010
0100
,
0010
0000
0010
0100
,
0010
1000
0220
0330
,
0010
0100
1002
0000
,
1000
0000
0100
0003
,
1000
0100
0010
0000
,
1000
0100
0010
0000
,
0001
0010
0001
0000
,
0100
0010
1000
0000
,
0001
0100
1000
0100
,
0001
0010
0200
0300
,
1000
0100
0010
0001
,
1000
0100
0010
0001
,
0100
0010
1000
0001
,
0100
0010
1000
0001
,
0100
0001
0100
0001
,
1000
0010
1000
0010
,
1000
0000
1100
0000
,
0001
0000
0101
0000
,
0110
0001
0100
0001
,
1000
0010
1000
0010
,
0100
0010
0100
0010
,
1000
0001
1000
0001
,
0010
0001
0100
0010
,
1000
0010
0100
0001
,
0020
0130
2000
3100
,
1001
0010
0100
0010
,
0002
0100
1000
0103
,
2001
0100
0001
3100
,
0010
0000
0100
0000
0001
0010
0000
0000
,
0100
1000
0000
0100
0000
0100
0000
0000
,
1000
0010
0100
0001
,
0010
0100
0010
0001
,
2000
0000
0010
3000
0200
0000
0301
0000
,
0020
0130
1001
1001
,
0010
0000
0100
0000
0001
0000
1000
0001
,
0000
1001
0000
0000
0001
0000
0100
0001
,
0000
0010
0100
1000
,
0010
0100
0010
1000
,
0001
0000
0010
0001
,
0100
0000
0000
0000
0010
0000
0100
0002
,
0000
2000
0000
3003
,
0220
0000
0000
0330
,
1001
0100
0010
0100
,
0001
0100
0001
1000
,
0100
1000
0100
0010
,
0100
1000
0002
0003
,
0101
1000
0100
0010
,
0100
1000
0001
0100
,
0010
0100
0001
1000
,
0200
0000
0020
0330
,
1001
1000
0100
0001
,
0100
0001
0010
0010
,
0100
1000
0001
0000
,
0100
0100
0001
1000
,
1001
0010
0100
0010
,
1000
0100
1000
0100
,
0001
0100
0001
0100
,
1000
0010
0100
0001
,
0020
0031
0200
0310
,
2000
3100
0020
0130
,
2000
3001
0002
0103
,
0020
0130
0020
1030
,
0100
0000
0100
0000
1000
0010
0100
0000
,
0001
0000
0010
0001
,
0100
0000
0010
1000
,
0002
0000
2003
0000
,
3200
0000
0000
0000
,
0000
0000
0000
0000
,
0000
0000
0000
0000
,
0000
0300
0000
0000
;

//---------------dance-single - Copied from----------------
#NOTES:
     dance-single:
     Copied from:
     Hard:
     7:
     0.424,0.450,0.147,0.201,0.000:
0000
0000
0000
0000
,
0000
0000
0000
0000
,
0000
0000
0000
0000
,
0000
0000
0000
0000
,
1001
0010
1001
0100
,
1010
0100
1001
0010
,
1001
0010
0101
0010
,
0101
0010
1001
0100
,
0002
0000
1003
0000
0100
0010
0001
0000
,
1000
0001
0000
0100
,
0001
0000
1000
0100
1000
0000
0000
0000
,
0001
0000
1000
0000
,
0010
0100
0010
1000
,
0100
0000
0100
0000
0010
0000
0001
1000
,
0001
0100
0010
0100
,
0001
1000
0220
0330
,
0001
0000
1000
0000
0100
0010
0001
0000
,
1000
1000
0000
0010
,
0100
0000
0010
0100
0001
0000
0000
0000
,
0010
0000
1000
0000
,
0100
0000
1000
0000
0010
0000
0100
0001
,
1000
0000
0100
0000
1000
0000
0001
0010
,
0100
0100
1000
1000
,
0010
0100
2002
3003
,
0001
0000
0010
0000
0100
0010
0100
0000
,
1000
1000
0001
0100
,
0010
0000
1000
0001
1000
0000
0001
0000
,
0100
0000
0010
0100
0010
0000
1000
0000
,
0001
0010
0100
1000
,
0001
0000
0100
0000
1000
0000
0100
0001
,
0100
1000
0010
0100
,
0002
1000
0200
0303
,
1001
0000
1000
0000
0100
0010
0001
0000
,
1000
1000
0100
1000
,
0010
0000
0100
0010
1000
0000
1000
0000
,
0001
0000
0100
0010
0100
0000
0100
0000
,
0001
0000
0010
0000
0100
0000
0010
0001
,
1000
0000
0100
0000
0100
1000
0010
0100
,
0001
0000
0001
0100
0010
0000
0010
0000
,
0100
0001
1000
0100
0000
0010
0100
0000
,
1000
0000
0001
0000
0100
0000
0001
1000
,
0000
0000
1001
0000
0000
0010
0100
0010
,
0100
0000
0001
0000
1000
0100
0000
0000
,
0010
0001
0000
0100
0000
0100
0010
0000
,
1000
0000
0001
0000
0100
0000
0001
1000
,
0100
0000
0010
0100
0000
1000
0000
1001
,
0000
0010
0010
0100
,
0010
0100
0002
0023
,
0130
0000
1000
0000
0100
0000
1000
0100
,
0000
0100
0010
0000
0001
0100
0001
1000
,
0000
1000
0100
0010
,
0100
1000
0001
0000
0100
0000
0001
0000
,
0020
0000
0031
0000
0200
0000
0310
1000
,
0100
0000
0010
0000
0100
0000
1000
0001
,
0000
0000
0110
0000
0001
0100
0000
0010
,
1000
0100
0000
0100
0010
0001
1000
0100
,
0010
0000
0100
0000
0100
1000
0001
0000
,
0100
0000
0100
0000
0100
1000
0001
0000
,
0100
0000
0100
0000
0100
1000
0001
0000
,
0010
0000
0001
0100
0010
0000
0001
0100
,
0010
0000
0010
0000
0010
1000
0001
0000
,
0010
0000
0010
0000
0010
1000
0001
0000
,
0010
0000
0010
0000
0010
1000
0001
0000
,
0200
0320
2030
3002
,
0103
0000
0100
0000
0100
0001
0010
0000
,
0100
0000
0100
0000
0100
0001
0010
0000
,
0100
0000
0100
0000
0100
0001
0010
0000
,
0100
0000
1000
0001
0000
0110
0000
1000
,
0100
0000
0100
0000
1000
0100
0010
0000
,
0100
0000
0100
0000
1000
0100
0010
0000
,
0100
0000
0100
0000
1000
0100
0010
0000
,
0100
0100
2000
3002
,
0103
0010
0100
0001
,
0010
0100
1000
0001
,
0020
0031
0200
0310
,
2000
3100
0020
0130
,
0010
0000
1000
0000
0001
1000
0001
0000
,
1001
0010
0100
0001
,
0011
0100
1000
0001
,
0202
0303
2200
3300
,
0020
0000
0000
0000
,
0000
0000
0000
0000
,
0000
0000
0000
0000
,
0000
0030
0000
0000
;

//---------------dance-single - Copied from ----------------
#NOTES:
     dance-single:
     Copied from:
     Challenge:
     8:
     0.457,0.514,0.178,0.147,0.000: // measure 1
0000
0000
0000
0000
,  // measure 2
0000
0000
0000
0000
,  // measure 3
0000
0000
0000
0000
,  // measure 4
0000
0000
0000
0000
,  // measure 5
0001
0000
0010
0000
0100
1000
0010
0000
,  // measure 6
0100
0001
1000
0001
,  // measure 7
0110
1000
0001
0100
,  // measure 8
0001
0010
0100
1000
0001
0010
0100
1000
,  // measure 9
0001
0000
0100
0000
0120
0000
1000
1000
,  // measure 10
1000
0001
0130
1000
,  // measure 11
0100
0010
0001
0000
0100
0010
0001
0000
,  // measure 12
1000
0100
0010
0000
1000
0100
0010
0000
,  // measure 13
0100
0000
1000
0000
0001
0100
0001
0000
,  // measure 14
0010
0000
0100
1000
0010
0100
0001
0000
,  // measure 15
1001
0100
1001
0010
,  // measure 16
0011
0011
0202
0303
,  // measure 17
1000
0000
0100
0000
1002
0000
0010
0010
,  // measure 18
0010
1000
0103
1000
,  // measure 19
0010
0100
1000
0000
0010
0100
1000
0000
,  // measure 20
0001
0010
0100
0000
0001
0010
0100
0000
,  // measure 21
1000
0000
0001
0000
1000
0001
1000
0000
,  // measure 22
0010
0000
0100
0000
0010
1000
0010
0000
,  // measure 23
0200
0001
0310
0100
,  // measure 24
0020
1000
0100
0031
,  // measure 25
1001
0000
0100
0000
0001
0010
0100
0000
,  // measure 26
1000
0000
0100
0000
0010
0100
1000
0000
,  // measure 27
0010
0100
0001
0000
0010
1000
0100
0000
,  // measure 28
0010
0000
0100
0010
1000
0000
0010
0000
,  // measure 29
1000
0000
0100
0000
0010
0001
1000
0000
,  // measure 30
0010
0100
0001
1000
,  // measure 31
0001
0010
0001
0010
0001
0010
0001
0010
,  // measure 32
0002
0203
0320
0030
,  // measure 33
1010
0000
1000
0000
0100
0010
0100
0000
,  // measure 34
1000
0001
0100
0101
,  // measure 35
1100
0000
0100
1000
0010
0000
0100
0000
,  // measure 36
0010
0000
0010
0100
0010
0000
0100
0000
,  // measure 37
0001
1000
0100
0010
,  // measure 38
0100
0000
1000
0000
0001
0000
0100
0010
,  // measure 39
0100
0000
0010
1000
0100
0000
0010
0000
,  // measure 40
0001
0010
0100
1000
0000
0100
0010
0000
,  // measure 41
2001
0000
3010
0000
0010
0100
0001
0101
,  // measure 42
0000
0000
0001
0000
0100
0010
1000
0100
,  // measure 43
0000
0000
0110
0000
0010
1000
0001
0000
,  // measure 44
0010
0001
0100
0010
0000
1010
0000
0000
,  // measure 45
0001
0100
0001
1000
,  // measure 46
0100
0000
1000
0100
0010
0000
1000
0100
,  // measure 47
0010
0100
1000
0001
,  // measure 48
0010
0100
0001
0010
0100
1000
0010
0000
,  // measure 49
1001
0000
0100
0000
0010
1000
0100
0010
,  // measure 50
0000
0010
0001
0000
0100
0001
0010
0100
,  // measure 51
0000
0000
1000
0000
0010
0100
0010
0100
,  // measure 52
0001
0010
0000
0100
0000
0100
0000
1100
,  // measure 53
0000
0000
1000
0000
0100
0000
0010
0001
,  // measure 54
0000
0000
0001
0000
0100
0001
0010
0200
,  // measure 55
0000
0000
2300
0000
3100
1000
0000
1000
,  // measure 56
0010
0100
0000
0100
0001
0010
0100
1000
,  // measure 57
0001
0100
0001
1000
,  // measure 58
0100
0000
1000
0000
0010
0000
0100
0010
,  // measure 59
0100
0001
0010
0100
,  // measure 60
1000
0000
0001
0000
0100
0000
0010
1000
,  // measure 61
0001
0000
0100
0000
0001
0000
0010
0100
,  // measure 62
0010
0000
0001
0000
1000
0000
0100
1000
,  // measure 63
0100
1000
0010
0100
,  // measure 64
0001
1000
0001
1000
0001
0010
0100
1000
,  // measure 65
0010
0000
0100
0000
0010
0000
0100
0001
,  // measure 66
0100
0000
1000
0000
0100
0000
1000
0010
,  // measure 67
0100
0010
1000
0100
,  // measure 68
0010
0000
0100
1000
0000
1001
0000
0110
,  // measure 69
0000
0000
0001
0000
0100
0000
1000
0100
,  // measure 70
0001
0010
0100
1000
,  // measure 71
0001
1000
0001
0000
0010
0100
0010
0000
,  // measure 72
1000
0100
0020
0032
,  // measure 73
1003
0100
0010
0100
,  // measure 74
1000
0100
0010
0100
,  // measure 75
1000
0001
0010
0001
,  // measure 76
1000
0001
0010
0001
,  // measure 77
1000
0000
0001
0000
0001
0100
0010
0000
,  // measure 78
1100
0100
0010
0100
,  // measure 79
1001
0100
0010
0001
,  // measure 80
0200
0302
2003
3000
,  // measure 81
0220
0000
0000
0000
,  // measure 82
0000
0000
0000
0000
,  // measure 83
0000
0000
0000
0000
,  // measure 84
0000
0330
0000
0000
;
