#TITLE:δΉ±;
#SUBTITLE:;
#ARTIST:V.C.O.;
#TITLETRANSLIT:Ran;
#SUBTITLETRANSLIT:;
#ARTISTTRANSLIT:;
#GENRE:;
#CREDIT:;
#MENUCOLOR:;
#NEWMETERSYSTEM:NO;
#BANNER:Ran-bn.png;
#BACKGROUND:Ran-bg.png;
#LYRICSPATH:;
#CDTITLE:MixMania 4 CD Title.png;
#MUSIC:Ran.mp3;
#OFFSET:-4.100;
#SAMPLESTART:29.520;
#SAMPLELENGTH:12.000;
#SELECTABLE:YES;
#LISTSORT:;
#BPMS:0.000=151.000;
#STOPS:;
#BGCHANGES:;
#ATTACKS:;

//---------------dance-single - ----------------
#NOTES:
     dance-single:
     :
     Easy:
     3:
     0.248,0.292,0.057,0.251,0.000:
0000
0000
0000
0000
,
0000
0000
0000
0000
,
0020
0000
2030
0000
,
3200
0000
0000
0000
,
0310
0000
0000
0001
,
0001
0000
0100
0010
,
2000
0000
3002
0000
,
0203
0000
0320
0000
,
0130
0000
0010
1000
,
0001
0000
0010
0001
,
0002
0000
2003
0000
,
3200
0000
2300
0000
,
3010
0000
0100
0001
,
0100
0000
0010
0001
,
0020
0000
0032
0000
,
2003
0000
3200
0000
,
0310
0000
0100
0010
,
0001
0000
0000
1000
,
0001
0100
0001
1000
,
0100
0000
0000
1000
,
1000
0000
0100
0010
,
0001
0000
0000
0001
,
1000
0010
0100
0010
,
0100
0000
0000
0001
,
0010
0000
0001
1000
,
0001
0000
0000
1000
,
0100
0000
0010
0100
,
0010
0000
0100
0010
,
0002
0003
2000
3000
,
0200
0300
0020
0030
,
0200
0300
0020
0030
,
0002
0003
0200
0300
,
1001
0000
0100
0010
,
0100
0000
0010
0000
,
1001
0000
0010
0100
,
0010
0000
0100
0000
,
0110
0000
0001
1000
,
0001
0000
1000
0000
,
0110
0000
1000
0001
,
1000
0000
0001
0000
,
1001
0000
0100
0010
,
0100
0000
0010
0000
,
1001
0000
0010
0100
,
0010
0000
0100
0000
,
0110
0000
1000
0001
,
1000
0000
0001
0000
,
2000
3000
0200
0300
,
0000
0002
0203
0300
,
0010
0000
1000
0000
,
0001
0000
1000
0000
,
0100
1000
0010
0000
,
0100
0000
0010
0000
,
1000
0001
0100
0000
,
0001
0001
0010
0000
,
1000
0001
0100
0000
,
1000
1000
0010
0000
,
0100
0000
0010
1000
,
1000
0001
1000
0000
,
0100
0000
0010
0100
,
0010
0000
0100
0100
,
0010
0000
1000
1000
,
0100
0000
0001
0001
,
0010
0000
0100
0100
,
0010
0000
0001
1000
,
0001
0000
1000
0001
,
1000
0000
0010
0001
,
2000
0000
3200
0000
,
0320
0000
0032
0000
,
1003
0000
0001
0000
,
0100
0000
0010
0000
,
1000
0000
0001
0000
,
0100
0000
0010
0000
,
0010
0000
0000
0000
;

//---------------dance-single - Copied from----------------
#NOTES:
     dance-single:
     Copied from:
     Beginner:
     2:
     0.097,0.146,0.000,0.000,0.000:
0000
0000
0000
0000
,
0000
0000
0000
0000
,
1000
0000
0100
0000
,
1000
0000
0000
0000
,
0001
0000
0000
0000
,
0010
0000
0000
0000
,
0001
0000
0100
0000
,
0001
0000
0000
0000
,
1000
0000
0000
0000
,
0100
0000
0000
0000
,
0010
0000
0100
0000
,
0010
0000
0000
0000
,
0001
0000
0000
0000
,
0100
0000
0000
0000
,
0010
0000
0000
0000
,
0010
0000
0000
0000
,
0100
0000
0000
0000
,
1000
0000
0000
0000
,
0001
0000
0000
0000
,
0100
0000
0000
0000
,
0010
0000
0000
0000
,
1000
0000
0000
0000
,
0001
0000
0000
0000
,
0100
0000
0000
0000
,
0001
0000
0000
0000
,
1000
0000
0000
0000
,
0100
0000
0000
0000
,
1000
0000
0000
0000
,
0010
0000
0010
0000
,
0001
0000
0001
0000
,
1000
0000
1000
0000
,
0100
0000
0100
0000
,
0010
0000
0000
0000
,
0001
0000
0000
0000
,
1000
0000
0000
0000
,
0100
0000
0000
0000
,
0010
0000
0000
0000
,
0001
0000
0000
0000
,
1000
0000
0000
0000
,
0100
0000
0000
0000
,
1000
0000
0000
0000
,
0001
0000
0000
0000
,
0010
0000
0000
0000
,
0100
0000
0000
0000
,
1000
0000
0000
0000
,
0001
0000
0000
0000
,
0010
0000
0100
0000
,
0000
0010
0010
0000
,
0100
0000
0000
0000
,
0001
0000
0000
0000
,
1000
0000
0000
0000
,
0100
0000
0000
0000
,
0010
0000
0000
0000
,
0001
0000
0000
0000
,
1000
0000
0000
0000
,
0010
0000
0000
0000
,
1000
0000
0000
0000
,
0001
0000
0000
0000
,
0100
0000
0000
0000
,
0001
0000
0000
0000
,
1000
0000
0000
0000
,
1000
0000
0000
0000
,
0001
0000
0000
0000
,
0001
0000
0000
0000
,
0010
0000
0000
0000
,
0010
0000
0000
0000
,
0100
0000
0000
0000
,
0010
0000
0000
0000
,
0001
0000
1000
0000
,
0001
0000
1000
0000
,
0010
0000
0100
0000
,
0010
0000
0100
0000
,
0100
0000
0000
0000
;

//---------------dance-single - Copied from----------------
#NOTES:
     dance-single:
     Copied from:
     Medium:
     6:
     0.429,0.409,0.081,0.203,0.000:
0000
0000
0000
0000
,
0000
0000
0000
0000
,
0002
1000
0203
0010
,
2300
0000
0100
0000
3010
0000
0001
0100
,
0010
1000
0001
0100
,
0001
0000
1000
0010
1000
0000
0100
0000
,
0020
0100
2030
0100
,
3020
0000
0001
0000
0130
0000
1000
0100
,
0010
0000
0001
0000
0100
0000
0001
1000
,
0100
0000
0010
0000
0100
0010
0001
0000
,
2000
0010
3200
1000
,
0320
0001
0032
0100
,
1003
0000
0010
0000
0100
0000
0001
1000
,
0100
0010
0100
0001
,
0120
1000
0100
0130
,
0210
0000
0010
0000
0001
0000
0010
0010
,
0310
0000
0100
0000
0001
0000
1000
0100
,
0010
0000
0001
0000
1000
0000
0100
0010
,
0001
0000
0001
0000
1000
0000
0001
0010
,
0001
0000
1000
0000
0100
0000
1000
0100
,
1000
0000
0010
0000
1000
0000
0001
0010
,
0001
0000
0100
0000
0001
0000
0100
0010
,
0100
0000
0001
0000
1000
0000
1000
0100
,
1000
0000
0001
0000
1000
0000
0010
0100
,
0001
1000
0100
1000
,
0010
0000
0100
0000
0001
0000
0010
0001
,
1000
0100
1000
0100
,
0010
0100
0010
0001
,
1000
1000
0000
0000
0001
0001
0000
0000
,
0010
0010
0000
0000
0100
0100
0000
0000
,
1000
1000
0000
0000
0001
0001
0000
0000
,
0010
0010
0000
0000
0100
0100
0000
0000
,
0010
0000
1000
0001
1000
0000
0010
0000
,
1000
0000
0010
1000
0001
0000
0100
0000
,
0001
0000
0001
1000
0001
0000
0001
0000
,
0100
0000
0010
0001
1000
0000
0010
0000
,
0001
0000
1000
0100
1000
0000
0100
0000
,
0001
0000
0010
0100
1000
0000
0001
0000
,
1000
0000
0001
1000
0001
0000
1000
0000
,
0010
0000
0010
1000
0001
0100
0001
0000
,
0011
0000
0100
0001
1000
0000
0010
0000
,
1000
0000
1000
0100
0001
0000
0010
0000
,
0010
0000
0001
1000
0001
0000
0100
0000
,
1000
0000
0010
1000
0001
0000
0100
0000
,
0100
0000
1000
0001
0010
0000
0001
0000
,
1000
0100
1000
0010
,
0100
0100
0000
0000
0001
0001
0000
0000
,
0000
1000
1000
0000
0100
0100
0000
0000
,
0110
0000
0001
0000
1000
0010
0001
0010
,
1000
0100
0001
1000
,
0001
0000
0010
0001
0100
0010
1000
0100
,
0100
0000
0010
0001
1000
0000
0010
0000
,
0100
0000
0001
0000
0100
0010
0001
0010
,
0100
0100
0001
0010
,
0001
0000
0100
0010
1000
0100
0100
0010
,
1000
0000
0001
1000
0001
0000
0100
0000
,
0110
0001
1000
0100
,
0101
1100
0110
0010
,
1000
0100
0001
0000
1000
0100
0001
0000
,
0001
0010
0100
0000
0001
0010
0100
0000
,
0001
1000
0200
0320
,
0130
0001
2000
3002
,
0013
0001
0200
0320
,
1030
0001
0020
0032
,
0103
0010
2000
3200
,
0310
1000
0002
2003
,
3010
0000
0100
0000
0010
0000
1000
0100
,
0020
0100
0100
0130
,
0101
0000
0001
1000
0100
0000
0100
0010
,
1000
0000
0001
0100
0010
0000
1000
0001
,
1000
0000
0010
0100
0010
0000
0001
0100
,
1000
0000
0001
1000
0100
0000
0100
0000
,
1001
0000
0000
0000
;

//---------------dance-single - Copied from----------------
#NOTES:
     dance-single:
     Copied from:
     Hard:
     7:
     0.484,0.467,0.219,0.203,0.032:
0000
0000
0000
0000
,
0000
0000
0000
0000
,
0010
0000
1000
0000
0001
0000
0100
0001
,
0010
0000
0100
0000
0010
0000
1000
0001
,
0100
0010
1000
0001
,
0100
0000
0001
0010
0001
0100
0010
0000
,
1100
0010
1100
0010
,
0101
0010
0101
0010
,
1001
0000
1000
0100
0001
0000
1000
0000
,
0010
0000
0001
0010
1000
0000
0001
0000
,
0100
0000
0010
1000
0001
0000
1000
0001
,
0100
0000
0010
0100
0010
0000
1000
0001
,
0100
0000
0010
1000
0001
0000
0100
0001
,
0010
0002
0203
2300
,
3100
0000
0010
0000
1000
0001
0100
0000
,
0010
0010
1000
1000
0001
0100
0001
0100
,
0010
0000
1000
0000
0100
0010
0001
0000
,
0100
0000
0001
0000
1000
0010
0100
0001
,
0010
0100
1000
0001
,
0101
0000
0010
0000
0001
0100
0010
1000
,
0100
0000
0010
0000
1000
0001
0100
0000
,
0010
0000
1000
0000
0010
1000
0001
1000
,
0100
0010
0001
0100
,
1001
0000
0010
0000
1000
0100
0001
0100
,
0010
0000
0001
0000
1000
0000
0001
0100
,
0010
0000
1000
0000
0001
0000
1000
0001
,
0100
0000
0000
1001
0000
0000
0100
0000
,
0110
0000
0000
0010
0000
0000
1000
0000
,
1100
1000
0000
0010
0100
0001
0000
1000
,
0001
0100
0000
0010
0100
0010
0000
1000
,
0100
1000
0000
0001
0100
0001
0000
1000
,
0001
1000
0000
0010
0100
0010
0000
0001
,
1001
0000
0100
0001
0010
0000
0200
0000
,
0320
0000
1030
0100
1000
0000
0010
0100
,
0001
0000
1000
0100
1000
0000
2000
0000
,
3002
0000
0103
0010
0001
0000
0100
0001
,
1000
0000
0010
0100
0010
0000
0002
0000
,
0023
0000
0130
0010
1000
0000
0100
1000
,
0100
0000
0010
0001
0100
0000
0020
0000
,
2030
0000
3100
0000
0010
0001
1000
0001
,
0100
0000
0010
1000
0001
0000
0020
0000
,
0230
0000
0310
0001
1000
0000
0001
0100
,
0010
0000
1000
0001
1000
0000
2000
0000
,
3002
0000
0103
0010
1000
0000
0001
0100
,
0001
0000
0010
0001
0010
0000
2000
0000
,
3200
0310
0001
1000
,
1000
1001
0010
0000
0010
0110
0001
0000
,
0000
1000
1010
0000
0001
0101
0000
0000
,
1001
0000
0100
0000
0001
1000
0100
0010
,
0001
0100
0001
1000
,
0010
0000
0100
0010
1000
0001
0100
0001
,
0020
0000
0130
0001
2000
0000
3100
0000
,
1000
0000
0010
0100
0001
0000
1000
0100
,
1000
0010
0100
0001
,
0010
0000
0001
0100
0010
1000
0100
0010
,
0200
0320
0131
0010
,
1001
0100
0010
0101
,
1100
0000
0010
0100
0001
0000
1000
0000
,
0010
1000
0010
0000
0100
0001
0100
0000
,
0020
2030
3200
0320
,
0031
0000
0101
0000
1000
0100
1000
0000
,
0010
0000
1010
0000
0100
0010
0001
0000
,
0100
0000
1001
0000
0010
0001
0100
0000
,
0010
0000
0110
0000
1000
0100
0010
0000
,
0001
0000
0011
0000
0100
0001
0010
0000
,
1000
0000
0101
0000
0001
0010
0001
0000
,
1000
0000
0100
0000
0010
0000
0001
1000
,
0001
0100
0001
1000
,
0001
0000
0000
1000
0000
0000
0100
0000
1000
0000
0000
0010
0000
0000
0100
0000
,
0001
0000
0000
0010
0000
0000
0100
0000
0010
0000
0000
0001
0000
0000
1000
0000
,
0100
0000
0000
0100
0000
0000
0010
0000
0001
0000
0000
1000
0000
0000
0001
0000
,
0010
0000
0000
0100
0000
0000
0010
0000
0001
0000
0000
0001
0000
0000
0100
0000
,
1001
0000
0000
0000
;

//---------------dance-single - Copied from ----------------
#NOTES:
     dance-single:
     Copied from:
     Challenge:
     8:
     0.594,0.525,0.357,0.227,0.081: // measure 1
0000
0000
0000
0000
,  // measure 2
0000
0000
0000
0000
,  // measure 3
0110
0000
0001
1000
1100
0000
0010
0001
,  // measure 4
0101
0000
0010
0010
1000
0000
0001
0000
,  // measure 5
0200
0000
0310
1000
0100
0000
0010
0000
,  // measure 6
1000
0000
0001
0100
0010
1000
0100
0010
,  // measure 7
0200
0000
0301
0010
0002
0000
0103
0010
,  // measure 8
2000
0000
3100
0010
0200
0000
0310
0001
,  // measure 9
1000
0000
0001
1000
0001
0100
0010
1000
,  // measure 10
0100
0000
0010
0010
0001
1000
0001
0100
,  // measure 11
0020
0000
1030
0001
0200
0000
0310
1000
,  // measure 12
0200
0000
0310
0001
0020
0000
0031
0100
,  // measure 13
0002
0000
0103
0010
1000
0000
0001
0000
,  // measure 14
0100
0000
0010
0001
1000
0100
0010
0001
,  // measure 15
0200
0310
1000
0001
,  // measure 16
0010
0010
0001
0001
0100
0010
1000
0100
,  // measure 17
0110
0000
0001
1000
0001
0100
0010
0001
,  // measure 18
0200
0000
0310
0000
1000
0100
0001
0100
,  // measure 19
1000
0000
0010
0100
0001
0010
0001
0100
,  // measure 20
0020
1000
0100
0001
,  // measure 21
0130
0000
0010
1000
0001
0100
0001
0010
,  // measure 22
0100
0000
1000
0000
0010
0100
1000
0100
,  // measure 23
0010
0000
0001
0010
0001
0100
0010
1000
,  // measure 24
0200
1000
0001
0010
,  // measure 25
1300
0000
0100
1000
0010
0000
0100
0001
,  // measure 26
1000
0001
0100
0010
1000
0000
0100
0010
,  // measure 27
0001
0000
0100
0001
1000
0100
1000
0010
,  // measure 28
0200
0000
0310
1000
0002
0000
0103
0000
,  // measure 29
0001
0101
0000
1000
0010
1100
0000
0010
,  // measure 30
0100
0110
0000
0100
1000
0110
0000
0100
,  // measure 31
1000
1001
0000
0001
1000
0101
0000
0100
,  // measure 32
0010
1001
0000
1000
0100
1010
0000
1000
,  // measure 33
1001
0000
0000
0000
0100
0000
0010
0100
0010
0000
0000
0000
1000
0000
1000
0000
,  // measure 34
1100
0000
0000
0000
0010
0000
0001
0100
0001
0000
0000
0000
0010
0000
0001
0000
,  // measure 35
0100
0000
0000
0000
0010
0000
1000
0001
1000
0000
0000
0000
0010
0000
0100
0000
,  // measure 36
0110
0000
0000
0000
0100
0000
0001
0010
0001
0000
0000
0000
1000
0000
1000
0000
,  // measure 37
0110
0000
0000
0000
1000
0000
0100
1000
0010
0000
0000
0000
0100
0000
0010
0000
,  // measure 38
0011
0000
0000
0000
0100
0000
0010
1000
0001
0000
0000
0000
0100
0000
0010
0000
,  // measure 39
1100
0000
0000
0000
0100
0000
0010
0001
1000
0000
0000
0000
0100
0000
0000
0000
,  // measure 40
0010
0000
0100
0000
0001
0001
1000
0100
,  // measure 41
1001
0000
0000
0000
1000
0000
0001
0100
0001
0000
0000
0000
1000
0000
0010
0000
,  // measure 42
0100
0000
0000
0000
0001
0000
1000
0010
1000
0000
0000
0000
0100
0000
0001
0000
,  // measure 43
1001
0000
0000
0000
0010
0000
0100
0010
1000
0000
0000
0000
0001
0000
1000
0000
,  // measure 44
0110
0000
0000
0000
0001
0000
1000
0001
1000
0000
0000
0000
1000
0000
0100
0000
,  // measure 45
0110
0000
0000
0000
0001
0000
1000
0001
0010
0000
0000
0000
0001
0000
0001
0000
,  // measure 46
0100
0010
1000
0100
0001
0100
1000
0001
,  // measure 47
0100
0110
1000
1000
0010
0110
0001
0001
,  // measure 48
0000
0100
1001
0000
0010
1001
0000
0000
,  // measure 49
0110
0001
1000
0100
0010
0001
0100
0010
,  // measure 50
2000
3002
0203
0320
,  // measure 51
1030
0001
0100
0010
1000
0100
0010
0001
,  // measure 52
0100
0001
1000
0100
,  // measure 53
1000
0010
0100
0001
1000
0010
0001
0010
,  // measure 54
2000
3200
0320
0032
,  // measure 55
0103
0000
0010
1000
0001
0010
0001
0100
,  // measure 56
0010
1000
0101
1100
,  // measure 57
0020
0000
0130
0000
0001
0000
1000
0100
,  // measure 58
0010
0000
1000
0100
0010
0000
0001
0000
,  // measure 59
0100
0001
0010
0001
0100
0010
1000
0100
,  // measure 60
0001
0100
1000
0100
0010
0100
0001
0000
,  // measure 61
0101
0000
1100
0000
0010
0100
0010
0100
,  // measure 62
1100
0000
0101
0000
0010
0001
0010
0001
,  // measure 63
0011
0000
1010
0000
0100
0010
0100
0010
,  // measure 64
1001
0000
0110
0000
0010
1000
0010
0001
,  // measure 65
0011
0000
1100
0000
0010
0100
0001
0100
,  // measure 66
1010
0000
0101
0000
1000
0010
0001
0010
,  // measure 67
0200
0000
0320
0000
2030
0000
3001
0100
,  // measure 68
1001
0010
0001
0100
,  // measure 69
1010
0000
0000
1000
0100
0000
0010
0000
0001
0000
0000
0010
0001
0000
0100
0000
,  // measure 70
0010
0000
0000
0010
0100
0000
0010
0000
1000
0000
0000
0001
0100
0000
0010
0000
,  // measure 71
1000
0000
0000
0010
0100
0000
0010
0000
1000
0000
0000
0100
0010
0000
0001
0000
,  // measure 72
1000
0000
0000
0010
0100
0000
0010
0000
1000
0000
0000
0100
0010
0000
0010
0000
,  // measure 73
1001
0000
0000
0000
;
