#TITLE:PHOTONGENIC;
#SUBTITLE:;
#ARTIST:L.E.D. fw. 堀澤麻衣子;
#TITLETRANSLIT:;
#SUBTITLETRANSLIT:;
#ARTISTTRANSLIT:L.E.D. fw. Maiko Horisawa;
#GENRE:;
#CREDIT:;
#MENUCOLOR:;
#NEWMETERSYSTEM:NO;
#BANNER:PHOTONGENIC-bn.png;
#BACKGROUND:PHOTONGENIC-bg.png;
#LYRICSPATH:;
#CDTITLE:MixMania 4 CD Title.png;
#MUSIC:PHOTONGENIC.mp3;
#OFFSET:-0.680;
#SAMPLESTART:77.040;
#SAMPLELENGTH:12.000;
#SELECTABLE:YES;
#LISTSORT:;
#BPMS:0.000=176.000;
#STOPS:;
#BGCHANGES:;
#ATTACKS:;

//---------------dance-single - ----------------
#NOTES:
     dance-single:
     :
     Easy:
     3:
     0.224,0.279,0.156,0.049,0.000:
0000
0000
0000
0000
,
0000
0000
0000
0000
,
0000
0000
0000
0000
,
0000
0000
0000
0000
,
0000
1000
0000
2000
,
0000
0000
0000
0000
,
0001
0000
0000
0000
,
0001
0000
0000
3000
,
0010
0000
0100
0000
,
0001
0000
1000
0000
,
0100
0000
0010
0000
,
0100
0000
1000
0000
,
0001
0000
0010
0000
,
0001
0000
0100
0000
,
0010
0000
1000
0000
,
0001
0000
0100
0100
,
1001
0100
0000
0100
,
0000
1000
0000
0100
,
0000
0100
0000
0001
,
0000
0001
0000
1000
,
0001
1000
0000
0100
,
0000
0010
0000
0100
,
0000
0100
0000
0001
,
0000
0001
0000
1000
,
0010
1000
0000
0010
,
0000
0001
0000
0010
,
0000
1000
0000
0100
,
0000
0100
0000
1000
,
0001
0100
0000
0010
,
0000
0001
0000
0010
,
0000
0100
0000
0010
,
0200
0000
0010
0300
,
1001
0000
1000
0000
,
0100
0000
0010
0000
,
0001
0100
0010
0000
,
1000
0100
0010
0000
,
0100
0000
1000
0000
,
0001
0000
0010
0000
,
0001
1000
0010
0000
,
1000
0100
1000
0000
,
0100
0000
0010
0000
,
0100
0000
0001
0000
,
0010
0001
1000
0000
,
0010
1000
0001
0000
,
0100
0000
0001
0000
,
1000
0000
0010
0000
,
0001
0010
0100
0000
,
1000
0010
0100
0000
,
0001
0000
0000
0000
,
1000
0000
0100
0000
,
1000
0000
0000
0000
,
0010
0000
0100
0000
,
0001
0000
0000
0000
,
0010
0000
0100
0000
,
0010
0000
0000
0000
,
0002
0000
0000
0003
,
1001
0000
0100
0000
,
1000
0000
0010
0100
,
0010
0000
0100
0000
,
0001
0000
0010
0001
,
0010
0000
0100
0000
,
1000
0000
0010
1000
,
0010
0000
0100
0000
,
0001
0000
1000
0000
,
1001
0000
0010
0000
,
0110
0000
0001
0000
,
1001
0000
1000
0000
,
1100
0000
0010
0000
,
1001
0000
0001
0000
,
0110
0000
0001
0000
,
1010
0000
0100
0000
,
1001
0000
0100
0000
,
0110
0000
0001
0000
,
1010
0000
0100
0000
,
0011
0000
1000
0000
,
0101
0000
0010
0000
,
1100
0000
0010
0000
,
1001
0000
0100
0000
,
1010
0000
0001
0000
,
0110
0000
1000
0000
,
0020
0000
0000
0000
,
1000
0000
1000
0000
,
2030
0000
0000
0000
,
0001
0000
0001
0000
,
3002
0000
0000
0000
,
0003
0000
0000
0000
;

//---------------dance-single - Copied from----------------
#NOTES:
     dance-single:
     Copied from:
     Beginner:
     1:
     0.118,0.209,0.041,0.115,0.000:
0000
0000
0000
0000
,
0000
0000
0000
0000
,
0000
0000
0000
0000
,
0000
0000
0000
0000
,
0000
0001
0000
1000
,
0000
0000
0000
0000
,
0000
1000
0000
0000
,
0010
0000
0010
0000
,
0100
0000
0000
0000
,
0001
0000
0000
0000
,
0000
0010
0000
0000
,
0100
0000
1000
0000
,
0100
0000
0000
0000
,
1000
0000
0000
0000
,
0001
0000
0000
0000
,
0010
0000
0010
0000
,
0200
0000
0300
0000
,
1000
0000
0000
0000
,
0020
0000
0030
0000
,
0100
0000
0000
0000
,
0002
0000
0003
0000
,
0001
0000
0000
0000
,
2000
0000
3000
0000
,
0010
0000
0000
0000
,
0200
0000
0300
0000
,
1000
0000
0000
0000
,
0020
0000
0030
0000
,
0001
0000
0000
0000
,
0020
0000
0030
0000
,
1000
0000
0000
0000
,
0200
0000
0300
0000
,
1001
0000
0000
0000
,
1001
0000
0000
0000
,
1000
0000
0000
0000
,
0001
0000
0000
0000
,
0010
0000
0000
0000
,
0100
0000
0000
0000
,
1000
0000
0000
0000
,
0001
0000
0000
0000
,
0100
0000
0000
0000
,
1000
0000
0000
0000
,
0100
0000
0000
0000
,
0010
0000
0000
0000
,
0100
0000
0000
0000
,
1000
0000
0000
0000
,
0001
0000
0000
0000
,
0100
0000
0000
0000
,
0020
0000
0030
0000
,
0010
0000
0000
0000
,
0000
0000
1000
0000
,
0100
0000
0000
0000
,
0000
0000
0010
0000
,
0001
0000
0000
0000
,
0000
0000
0100
0000
,
0010
0000
0000
0000
,
0200
0000
0300
0000
,
1001
0000
0000
0000
,
0000
0000
0001
0000
,
0100
0000
0000
0000
,
0000
0000
1000
0000
,
0100
0000
0000
0000
,
0000
0000
0010
0000
,
0100
0000
0000
0000
,
0020
0000
0030
0000
,
1001
0000
0000
0000
,
1000
0000
0000
0000
,
0001
0000
0000
0000
,
0100
0000
0000
0000
,
1000
0000
0000
0000
,
0010
0000
0000
0000
,
0001
0000
0000
0000
,
1000
0000
0000
0000
,
1001
0000
0000
0000
,
0100
0000
0000
0000
,
0010
0000
0000
0000
,
0001
0000
0000
0000
,
0100
0000
0000
0000
,
1000
0000
0000
0000
,
0010
0000
0000
0000
,
0100
0000
0000
0000
,
0002
0000
0000
0000
,
0003
0000
0000
0000
,
2000
0000
0000
0000
,
3000
0000
0000
0000
,
0020
0000
0000
0000
,
0030
0000
0000
0000
;

//---------------dance-single - Copied from----------------
#NOTES:
     dance-single:
     Copied from:
     Medium:
     6:
     0.437,0.523,0.049,0.140,0.000:
0000
0000
0000
0000
,
0000
0000
0000
0000
,
0000
0000
0000
0000
,
0000
0000
0000
0000
,
0000
0010
0010
2000
,
0200
0000
0000
3300
,
0000
0001
0001
0100
,
0001
0010
0200
0020
,
0330
0001
0100
1000
,
0100
0001
0100
1000
,
0100
0001
0010
0100
,
1000
0010
0100
0002
,
2000
0003
0100
0010
,
3100
0010
0001
0100
,
0001
1000
0001
0010
,
0100
0000
0010
0000
0001
0000
1000
0001
,
0001
0100
0010
0000
1000
0000
0001
0000
,
1000
0100
0010
0000
1001
0000
0000
0000
,
0001
0010
0100
0000
0010
0000
0001
0000
,
1000
0001
1000
0000
0200
0000
0320
0000
,
0130
1000
0010
0000
0100
0000
0001
0000
,
1000
0001
0010
0000
1001
0000
0000
0000
,
0100
0001
1000
0000
0010
0000
0100
0000
,
0001
0010
0001
0000
1000
0100
1000
0000
,
0010
0100
0001
0000
1000
0000
0100
0000
,
0010
0100
1000
0000
1001
0000
0000
0000
,
0010
0100
0001
0000
0010
0000
0001
0000
,
0010
0001
0100
0000
0010
1000
0100
0000
,
0001
0100
1000
0000
0100
0000
0010
0000
,
1000
0100
0100
0000
1001
0000
0000
0000
,
0100
1000
0010
0000
0100
0000
1000
0000
,
0010
0100
0010
0100
0020
0000
2030
0000
,
3100
1000
0010
0000
0100
0000
0100
0000
,
0010
1000
0100
0000
0010
0000
0010
0000
,
0001
1000
0100
0001
,
0100
1000
0010
0000
0100
0000
1000
0000
,
0100
0010
0001
0100
,
0001
1000
0100
0010
,
0001
0010
0001
0000
1000
0100
1000
0000
,
0010
0100
0010
0100
0020
0000
2030
0000
,
3001
0010
0001
0100
,
1000
0100
0001
0010
,
0001
1000
0001
0000
1000
0001
1000
0000
,
0100
1000
0010
0100
0001
0000
1001
0000
,
0010
0001
0100
1000
,
0010
0001
0100
0010
,
0100
0010
0001
0000
1000
0100
0010
0000
,
0001
1000
0002
0203
,
0310
0000
0010
0000
,
0010
0000
0000
0000
1000
0000
0001
1000
,
0100
0000
0100
0000
,
0100
0000
0000
0000
0100
0000
0010
0001
,
1000
0000
1000
0000
,
1000
0000
0000
0000
1000
0000
0100
0010
,
0001
0000
0001
0000
,
0001
0100
0001
0100
0001
0000
0101
0000
,
1000
0100
0001
0100
,
1000
0000
0010
0000
0100
0010
0100
0000
,
0010
0100
0001
1000
,
0001
0000
0100
0000
0001
0010
0100
0000
,
1000
0010
0100
0001
,
1000
0000
1000
0000
0100
1000
0010
0000
,
0100
0010
0001
0010
,
0100
0000
0100
0000
0001
0010
0100
0000
,
0001
1000
0001
0100
,
0001
1000
0100
1000
,
0010
0100
0010
0000
0100
0010
0100
0000
,
0001
1000
0001
0000
1000
0001
1000
0000
,
0001
0100
0010
1000
,
0100
0010
0001
1000
,
0010
1000
0010
0000
0100
0001
0100
0000
,
0010
0001
0010
0000
0100
1000
0100
0000
,
1000
0100
0001
0100
,
0010
0100
0010
0001
,
1000
0010
1000
0000
1000
0100
1000
0000
,
0001
0100
0001
0000
0001
0010
0001
0000
,
0100
0001
1000
0100
,
1000
0010
1000
0100
,
0010
0001
0100
1000
,
0001
1000
0001
1000
0001
1000
0001
0000
,
0020
0000
0100
0000
,
0100
0000
0000
0000
1030
0000
0000
1000
,
0002
0000
1000
0000
,
0010
0000
0003
0000
0001
0000
0000
1000
,
0020
0000
0000
0000
,
0030
0000
0000
0000
;

//---------------dance-single - Copied from----------------
#NOTES:
     dance-single:
     Copied from:
     Hard:
     8:
     0.553,0.593,0.222,0.090,0.062: // measure 1
0000
0000
0000
0000
,  // measure 2
0000
0000
0000
0000
,  // measure 3
0000
0000
0000
0000
,  // measure 4
0000
0000
0000
0000
,  // measure 5
0000
0000
0001
0000
0100
0000
1000
0100
,  // measure 6
0010
0010
1000
0000
,  // measure 7
0001
0100
1000
0100
,  // measure 8
0001
0000
0010
0000
0001
0010
0001
0000
,  // measure 9
0000
0000
0100
0000
0001
0000
0000
1000
,  // measure 10
0000
0100
0000
0010
0000
0100
1000
0000
,  // measure 11
0001
0000
0100
0000
0001
0010
0000
0001
,  // measure 12
0000
0100
0000
0010
0000
1000
0100
0010
,  // measure 13
0100
0000
1000
0100
0001
0000
0001
0100
,  // measure 14
1000
0000
0010
0100
0001
0000
0010
0100
,  // measure 15
1000
0010
0100
0001
,  // measure 16
1000
0001
0100
0001
,  // measure 17
1000
0000
0100
0000
1000
0000
0000
0010
0000
0000
0100
0000
0000
0001
0000
0000
,  // measure 18
1000
0100
0010
0000
0100
0010
0001
0000
,  // measure 19
0001
0000
0100
0000
0010
0000
0000
0010
0000
0000
1000
0000
0000
0001
0000
0000
,  // measure 20
1000
1001
0101
0010
,  // measure 21
0001
0000
0100
0000
1000
0000
0000
0100
0000
0000
0010
0000
0000
0001
0000
0000
,  // measure 22
0100
0001
1000
0000
0100
1000
0001
0000
,  // measure 23
0100
0000
1000
0000
0100
0000
0000
1000
0000
0000
0001
0000
0000
0010
0000
0000
,  // measure 24
0100
0110
1001
0100
,  // measure 25
0010
0000
0001
0000
0100
0000
0000
0010
0000
0000
0010
0000
0000
0000
0000
0000
,  // measure 26
1000
0000
0100
0000
0001
0000
0000
0100
0000
0000
0100
0000
0000
0000
0000
0000
,  // measure 27
1000
0000
0010
0000
1000
0000
0000
0001
0000
0000
0100
0000
0000
0000
0000
0000
,  // measure 28
0001
0000
1000
0000
0100
0000
0000
0010
0000
0000
0001
0000
0000
0000
0000
0000
,  // measure 29
0001
0000
0100
0000
0001
0000
0000
1000
0000
0000
1000
0000
0000
0000
0000
0000
,  // measure 30
0100
0000
0010
0000
0100
0000
0000
1000
0000
0000
0001
0000
0000
0000
0000
0000
,  // measure 31
0010
0000
0001
0000
1000
0000
0000
0010
0000
0000
0100
0000
0000
0000
0002
0000
,  // measure 32
0000
0000
0200
0000
0000
0003
0000
0000
0001
0000
0000
0000
0310
0000
0000
0000
,  // measure 33
1001
0000
0001
0100
1000
0000
0001
0100
,  // measure 34
1000
0000
0001
0100
1000
0100
0010
0000
,  // measure 35
1000
0100
0001
0000
1000
0100
0001
0000
,  // measure 36
0010
0100
1000
0000
0010
0100
1000
0000
,  // measure 37
0100
0010
0001
0000
0100
0010
0001
0000
,  // measure 38
1000
0100
0001
0000
1000
0100
0001
0000
,  // measure 39
0001
0010
0100
0000
0001
0010
0100
0000
,  // measure 40
1000
0010
0100
0010
1000
0010
0100
0000
,  // measure 41
1000
0100
0001
0000
1000
0100
0001
0000
,  // measure 42
1000
0100
0001
0100
1000
0100
0001
0000
,  // measure 43
0001
0010
1000
0000
0001
0010
1000
0000
,  // measure 44
0001
0100
1000
0000
0001
0100
1000
0000
,  // measure 45
0010
0100
1000
0000
0010
0100
1000
0000
,  // measure 46
0010
0100
1000
0100
0010
0100
1000
0000
,  // measure 47
0010
0100
1000
0000
0010
0100
1000
0000
,  // measure 48
1000
0100
0010
0001
1000
0100
0010
0001
,  // measure 49
0100
0000
0000
0001
0000
0000
1000
0000
,  // measure 50
0000
0100
0000
0000
0010
0100
1000
0001
,  // measure 51
0100
0000
0000
0010
0000
0000
1000
0000
,  // measure 52
0000
0001
0000
0000
0010
0001
0010
0100
,  // measure 53
1000
0000
0000
0001
0000
0000
0100
0000
,  // measure 54
0000
0010
0000
0000
1000
0100
1000
0001
,  // measure 55
0010
0000
0000
0010
0000
0000
0001
0000
,  // measure 56
0000
0001
0000
0000
1001
0000
1001
0000
,  // measure 57
0010
0100
0001
1000
0010
0100
0001
0010
,  // measure 58
0100
1000
0001
0100
0010
1000
0001
0010
,  // measure 59
0001
1001
1000
1001
,  // measure 60
0100
0010
0100
0000
0020
0000
0000
0000
,  // measure 61
1030
0100
1000
0001
0100
0001
0010
0001
,  // measure 62
0100
0010
1000
0001
1000
0100
0010
0001
,  // measure 63
0100
0110
0010
0110
,  // measure 64
1000
0100
1000
0000
0002
0000
0000
0000
,  // measure 65
0013
0001
0100
0010
0100
0001
1000
0100
,  // measure 66
0001
0100
1000
0010
0100
0001
1000
0100
,  // measure 67
0010
0011
0110
1100
,  // measure 68
1000
0100
0001
0100
2000
0000
0000
0000
,  // measure 69
3001
0100
0010
1000
0001
0010
0001
0100
,  // measure 70
0010
1000
0100
1000
0001
0010
0001
1000
,  // measure 71
0100
1001
0010
1001
,  // measure 72
0001
0010
0100
0010
0002
0000
0000
0000
,  // measure 73
1003
0001
0100
0001
1000
0010
0100
0001
,  // measure 74
0100
0010
1000
0001
0010
0100
1000
0010
,  // measure 75
0100
1010
0100
0011
,  // measure 76
1000
0001
0010
0100
0020
0000
0000
0000
,  // measure 77
0130
0001
1000
0100
0010
0100
1000
0100
,  // measure 78
0010
0001
0100
0001
0010
0100
1000
0001
,  // measure 79
1000
0101
0001
1100
,  // measure 80
0010
0100
0001
1000
0010
0100
0010
0000
,  // measure 81
2100
0001
0001
0001
,  // measure 82
0001
3001
1001
1001
,  // measure 83
0102
0010
0010
0010
,  // measure 84
0010
0013
0110
0110
,  // measure 85
2002
0000
0000
0000
,  // measure 86
3003
0000
0000
0000
;

//---------------dance-single - Copied from ----------------
#NOTES:
     dance-single:
     Copied from:
     Challenge:
     9:
     0.677,0.628,0.156,0.131,0.062: // measure 1
0000
0000
0000
0000
,  // measure 2
0000
0000
0000
0000
,  // measure 3
0000
0000
0000
0000
,  // measure 4
0000
0000
0000
0000
,  // measure 5
0000
0000
0001
0100
0010
0000
1000
0100
,  // measure 6
0010
0010
0001
0001
,  // measure 7
0100
0000
0001
1000
0100
1000
0001
0010
,  // measure 8
0000
0010
0001
0100
0010
0000
1000
0000
,  // measure 9
1001
0000
1000
0100
0010
0001
0100
0001
,  // measure 10
0000
1000
0001
0100
0000
0010
1000
0100
,  // measure 11
0000
0010
0100
0010
0001
1000
0100
1000
,  // measure 12
0000
0010
0100
0002
0000
2003
0000
3100
,  // measure 13
1000
0000
0010
0100
0001
0000
1000
0001
,  // measure 14
0100
0001
1000
0100
,  // measure 15
0100
0000
0010
0001
1000
0001
0100
0020
,  // measure 16
0000
2030
0000
3200
0000
0310
0100
0010
,  // measure 17
0001
0000
0001
0000
0100
0000
0000
1001
0000
0000
0100
0000
0000
0010
0000
0000
,  // measure 18
1000
0100
0001
0100
1000
0010
0100
0000
,  // measure 19
0001
0000
0010
0000
0001
0000
0000
0101
0000
0000
0001
0000
0000
1000
0000
0000
,  // measure 20
0100
0010
0100
1000
0100
0001
0100
1000
,  // measure 21
0010
0000
0100
0000
0010
0000
0000
1001
0000
0000
0010
0000
0000
0100
0000
0000
,  // measure 22
0001
1000
0100
1000
0010
0100
0001
0000
,  // measure 23
0001
0000
0100
0000
1000
0000
0000
1100
0000
0000
0100
0000
0000
0010
0000
0000
,  // measure 24
1000
0100
0010
0001
1000
0100
0010
0001
,  // measure 25
0100
0000
0010
0000
1000
0000
0000
1100
0000
0000
0100
0000
0000
0010
0000
0000
,  // measure 26
0001
0001
0100
0010
0100
0001
1000
0000
,  // measure 27
0100
0000
0010
0000
0001
0000
0000
1100
0000
0000
0001
0000
0000
1000
0000
0000
,  // measure 28
0100
0010
0001
1000
0001
0010
1000
0010
,  // measure 29
0001
0000
1000
0000
0001
0000
0000
0110
0000
0000
1000
0000
0000
0100
0000
0000
,  // measure 30
0010
0100
1000
0001
0010
0100
1000
0000
,  // measure 31
0010
0000
1000
0000
0010
0000
0000
1010
0000
0000
1000
0000
0001
0000
2000
0000
,  // measure 32
0000
0200
0000
3300
1001
0000
0110
0001
,  // measure 33
0100
0010
1000
0001
0100
1000
0100
0010
,  // measure 34
0100
0001
0010
0100
1000
0001
0010
0100
,  // measure 35
0010
0001
1000
0100
0010
1000
0010
0001
,  // measure 36
0100
0010
1000
0001
0100
0010
1000
0100
,  // measure 37
1000
0001
0010
0001
0100
0001
1000
0010
,  // measure 38
1000
0100
0010
0001
1000
0001
0100
0010
,  // measure 39
0001
0010
0100
1000
0100
0010
0001
0010
,  // measure 40
0001
1000
0001
0100
1000
0000
0110
0000
,  // measure 41
1001
0100
0010
0001
1000
0100
0010
0001
,  // measure 42
1000
0010
0100
0001
1000
0001
0100
0010
,  // measure 43
0100
0001
1000
0100
0010
1000
0001
0010
,  // measure 44
0100
0001
1000
0001
0100
0001
0001
0010
,  // measure 45
0001
0100
0010
1000
0001
0100
1000
0100
,  // measure 46
0010
1000
0100
0010
0001
1000
0001
0100
,  // measure 47
0001
0010
0100
1000
0100
0010
0001
1000
,  // measure 48
0100
0010
0100
1000
0001
0100
0001
1000
,  // measure 49
0200
0010
0001
0010
,  // measure 50
1000
0000
0010
0000
0001
0000
0010
0010
,  // measure 51
0320
0001
0100
1000
,  // measure 52
0100
0000
0001
0000
0001
0000
0001
0001
,  // measure 53
0032
0100
1000
0010
,  // measure 54
0100
0000
1000
0000
0010
0000
1000
1000
,  // measure 55
2003
0010
0001
0100
,  // measure 56
0001
0010
3001
1001
,  // measure 57
0110
1000
0001
0100
0001
0010
0100
1000
,  // measure 58
0100
0010
0001
1000
0001
0100
0010
0100
,  // measure 59
1000
0100
0001
1000
0100
0010
0001
0100
,  // measure 60
1000
0010
0100
0001
0010
1000
0100
0010
,  // measure 61
0100
0001
0010
0100
0010
0001
1000
0001
,  // measure 62
0100
0010
1000
0001
0100
0001
1000
0100
,  // measure 63
0010
0001
0100
0001
0010
0100
1000
0100
,  // measure 64
0020
0000
0100
0000
0001
0001
0031
0000
,  // measure 65
1001
0010
0100
1000
0001
0010
0100
1000
,  // measure 66
0001
0010
0100
1000
0001
0010
0100
1000
,  // measure 67
0010
0100
0001
1000
0010
0100
0001
1000
,  // measure 68
0100
0010
0100
1000
0100
0010
0100
1000
,  // measure 69
0001
0010
0100
1000
0001
0010
0100
1000
,  // measure 70
0001
0010
0100
0010
0001
0010
0100
0010
,  // measure 71
0001
0100
0010
1000
0001
0100
0010
1000
,  // measure 72
0010
0100
0010
0100
0001
1000
0001
1000
,  // measure 73
0100
0010
0001
1000
0100
0010
0001
1000
,  // measure 74
0100
0010
0001
1000
0100
0010
0001
1000
,  // measure 75
0001
0010
0001
1000
0001
0010
0001
1000
,  // measure 76
0100
1000
0001
1000
0100
1000
0001
1000
,  // measure 77
0100
1000
0100
1000
0100
1000
0100
1000
,  // measure 78
0001
0100
0001
0100
0001
0100
0001
0100
,  // measure 79
0010
0100
0010
0100
0010
0100
0010
0100
,  // measure 80
0001
0010
0100
1000
0001
0010
0100
1000
,  // measure 81
1002
0010
0100
1000
,  // measure 82
0100
0000
0010
0000
0100
0100
0103
0000
,  // measure 83
2001
0010
0100
0001
,  // measure 84
0100
0000
0001
0000
0010
0010
3010
0000
,  // measure 85
0022
0000
0000
0000
,  // measure 86
0033
0000
0000
0000
;
