#TITLE:大桟橋 (伊呂波調);
#SUBTITLE:;
#ARTIST:内田兄弟;
#TITLETRANSLIT:Oosanbashi (Iroha Chou);
#SUBTITLETRANSLIT:;
#ARTISTTRANSLIT:Watashi Brothers;
#GENRE:;
#CREDIT:;
#MENUCOLOR:;
#NEWMETERSYSTEM:NO;
#BANNER:Oosanbashi (Iroha Chou)-bn.png;
#BACKGROUND:Oosanbashi (Iroha Chou)-bg.png;
#LYRICSPATH:;
#CDTITLE:MixMania 4 CD Title.png;
#MUSIC:Oosanbashi (Iroha Chou).mp3;
#OFFSET:-0.760;
#SAMPLESTART:36.900;
#SAMPLELENGTH:12.000;
#SELECTABLE:YES;
#LISTSORT:;
#BPMS:0.000=156.000;
#STOPS:;
#BGCHANGES:;
#ATTACKS:;

//---------------dance-single - ----------------
#NOTES:
     dance-single:
     :
     Easy:
     4:
     0.343,0.342,0.183,0.202,0.000:
0000
0000
0000
0000
,
0000
0000
0000
0000
,
0000
0000
0000
0000
,
0000
0000
0000
0000
,
0020
0000
2030
0000
,
3200
0000
0320
0000
,
0032
0100
0100
0103
,
1001
0000
0000
0110
,
1000
0100
0010
0001
,
0100
0010
1001
1001
,
0010
1000
0100
0010
,
0001
0100
1001
1001
,
0010
0010
1000
1000
,
0100
0100
0010
0010
,
0001
1000
0001
0100
,
0020
0000
0100
1030
,
0110
1000
0100
0010
,
0001
1000
0001
0100
,
0001
0010
0100
1000
,
0010
0100
0010
0100
,
1001
0010
0100
1000
,
0001
0100
0001
0100
,
1000
0100
0010
0001
,
1000
0100
1000
0100
,
0020
0000
0000
1000
,
0031
0100
0010
0100
,
0002
0000
0000
1000
,
0103
0010
0010
1000
,
2100
0000
0100
3010
,
0100
0001
0010
0100
,
0020
0000
0000
0001
,
0031
0100
1001
0110
,
2000
0000
0000
0001
,
3100
0001
1000
0100
,
0020
0000
0000
0100
,
0130
0010
0001
1000
,
1100
0000
0000
1000
,
1000
0100
0010
0001
,
0200
0000
0301
1000
,
0200
0000
0310
0010
,
0100
0001
1000
0001
,
1000
1000
0010
0010
,
1000
0100
1000
0100
,
0010
0010
0001
0001
,
0101
0000
0001
1000
,
1100
0000
0010
0100
,
1001
0100
0001
1000
,
0200
0000
0320
0000
,
0031
0100
0001
0100
,
1000
0100
1000
0100
,
0020
0000
2030
0000
,
3200
0310
0110
0000
,
1001
0001
0100
1000
,
0100
0001
0010
0100
,
2000
0100
0010
3100
,
1001
0000
0000
0000
,
0001
0100
0001
0100
,
0010
0100
0010
0100
,
0010
1000
0010
1000
,
0100
1000
0100
1000
,
1001
0010
0001
0010
,
1000
0010
1000
0010
,
0001
0100
0001
0100
,
1000
0100
1000
0100
,
0020
0000
0030
0000
;

//---------------dance-single - Copied from----------------
#NOTES:
     dance-single:
     Copied from:
     Beginner:
     2:
     0.127,0.154,0.000,0.048,0.000:
0000
0000
0000
0000
,
0000
0000
0000
0000
,
0000
0000
0000
0000
,
0000
0000
0000
0000
,
0010
0000
0000
0000
,
0010
0000
0000
0000
,
0200
0000
0000
0000
,
0300
0000
0000
0000
,
0001
0000
0000
0000
,
0001
0000
0000
0000
,
1000
0000
0000
0000
,
1000
0000
0000
0000
,
0100
0000
0100
0000
,
0100
0000
0100
0000
,
0010
0000
0010
0000
,
0010
0000
0000
0000
,
1000
0000
0001
0000
,
1000
0000
0001
0000
,
0100
0000
0010
0000
,
0100
0000
0000
0000
,
0010
0000
0100
0000
,
0010
0000
0100
0000
,
0001
0000
1000
0000
,
0001
0000
1000
0000
,
0100
0000
0000
0000
,
0001
0000
0001
0000
,
1000
0000
0000
0000
,
1000
0000
1000
0000
,
0010
0000
0000
0000
,
0010
0000
0010
0000
,
0100
0000
0000
0000
,
0001
0000
0001
0000
,
1000
0000
0000
0000
,
1000
0000
1000
0000
,
0010
0000
0000
0000
,
0010
0000
0010
0000
,
0100
0000
0000
0000
,
0100
0000
0100
0000
,
0002
0000
0000
0000
,
0003
0000
0000
0000
,
1000
0000
0000
0000
,
1000
0000
1000
0000
,
1000
0000
0000
0000
,
0100
0000
0100
0000
,
0100
0000
0000
0000
,
0001
0000
0000
0000
,
1000
0000
0000
0000
,
0010
0000
0010
0000
,
0010
0000
0000
0000
,
0100
0000
0100
0000
,
0100
0000
0000
0000
,
0001
0000
0001
0000
,
0002
0000
0003
0000
,
2000
0000
3000
0000
,
0200
0000
0000
0000
,
0300
0000
0000
0000
,
0010
0000
0001
0000
,
0010
0000
0001
0000
,
1000
0000
0001
0000
,
1000
0000
0000
0000
,
1000
0000
0010
0000
,
1000
0000
0010
0000
,
1000
0000
0001
0000
,
1000
0000
0001
0000
,
0100
0000
0000
0000
;

//---------------dance-single - Copied from----------------
#NOTES:
     dance-single:
     Copied from:
     Medium:
     6:
     0.411,0.404,0.125,0.077,0.000:
0000
0000
0000
0000
,
0000
0000
0000
0000
,
0000
0000
0000
0000
,
0000
0000
0000
0020
,
0031
0001
0000
0000
1000
1000
0000
0000
,
0100
0100
0000
0000
0010
0010
0000
0000
,
1000
0000
0001
0000
0100
0000
0010
0100
,
0010
0000
0000
1001
,
0110
0000
0001
0000
1000
0100
0001
0100
,
0000
0000
0010
0000
1000
0001
1000
0000
,
0001
0000
0010
0000
0001
0100
0010
1000
,
0000
0000
0100
0000
1000
0010
1000
0000
,
0001
0101
1000
1010
,
0100
0110
0001
1001
,
1000
0100
1000
0000
0001
0100
0001
0000
,
0020
0000
1000
0001
,
0130
0000
0010
0000
1000
0100
1000
0000
,
0001
0000
0010
0000
0001
0100
0001
0000
,
0010
0000
0100
0000
0001
1000
0001
0000
,
0100
0000
0010
0000
1000
0001
1000
0000
,
0100
0000
0010
0000
0001
1000
0001
0000
,
0010
0000
0100
0000
1000
0001
1000
0000
,
0100
0010
0100
0010
,
0001
1000
0101
1010
,
1100
0000
0010
0000
0000
0100
0010
0100
,
0000
0010
1000
0000
0100
0000
0010
0000
,
0001
0000
0000
0000
0000
0100
0001
0100
,
0000
0010
1000
0000
0100
0000
1000
0000
,
0010
0000
0000
0000
0000
1000
0001
1000
,
0000
0010
0100
0000
0010
0000
0100
0000
,
0001
0000
0000
0000
0000
0010
0001
0010
,
0000
0100
0010
0000
0010
0000
0001
0000
,
1001
0000
0000
0000
0000
1000
0100
1000
,
0000
0100
0010
0000
0100
0000
0010
0000
,
0001
0000
0000
0000
0000
0010
0100
0010
,
0000
1000
0100
0000
0010
0000
0100
0000
,
0001
0000
0000
0000
0000
0001
0010
0001
,
0000
0010
0100
0000
0010
0000
0001
0000
,
1000
0100
0010
0001
,
1000
0100
1000
0100
0010
0100
0010
0000
,
1001
0010
0001
0100
,
0010
0100
0010
0000
1000
0001
1000
0000
,
0100
1000
0010
0100
,
0001
0010
0001
0000
1000
0100
1000
0000
,
0001
0100
1000
0100
,
0001
0010
1000
0010
,
0001
0100
1000
0100
,
0001
0000
1100
0011
,
1000
0100
1000
0000
0001
0010
0001
0000
,
0100
0010
0100
0010
,
1000
0010
1000
0000
0001
0100
0001
0000
,
0100
0010
0100
0010
,
0002
0013
0200
1300
,
2000
3010
0020
0130
,
0001
0100
0001
1000
0100
1000
0001
0020
,
0000
0100
0001
0130
,
0100
0000
0010
0000
1000
1000
0100
0000
,
0010
0000
0001
0000
0100
0010
1000
0000
,
0100
0000
0001
0000
0100
1000
0010
0000
,
1000
0001
1000
0001
0100
0010
0100
0000
,
0010
0000
1000
0000
0001
1000
0010
0000
,
0100
0000
0010
0000
0010
1000
0100
0000
,
0001
0010
1000
0100
,
0010
1000
0001
0100
0100
0010
1000
0010
,
0200
0000
0300
0000
;

//---------------dance-single - Copied from----------------
#NOTES:
     dance-single:
     Copied from:
     Hard:
     8:
     0.601,0.559,0.202,0.443,0.000: // measure 1
0000
0000
0000
0000
,  // measure 2
0000
0000
0000
0000
,  // measure 3
0000
0000
0000
0000
,  // measure 4
0000
0000
0000
0020
,  // measure 5
1030
0100
0020
0000
0130
0001
0020
0000
,  // measure 6
1030
0100
2000
0000
3010
0100
0002
0000
,  // measure 7
0013
0001
0100
0010
1000
0100
0010
0100
,  // measure 8
1001
0000
0010
1001
,  // measure 9
0100
0010
1000
0100
0010
0001
0100
0010
,  // measure 10
0000
0001
0100
0010
1000
0100
1000
0000
,  // measure 11
0010
0100
0001
0010
0100
1000
0100
0010
,  // measure 12
0000
1000
0001
0100
0010
1000
0001
0000
,  // measure 13
0101
1010
1100
0011
,  // measure 14
1001
0110
0011
0101
,  // measure 15
1000
0010
0100
0001
0010
0001
0100
0020
,  // measure 16
0000
2000
3030
0110
,  // measure 17
0001
0100
1000
0100
0001
0100
1000
0100
,  // measure 18
0001
0010
1000
0010
0001
0010
1000
0010
,  // measure 19
0001
0100
1000
0100
0001
0010
1000
0010
,  // measure 20
0002
2003
3200
0320
,  // measure 21
0130
1000
0100
0010
0100
1000
0100
0010
,  // measure 22
0100
1000
0100
0001
0100
1000
0100
0001
,  // measure 23
0100
1000
0100
0010
0100
1000
0100
0010
,  // measure 24
0200
2300
3002
0203
,  // measure 25
0310
0000
0110
0000
0000
1000
0100
0001
,  // measure 26
0000
0100
0010
1000
0001
0100
0010
0000
,  // measure 27
0100
0000
1001
0000
0000
0010
0010
0001
,  // measure 28
0000
0100
0001
0010
0100
1000
0010
0000
,  // measure 29
0100
0000
0011
0000
0000
1000
0010
0100
,  // measure 30
0000
0001
1000
0001
0100
0001
0010
0000
,  // measure 31
0001
0000
1010
0000
0000
0010
0001
0100
,  // measure 32
0000
0010
0010
1000
0100
0010
0001
0000
,  // measure 33
2000
0000
3002
0000
0003
0100
0010
0100
,  // measure 34
0000
0001
0001
1000
0010
0100
0001
0000
,  // measure 35
0020
0000
0230
0000
0300
0010
0001
1000
,  // measure 36
0000
0100
1000
1000
0010
0100
0001
0000
,  // measure 37
0020
0000
2030
0000
3000
0100
0010
1000
,  // measure 38
0000
0001
0100
0001
1000
0010
1000
0000
,  // measure 39
0200
0320
0032
2003
,  // measure 40
3020
0000
0230
0000
0310
0100
0010
1000
,  // measure 41
1001
0001
0100
0100
0010
0010
1000
1000
,  // measure 42
0200
0000
0310
0002
0000
0103
2000
0000
,  // measure 43
3000
0100
0010
0010
1000
1000
0100
0100
,  // measure 44
0020
0000
0031
2000
0000
3100
0020
0000
,  // measure 45
0030
0001
1000
1000
0010
0010
0100
0100
,  // measure 46
0000
0010
1000
1000
0100
0100
0010
0010
,  // measure 47
0000
0001
0001
1000
1000
0001
0001
0100
,  // measure 48
0020
0000
1030
0200
0000
0310
0002
0000
,  // measure 49
0103
0010
1000
0100
1000
0001
0100
0001
,  // measure 50
0010
1001
0100
1001
,  // measure 51
0010
0001
1000
0100
1000
0010
0100
0001
,  // measure 52
1000
0110
0001
0110
,  // measure 53
1000
0100
1000
0100
0010
0100
0010
0100
,  // measure 54
0010
0001
0010
0001
1000
0001
1000
0001
,  // measure 55
0100
0000
0010
0000
1000
0100
1000
0020
,  // measure 56
0000
0100
0100
1030
,  // measure 57
0001
0010
0100
0010
0001
0010
0100
0010
,  // measure 58
0001
0010
1000
0010
0001
0010
1000
0010
,  // measure 59
0001
0010
0100
0010
0001
0010
0100
0010
,  // measure 60
0002
2003
3020
0230
,  // measure 61
0301
0010
1000
0010
0001
0010
1000
0010
,  // measure 62
0001
0100
1000
0100
0001
0100
1000
0100
,  // measure 63
0001
0010
1000
0010
0001
0100
1000
0100
,  // measure 64
0002
2003
3020
0130
,  // measure 65
2200
0000
3300
0000
;

//---------------dance-single - Copied from ----------------
#NOTES:
     dance-single:
     Copied from:
     Challenge:
     9:
     0.681,0.679,0.106,0.106,0.323: // measure 1
0000
0000
0000
0000
,  // measure 2
0000
0000
0000
0000
,  // measure 3
0000
0000
0000
0000
,  // measure 4
0000
0000
0000
0200
,  // measure 5
0310
0010
2000
0000
3100
0100
0020
0000
,  // measure 6
0031
0001
0200
0000
0301
0001
2000
0000
,  // measure 7
3100
0010
0001
1000
0100
0010
0001
1000
,  // measure 8
2002
0000
0000
0003
0010
3000
1001
0000
,  // measure 9
1000
0001
0001
0100
0001
1000
0100
0010
,  // measure 10
0000
0100
0001
0010
0100
1000
0100
0000
,  // measure 11
0010
0001
1000
0100
1000
0010
0100
0001
,  // measure 12
0000
0010
0001
0100
0010
1000
0100
0000
,  // measure 13
1001
0001
0100
0010
1000
0100
0010
0001
,  // measure 14
0100
0010
1000
0001
0100
0001
0010
0000
,  // measure 15
0100
1000
0100
1000
0010
0100
0010
0100
,  // measure 16
0002
0000
0203
0000
0310
1000
0002
0010
,  // measure 17
0103
0000
0010
0000
1000
0100
0000
0100
0010
0000
0010
0001
0000
0001
0100
0000
,  // measure 18
0010
0000
1000
0000
0001
0100
0000
0100
0010
0000
0010
1000
0000
1000
0100
0000
,  // measure 19
0010
0000
0100
0000
0010
0001
0000
1000
0100
0000
0010
0001
0000
1000
0100
0000
,  // measure 20
0010
0100
0010
0100
1000
0001
1000
0001
,  // measure 21
0100
0000
0100
0000
0010
1000
0000
0001
1000
0000
0010
1000
0000
0001
0100
0000
,  // measure 22
0010
0000
0100
0000
0001
1000
0000
1000
0100
0000
1000
0010
0000
0100
0001
0000
,  // measure 23
0100
0010
1000
0001
0100
0010
1000
0001
,  // measure 24
0200
0000
0010
0310
,  // measure 25
1000
0000
0110
0000
1000
0100
0001
0100
,  // measure 26
0000
1000
0001
0100
0001
0010
0001
0000
,  // measure 27
1000
0000
1100
0000
0001
1000
0001
0100
,  // measure 28
0000
0010
0001
0100
0010
1000
0100
0000
,  // measure 29
0100
0000
1001
0000
0100
0010
0001
1000
,  // measure 30
0000
0001
1000
0010
0100
0001
0010
0001
,  // measure 31
0100
0100
0110
0000
0001
1000
0001
0100
,  // measure 32
0000
0010
1000
0001
0100
0010
0010
0000
,  // measure 33
1000
0100
1100
0000
0010
0001
0100
0001
,  // measure 34
0000
0010
0001
0010
0010
0100
1000
0000
,  // measure 35
0100
0000
0110
0000
0010
0001
1000
0010
,  // measure 36
0000
0100
0100
0010
1000
0100
0010
0000
,  // measure 37
0001
0000
1001
0000
1000
1000
0100
0010
,  // measure 38
0000
0001
0010
0100
0010
0001
1000
0000
,  // measure 39
0010
0001
0010
0001
1000
0010
1000
0010
,  // measure 40
0100
0001
1000
0100
1000
0001
0100
0001
,  // measure 41
0100
0000
0100
0010
0100
0000
0010
0000
0010
0000
1000
0000
0100
0000
1000
0000
,  // measure 42
0010
0010
0100
0001
0001
1000
0100
0100
,  // measure 43
1000
0000
0010
1000
0010
0000
0100
0000
0010
0000
1000
0000
0010
0000
1000
0000
,  // measure 44
0100
0100
0010
0001
0001
1000
0010
0010
,  // measure 45
0100
0000
0001
1000
0001
0000
0010
0000
0010
0000
0100
0000
0010
0000
0000
0000
,  // measure 46
0100
0000
1000
0001
1000
0000
0100
0000
0010
0000
0100
0000
0010
0000
0000
0000
,  // measure 47
0100
0000
0001
0010
0001
0000
1000
0000
0010
0000
0100
0000
0001
0000
0010
0000
,  // measure 48
0100
0100
0010
0001
0001
0010
0100
0100
,  // measure 49
1000
0000
0010
0000
0100
0001
0000
0100
0001
0000
1000
0010
0000
1000
0010
0000
,  // measure 50
0100
0000
0001
0000
0010
0001
0000
0100
0010
0000
0100
0010
0000
1000
0100
0000
,  // measure 51
0010
0000
0001
0000
1000
0001
0000
1000
0001
0000
0100
0001
0000
0100
0001
0000
,  // measure 52
0010
0000
1000
0010
1000
0000
0001
0010
0001
0000
0001
0000
1000
0000
0100
0000
,  // measure 53
1000
1000
0001
0001
0100
0100
0001
0001
,  // measure 54
1000
1000
0100
0100
0010
0010
0100
0100
,  // measure 55
0010
0000
0001
0000
1000
0000
0001
0000
0100
0000
0010
0000
1000
0001
1000
0000
,  // measure 56
0000
0010
0100
0010
0100
0010
0100
0010
,  // measure 57
1001
0000
0001
0000
1000
0100
0000
1000
0010
0000
1000
0100
0000
1000
0010
0000
,  // measure 58
0100
0000
0001
0000
0010
0001
0000
0100
0001
0000
0010
0001
0000
0100
0001
0000
,  // measure 59
0010
0000
0001
0000
0100
0010
0000
1000
0010
0000
0100
0010
0000
1000
0010
0000
,  // measure 60
1000
0000
0001
0000
1000
0001
0000
0100
0001
0000
1000
0001
0000
1000
0100
0000
,  // measure 61
0010
0000
0001
0000
0100
0001
0000
0010
0100
0000
1000
0100
0000
1000
0010
0000
,  // measure 62
0100
0000
0001
0000
1000
0100
0000
0010
0100
0000
0010
0001
0000
0100
0010
0000
,  // measure 63
1000
0001
0100
0001
0010
0100
1000
0010
,  // measure 64
0100
0000
0100
0000
0010
0000
0010
0000
1000
0000
1000
0000
0001
1000
0001
1000
,  // measure 65
0010
0100
0010
0000
0000
0000
0000
0000
0000
0000
0000
0000
0000
0000
0000
0000
;
