#TITLE:踊るフィーバーロボ (Eu-Robot Mix);
#SUBTITLE:;
#ARTIST:D&E&Y rmx by kors k as Disconation;
#TITLETRANSLIT:Odoru Fever Robo (Eu-Robot Mix);
#SUBTITLETRANSLIT:;
#ARTISTTRANSLIT:;
#GENRE:;
#CREDIT:;
#MENUCOLOR:;
#NEWMETERSYSTEM:NO;
#BANNER:Odoru Fever Robo (Eu-Robot Mix)-bn.png;
#BACKGROUND:Odoru Fever Robo (Eu-Robot Mix)-bg.png;
#LYRICSPATH:;
#CDTITLE:MixMania 4 CD Title.png;
#MUSIC:Odoru Fever Robo (Eu-Robot Mix).mp3;
#OFFSET:-1.320;
#SAMPLESTART:61.660;
#SAMPLELENGTH:11.980;
#SELECTABLE:YES;
#LISTSORT:;
#BPMS:0.000=163.000;
#STOPS:;
#BGCHANGES:;
#ATTACKS:;

//---------------dance-single - ----------------
#NOTES:
     dance-single:
     :
     Easy:
     5:
     0.394,0.394,0.112,0.177,0.004:
0000
0000
0000
0000
,
0000
0000
0000
0000
,
1000
0000
0000
0001
0000
0000
0000
0000
,
0020
0000
0000
0000
,
0130
0000
0010
0000
,
0001
0100
1000
0100
,
0010
0000
0000
1000
0000
0000
0000
0000
,
0100
0010
0001
1000
,
2002
0000
0000
3003
,
0010
0100
0000
0000
0010
0100
0000
0000
,
0001
1000
0100
0100
,
0010
0001
1000
0001
,
0100
0010
2000
0000
,
3100
0010
0000
0000
0100
0010
0000
0000
,
0100
0010
0001
1000
,
0001
0010
0100
1000
,
0002
0000
2000
3003
,
0110
0001
1000
0100
,
0010
0001
0100
0001
,
0010
0100
0000
0000
1000
0000
0100
0000
,
0001
0100
1000
0010
,
0100
0001
0000
0000
0010
0000
0100
0000
,
1000
0001
0100
0001
,
0020
0000
2030
0000
,
3100
0000
0010
0001
0000
0000
1000
0000
,
0001
0100
0010
1000
,
0001
1000
0100
0010
,
0002
0200
0303
1000
,
0100
0010
0100
1000
,
0010
0100
0001
0010
,
0001
0100
0010
1000
,
0020
0200
0330
0001
,
1000
0100
1000
0010
,
0001
0100
0010
1000
,
0001
1000
0100
0010
,
0100
0010
0001
1000
,
0001
0000
1000
0000
0100
0000
0000
1000
,
0010
0000
0000
0100
0001
0000
0000
0010
,
0100
0000
0000
1000
0100
0000
0100
0000
,
0110
0000
0001
1000
,
0001
0010
0100
0100
,
2002
3003
0010
0010
,
1001
0100
1001
0100
,
0001
0010
0100
1000
0000
0000
0100
0000
,
1000
0010
0100
0001
,
1000
0001
0020
0030
,
1001
0100
1001
0010
,
1001
0100
1000
0100
,
0020
0001
0031
0100
,
0200
1000
1300
0001
,
0010
1000
0100
0001
,
0010
1000
0100
0010
,
0001
1000
0000
0001
1000
0000
0001
1000
,
0200
0000
0000
0300
,
1000
0100
0010
0001
,
1000
0001
0100
0010
,
0100
0001
0000
0000
1000
0100
0000
0000
,
1000
0010
0100
0001
0000
0000
0000
0000
,
0001
0100
1000
0100
,
0001
0100
1000
0100
,
0001
0010
0000
0000
0100
1000
0000
0000
,
0001
0010
0100
1000
0001
0000
0001
0000
,
1001
0100
1001
0010
,
0001
0010
0100
1000
0000
0000
0100
0000
,
1000
0100
0010
0001
,
0100
0001
2000
3100
,
1001
0100
1001
0010
,
1001
0010
0001
1000
,
0200
1000
1300
0010
,
0002
0010
0013
0100
,
1000
0001
0010
0100
,
1000
0001
0100
0010
,
1000
0100
0000
0010
0001
0000
0100
0010
,
0200
0000
0000
0300
,
1000
0001
0000
0000
0001
1000
0000
0000
,
0001
0010
0100
1000
0001
0000
0001
0000
,
0100
1000
0100
0010
,
1000
0000
0100
0000
0010
0001
1000
0000
,
0001
0100
0000
0000
1000
0100
0000
0000
,
0010
0100
0010
0001
1000
0000
0001
0000
,
0100
1000
0100
0001
,
0100
0000
0001
0000
1000
0000
0001
0000
1000
0000
0000
0001
0000
0000
0100
0000
;

//---------------dance-single - Copied from----------------
#NOTES:
     dance-single:
     Copied from:
     Beginner:
     2:
     0.133,0.230,0.040,0.088,0.000:
0000
0000
0000
0000
,
0000
0000
0000
0000
,
0000
0000
0000
0000
,
0020
0000
0030
0000
,
0010
0000
1000
0000
,
0001
0000
0000
0000
,
1000
0000
0000
0000
,
0001
0000
0000
0000
,
0200
0000
0300
0000
,
1001
0000
0000
0000
,
0010
0000
0000
0000
,
0001
0000
0100
0000
,
1000
0000
0100
0000
,
0001
0000
0000
0000
,
0010
0000
0000
0000
,
0100
0000
0000
0000
,
1000
0000
0001
0000
,
0010
0000
0000
0000
,
0100
0000
0000
0000
,
1000
0000
0000
0000
,
0001
0000
0000
0000
,
0010
0000
0000
0000
,
0001
0000
0000
0000
,
0100
0000
0100
0000
,
0110
0000
0000
0000
,
0010
0000
0000
0000
,
1000
0000
0000
0000
,
0001
0000
0000
0000
,
0100
0000
0000
0000
,
1000
0000
0000
0000
,
0010
0000
0000
0000
,
0100
0000
0000
0000
,
0002
0000
0003
0000
,
1000
0000
0001
0000
,
1000
0000
0001
0000
,
0100
0000
0000
0000
,
0010
0000
0000
0000
,
0001
0000
0010
0000
,
0100
0000
1000
0000
,
0020
0000
0030
0000
,
0200
0000
0300
0000
,
1001
0000
0010
0010
,
0010
0000
0100
0000
,
0010
0000
0000
0000
,
1000
0000
0000
0000
,
0001
0000
0000
0000
,
0001
0000
0010
0000
,
0001
0000
1000
0000
,
0100
0000
0000
0000
,
0010
0000
0000
0000
,
0100
0000
0000
0000
,
1000
0000
0000
0000
,
0002
0000
0003
0000
,
0200
0000
0300
0000
,
0010
0000
0000
0000
,
1000
0000
0000
0000
,
0001
0000
1000
0000
,
0001
0000
0000
0000
,
0100
0000
0000
0000
,
0010
0000
0000
0000
,
1000
0000
0100
0000
,
0010
0000
0001
0001
,
0001
0000
1000
0000
,
0010
0000
0000
0000
,
0100
0000
0000
0000
,
0001
0000
0000
0000
,
1000
0000
0001
0000
,
0010
0000
0100
0000
,
0010
0000
0000
0000
,
0001
0000
0000
0000
,
1000
0000
0000
0000
,
0010
0000
0000
0000
,
0200
0000
0300
0000
,
0020
0000
0030
0000
,
1001
0000
0000
0000
,
0010
0000
0000
0000
,
1000
0000
0000
0000
,
0001
0000
0000
0000
,
0010
0000
0000
0000
,
0100
0000
0000
0000
,
1000
0000
0000
0000
,
0220
0000
0000
0000
0000
0000
0000
0330
;

//---------------dance-single - Copied from----------------
#NOTES:
     dance-single:
     Copied from:
     Medium:
     6:
     0.491,0.493,0.249,0.177,0.016:
0000
0000
0000
0000
,
0000
0000
0000
0000
,
1000
0000
0000
1100
0000
0000
0000
0000
,
0001
0000
0000
1000
0000
0000
0001
0000
0000
1000
0000
0000
0001
0000
1000
0000
,
0010
0001
0100
0010
,
1000
0001
1000
0001
0000
0000
0100
0000
,
0001
0000
0000
0110
0000
0000
1000
0000
,
1000
0001
0100
0000
,
0022
0030
0200
0303
,
1010
1000
1100
1000
,
0001
0010
0001
0100
0010
0000
1000
0000
,
0001
0100
1000
0100
,
0010
0000
1000
0000
0100
0010
0001
0000
,
1001
0001
0110
0010
,
0010
1000
0001
0010
0100
0000
0100
0000
,
0010
0001
1000
0001
,
0100
0000
0001
0000
0100
0000
0001
0000
1000
0000
0000
1000
0000
0000
0100
0000
,
1000
0000
0010
0000
0100
0000
0001
1000
,
0001
0010
0100
1000
,
0010
0100
0010
0000
1000
0000
0100
0000
,
0020
0032
0203
0310
,
1000
0010
0100
0000
0010
0000
1000
0000
,
0100
0010
0001
1000
,
0001
0000
0100
0010
0100
0000
0010
1000
,
0010
0000
1000
0100
0000
0010
0001
0000
,
0100
0000
0001
0000
1000
0000
0001
0010
,
0001
0100
0010
1000
,
0002
0000
2003
0000
3100
0000
0010
0100
,
1000
0010
0100
0010
,
0001
0000
0100
0000
0001
0000
1000
0010
,
0100
0001
0010
0100
,
0020
0032
0100
0103
,
1010
0000
0101
0000
1000
0100
0001
0100
,
1000
0000
0010
0000
0100
0001
0010
0000
,
0100
1000
0001
0100
,
0001
0000
0000
1000
0000
0001
0100
0000
,
0100
0000
0010
0000
1000
0100
0010
0001
,
0100
0000
0010
0000
1000
0000
0001
0100
,
0010
1000
0001
0100
,
0010
0000
1000
0000
1000
0001
0100
0000
,
1100
0011
0101
1001
,
0220
0330
0001
0100
,
0001
1000
0100
0000
1000
0001
0100
0000
,
0010
0100
0010
0100
0010
0000
1000
0000
,
0100
0001
0100
1000
,
0010
0000
0100
0000
0001
1000
1000
1000
,
0100
1000
0010
0000
0100
0001
0010
0000
,
0100
0010
0001
0000
1000
0000
0001
0000
,
0100
0001
0002
0013
,
0100
0200
1300
0010
,
1000
0100
0010
0001
,
0010
0100
2000
3002
,
0103
0010
0000
0010
0100
0000
0100
0001
,
1000
0100
0010
0001
,
1001
0001
0101
1000
,
0110
1010
0100
1000
,
1010
0100
0011
0100
,
1001
0110
0001
0100
,
1010
0100
1001
0100
,
0011
1100
0010
0100
,
0001
0100
0000
0000
1000
0100
0000
0000
,
0010
0100
0010
0100
0020
0000
2030
0000
,
3100
0010
0001
0000
0001
0100
1000
0000
,
1000
0100
0010
1000
0001
0000
0100
0000
,
0001
1000
0100
0010
,
0001
0000
0100
0000
0001
0010
0010
0010
,
0100
0010
0001
0000
0010
0100
1000
0000
,
0010
0100
0001
0000
0001
0000
0100
0010
,
0010
1000
0200
0310
,
0001
0200
0301
1000
,
0001
0100
0001
1000
,
0100
0010
0200
2300
,
3010
0100
0000
0001
1000
0000
0010
0100
,
0001
1000
0100
0000
0010
0001
0100
0000
,
0010
0100
0001
0000
1000
0100
1000
0000
,
0010
0100
0001
1000
0001
0000
0100
0000
,
0001
0010
0100
1000
,
0001
0000
0100
0000
0001
1000
0010
0000
,
1100
0010
0101
0010
,
1001
0110
0001
0100
,
0001
1000
0100
0001
,
0100
0000
0001
0000
0010
0000
0100
0000
1000
0000
0000
0001
0000
0000
0110
0000
;

//---------------dance-single - Copied from----------------
#NOTES:
     dance-single:
     Copied from:
     Hard:
     8:
     0.617,0.592,0.225,0.201,0.124:
0000
0000
0000
0000
,
0000
0000
0000
0000
,
0012
0000
0003
0201
0000
0000
0300
0000
,
1000
0000
0000
0100
0000
0000
0010
0000
0000
0001
0000
0000
1000
0000
0001
0000
,
0100
0010
0100
0000
0001
1000
0100
0000
,
0010
0001
0100
0010
1000
0000
0001
0000
,
0101
0000
0000
1010
0000
0000
1000
0000
,
0001
0000
0000
0100
0001
0000
1000
0000
0100
0000
0100
0000
0001
0000
0010
0000
,
0200
0000
0020
0330
,
1000
0100
0010
0000
0100
0010
0001
0000
,
0100
0001
0010
0100
1000
0001
0100
0000
,
0010
0000
0000
1000
0100
0000
0000
0000
0010
0000
0000
0001
0100
0000
0000
0000
,
0010
0100
0010
1000
0001
0200
0002
0303
,
1000
0001
0100
0000
0010
1000
0001
0000
,
0001
0010
0100
1000
0001
0010
0001
0000
,
0100
0000
0000
0001
1000
0000
0000
0000
0100
0000
0000
1000
0001
0000
0000
0000
,
0010
0000
0001
0000
0010
0000
0001
0000
1000
0000
0000
0100
0000
0000
1000
0000
,
0200
0000
0310
0001
1000
0100
1000
0000
,
0001
0101
1000
1100
,
0020
0000
0130
0001
1000
0100
0010
0100
,
1000
0110
0001
0101
,
0010
1000
0010
0100
0010
1000
0001
0100
,
1000
0100
0010
1000
,
0100
0000
0100
0010
0001
0000
1000
0100
,
1000
0010
0100
0010
0000
0010
1000
0000
,
1001
0000
1000
0000
0010
0100
0001
0000
,
0010
0000
0000
0010
0100
0000
0000
0100
1000
0000
0000
0001
1000
0000
0000
0000
,
0100
0000
0100
0000
1000
0010
0100
0001
,
0010
0000
0100
0000
1000
0010
0100
0000
,
0100
0010
0100
0000
0100
0001
0100
1000
,
0100
0010
1000
0100
,
0020
0002
0030
0100
,
0013
0001
1000
0001
0100
0010
0001
0010
,
0100
0000
0110
0000
0010
1000
0001
0100
,
0010
0000
0100
0000
0010
0010
1000
0000
,
0101
0000
0001
1000
0100
0001
0100
1000
,
0010
0000
0100
0000
0001
0001
1000
1000
,
0100
0010
0001
1000
0010
0010
0100
0100
,
0001
0010
0100
0010
0002
0000
0203
0000
,
1300
0000
0100
0000
0010
1000
0001
0100
,
0001
0011
0110
1100
,
1000
0100
0200
0000
0010
0000
0001
0000
,
0310
0010
1000
0000
0100
0100
0001
0000
,
0010
0100
0010
0100
1000
0100
0010
0001
,
0100
0000
0000
0100
0001
0000
0000
0010
0100
0000
0000
0100
1000
0000
0000
0010
,
0100
0010
0100
0001
1000
0001
0010
0001
,
0100
0100
0001
0000
0100
0100
1000
0000
,
0010
0000
0010
0000
0001
0000
0000
0000
0100
0000
0000
0001
0000
0000
1000
0000
,
0010
0000
0100
1000
0100
1000
0100
0000
,
0010
0100
0010
0100
0010
0000
0001
0000
,
0100
0000
0000
0001
0000
0000
1000
0000
0010
0000
0000
0100
0000
0000
0001
0000
,
1000
0000
0000
1000
0000
0000
0100
0000
0010
0000
0000
0000
0100
0000
0000
0000
,
1000
1010
0000
0001
0101
0000
0010
0100
,
0220
0000
0330
0001
,
1001
1000
0100
0000
0010
0100
0100
0000
,
0010
0100
1000
0001
0100
0000
0001
0000
,
0010
0010
0001
0000
1000
1000
0100
0000
,
0010
0001
0100
0010
1000
0001
0001
0000
,
0001
0100
0010
0000
0010
0100
1000
0000
,
1000
0100
0010
0100
0001
0010
0100
0000
,
0110
0010
0100
0000
1001
0001
1000
0000
,
0001
0010
0100
1000
0200
0000
2300
0000
,
3001
0100
0101
0000
1000
0100
1100
0000
,
0001
1000
0100
0010
0001
0100
0010
1000
,
0001
0000
0000
1000
0100
0000
0000
0100
0010
0000
0000
0010
0001
0000
0000
0100
,
0010
0100
0010
1000
0001
1000
1000
0100
,
0010
0100
1000
0001
0010
0001
0100
0001
,
1000
0000
0010
0000
0001
0000
0010
0000
0100
0000
0000
0010
0000
0000
1000
0000
,
0200
0000
1000
0000
0010
0010
0310
0000
,
0210
0000
0001
0001
0301
0000
1001
0000
,
0001
0000
0000
0010
0000
0000
0100
0000
1000
0000
0000
0001
0000
0000
0010
0000
,
0100
0000
0000
0010
0000
0000
0001
0000
2000
0000
0000
0000
3200
0000
0000
0000
,
0310
0110
0000
0001
1001
0000
1000
0100
,
2200
0000
3300
0010
,
0101
0001
1000
0000
0100
1000
0010
0000
,
0100
0010
0100
0001
0100
0010
1000
0100
,
0010
0001
0100
1000
0100
0010
1000
0100
,
0100
0010
0001
0100
0001
2000
0200
3300
,
0001
0010
0001
0000
0100
0001
1000
0000
,
0100
1000
0001
0100
0001
0010
0100
0000
,
0100
1000
0010
0100
0001
0010
0010
0100
,
1000
0000
0001
0000
0100
0000
0010
0000
1000
0001
0000
1000
0000
0010
0100
0010
;

//---------------dance-single - Copied from----------------
#NOTES:
     dance-single:
     Copied from:
     Challenge:
     9:
     0.728,0.658,0.329,0.321,0.084: // measure 1
0000
0000
0000
0000
,  // measure 2
0000
0000
0000
0000
,  // measure 3
0102
0000
0003
2010
0000
3000
0000
0000
,  // measure 4
0010
0000
0000
0100
0000
0000
0001
0000
0000
1000
0000
0000
0010
0000
0100
0000
,  // measure 5
0001
0010
0002
0000
1003
0100
2000
0000
,  // measure 6
3010
0100
0001
1000
0100
0010
0001
0100
,  // measure 7
0011
0000
1000
1100
0000
0001
1000
0001
,  // measure 8
0100
0000
0000
0001
0010
0000
0100
0000
1000
0000
0010
0000
0100
0000
0001
0000
,  // measure 9
0220
0330
2002
3003
,  // measure 10
0010
0100
1000
0100
0010
1000
0100
0001
,  // measure 11
0100
0010
0100
0010
0001
1000
0001
0100
,  // measure 12
0010
1000
0001
0010
0001
0100
0010
1000
,  // measure 13
1000
0100
0010
0100
1000
0002
2000
3003
,  // measure 14
1000
0100
0010
1000
0010
0001
0100
0010
,  // measure 15
0100
0001
1000
0001
0100
1000
0010
0100
,  // measure 16
0010
0001
1000
0001
0100
0010
1000
0001
,  // measure 17
0010
0100
0010
0000
0001
0000
0100
0000
0010
1000
0000
0001
0000
1000
0010
0100
,  // measure 18
0001
0010
0001
1000
0100
0010
0100
1000
,  // measure 19
0020
0100
0230
0000
0310
1000
0001
0100
,  // measure 20
0001
1000
0100
0010
0100
1000
0001
0010
,  // measure 21
0200
0010
0320
0000
2030
0100
3200
0000
,  // measure 22
0310
0001
0010
0100
0100
1000
0001
0010
,  // measure 23
0001
0101
0100
0110
,  // measure 24
1001
0000
0001
1000
1001
0000
0100
0010
,  // measure 25
0110
0010
1000
0200
0000
0310
0100
0010
,  // measure 26
0001
1000
0001
0100
0010
0100
1000
0100
,  // measure 27
0010
0001
0001
0100
0010
1000
0010
0100
,  // measure 28
2000
0100
0200
0000
3300
0100
0010
0001
,  // measure 29
0010
0100
1000
0001
0010
0001
1000
0010
,  // measure 30
2000
0000
3100
0000
0020
0000
0031
0100
,  // measure 31
0001
0010
0100
1000
0010
0001
0010
1000
,  // measure 32
0100
0010
1000
0001
0010
0001
0100
0010
,  // measure 33
1000
0010
1000
0001
0100
1000
0100
0010
,  // measure 34
0110
0000
0001
0000
0101
0000
0001
1000
,  // measure 35
0110
0000
0100
0000
1100
0000
1000
0001
,  // measure 36
0011
0000
0001
0100
0000
0001
0100
1000
,  // measure 37
0100
0000
0010
0000
0100
0001
0100
0100
,  // measure 38
1000
0100
0010
1000
0100
0001
0010
0100
,  // measure 39
0010
0001
1000
0001
0200
0000
0310
0000
,  // measure 40
1001
0000
0101
0000
1100
1000
0010
0000
,  // measure 41
0100
0001
0100
0001
1000
0010
1000
0010
,  // measure 42
0100
0010
0210
0000
0301
0000
1001
0000
,  // measure 43
1000
0100
1100
0000
0001
0100
0101
0000
,  // measure 44
0010
0001
0100
0010
1000
0001
0010
0000
,  // measure 45
0001
1000
0100
0010
0100
1000
0001
0010
,  // measure 46
0100
0010
0001
0100
0010
0200
0320
2030
,  // measure 47
3100
0010
0110
0000
0001
1000
1001
0000
,  // measure 48
0010
0000
0001
0000
0011
0000
0000
0000
0001
0000
0000
1000
0100
0000
0010
0000
,  // measure 49
0100
1000
0001
0100
0001
1000
0100
0000
,  // measure 50
1000
0010
1000
0010
0100
0001
0010
0100
,  // measure 51
0010
0000
0000
0010
0001
0000
0100
0000
0001
0000
0000
1000
0100
0000
0010
0000
,  // measure 52
0100
0000
0000
0001
0100
0000
1000
0000
0100
0000
0100
0000
0020
0000
0000
0000
,  // measure 53
0031
0100
0100
0010
1000
1000
0100
0001
,  // measure 54
0200
2000
3300
1010
,  // measure 55
1001
0001
0010
0001
0100
0100
0010
1000
,  // measure 56
0001
1000
0001
1000
0010
0000
0010
0000
,  // measure 57
0100
0100
0001
0010
0001
0001
1000
0010
,  // measure 58
1000
0100
1000
0100
0010
0000
0010
0000
,  // measure 59
0100
0100
1000
0010
1000
1000
0100
0010
,  // measure 60
0001
0100
0001
0100
0010
0000
0010
0000
,  // measure 61
0110
0110
0000
0000
1001
1001
0000
0000
,  // measure 62
0001
0001
1000
1000
0200
0010
0320
0000
,  // measure 63
0031
1000
1001
0000
0100
0010
0110
0000
,  // measure 64
0001
0100
1000
0100
0010
1000
0100
0000
,  // measure 65
0010
0001
1000
0100
1000
0010
0100
0100
,  // measure 66
0010
0100
0001
0010
0100
2000
3002
0023
,  // measure 67
0031
0100
1100
0000
1000
0001
0101
0000
,  // measure 68
1000
0000
0100
0000
0011
0000
0000
0000
0001
0000
0000
1000
0100
0000
0010
0000
,  // measure 69
0100
0001
0100
1000
0001
0010
0001
0000
,  // measure 70
0100
0001
1000
0010
0100
0100
0100
0000
,  // measure 71
0001
0000
0000
0010
0100
0000
1000
0000
0100
0000
0000
1000
0010
0000
0100
0000
,  // measure 72
0010
0000
0000
1000
0001
0000
0010
0000
0002
0000
0100
0000
0203
0000
0000
0000
,  // measure 73
0310
1010
0000
0001
0101
0000
0010
0110
,  // measure 74
0200
0000
0002
0000
0303
1000
0001
0000
,  // measure 75
0110
0010
1000
0001
0010
0001
0100
0010
,  // measure 76
1000
0001
0010
0100
0010
0001
0100
0001
,  // measure 77
0001
0010
1000
0010
0100
0010
0001
0100
,  // measure 78
0010
1000
0001
0100
0001
2000
0200
3300
,  // measure 79
0100
1000
0010
0100
0001
1000
0001
0010
,  // measure 80
0100
0010
0001
1000
0100
0010
1000
0010
,  // measure 81
0001
0100
0100
0010
0100
0001
1000
0001
,  // measure 82
0100
0001
0100
0000
0001
0000
1000
0000
0001
0100
0000
0001
0000
1000
0100
0010
;
