#TITLE:NORTH;
#SUBTITLE:;
#ARTIST:WALL5;
#TITLETRANSLIT:;
#SUBTITLETRANSLIT:;
#ARTISTTRANSLIT:;
#GENRE:;
#CREDIT:;
#MENUCOLOR:;
#NEWMETERSYSTEM:NO;
#BANNER:NORTH-bn.png;
#BACKGROUND:NORTH-bg.png;
#LYRICSPATH:;
#CDTITLE:MixMania 4 CD Title.png;
#MUSIC:NORTH.mp3;
#OFFSET:-0.340;
#SAMPLESTART:43.820;
#SAMPLELENGTH:12.000;
#SELECTABLE:YES;
#LISTSORT:;
#BPMS:0.000=138.000,32.000=69.000,48.000=138.000,144.000=69.000,152.000=138.000;
#STOPS:48.000=1.740
;
#BGCHANGES:;
#ATTACKS:;

//---------------dance-single - ----------------
#NOTES:
     dance-single:
     :
     Easy:
     4:
     0.275,0.314,0.183,0.116,0.000:
0000
0000
0000
0000
,
0000
0000
0000
0000
,
0000
0000
0000
0000
,
0000
0000
0000
0000
,
0001
0001
0100
0100
,
0010
1000
0200
0300
,
1000
1000
0100
0100
,
0010
0001
0100
0010
,
1001
0001
0001
0100
,
0010
0010
0010
1000
,
0100
0100
0100
0010
,
0001
0001
0001
1000
,
2000
0100
3010
0001
,
0002
0010
0103
1000
,
0010
0100
0001
0010
,
0010
0100
1000
0001
,
0002
0100
1003
0100
,
2000
0100
3001
0100
,
0001
0100
1000
0100
,
0220
0000
0330
0000
,
1001
0010
0001
0100
,
0020
1000
1030
0000
,
1000
0100
0010
0001
,
0100
0010
2000
3001
,
0011
0001
0100
1000
,
0200
0010
0310
0000
,
0100
0010
1000
0001
,
1000
0010
0002
0003
,
1001
0000
0000
0000
,
1001
0000
0010
0000
,
0101
1000
0100
0010
,
1100
0000
1100
1010
,
1100
0000
0001
0100
,
0011
0000
1001
0000
,
0010
0100
0010
0100
,
1001
0010
1001
1001
,
0210
0010
0010
1000
,
0300
0100
0100
0010
,
0001
0001
0001
0001
,
1000
1000
1000
1000
,
0100
0100
0100
0100
,
0010
0010
0010
0010
,
1001
0001
0100
1000
,
0010
0001
1000
0100
,
0010
0010
0100
1000
,
0001
0010
0001
0100
,
1000
0010
0001
0100
,
0001
0010
0001
0001
,
0100
0010
1000
0100
,
0010
0001
0100
0100
,
1001
0000
0000
0000
;

//---------------dance-single - Copied from----------------
#NOTES:
     dance-single:
     Copied from:
     Beginner:
     1:
     0.091,0.145,0.068,0.000,0.000:
0000
0000
0000
0000
,
0000
0000
0000
0000
,
0000
0000
0000
0000
,
0000
0000
0000
0000
,
1000
0000
0000
0000
,
0000
0000
0000
0000
,
0001
0000
0000
0000
,
0010
0000
0000
0000
,
1001
0000
0000
0000
,
0010
0000
0100
0000
,
1000
0000
0000
0000
,
0001
0000
0100
0000
,
0001
0000
0000
0000
,
1000
0000
0000
0000
,
0010
0000
0010
0000
,
0100
0000
0000
0000
,
0001
0000
0000
0000
,
1000
0000
0000
0000
,
0100
0000
0100
0000
,
1000
0000
0000
0000
,
1001
0000
0000
0000
,
0110
0000
0000
0000
,
0001
0000
0100
0000
,
0010
0000
1000
0000
,
0110
0000
0000
0000
,
1001
0000
0000
0000
,
1000
0000
0010
0000
,
0100
0000
0001
0000
,
1000
0000
0000
0000
,
0010
0000
0000
0100
,
0100
0000
0000
0000
,
0001
0000
0000
0000
,
0010
0000
0000
0100
,
0100
0000
1000
0000
,
1000
0000
0000
0000
,
0010
0000
0010
0000
,
1001
0000
0000
0000
,
0010
0000
1000
0000
,
1000
0000
0000
0000
,
0001
0000
0000
0000
,
0010
0000
0000
0000
,
0100
0000
0000
0000
,
0110
0000
0000
0000
,
0001
0000
0000
0000
,
1000
0000
0000
0000
,
0010
0000
0000
0000
,
0100
0000
0000
0000
,
0001
0000
0000
0000
,
1000
0000
0000
0000
,
0010
0000
0000
0000
,
0001
0000
0000
0000
;

//---------------dance-single - Copied from----------------
#NOTES:
     dance-single:
     Copied from:
     Medium:
     5:
     0.339,0.410,0.116,0.135,0.019:
0000
0000
0000
0000
,
0000
0000
0000
0000
,
0000
0000
0000
0000
,
0000
0000
0000
0000
,
1000
0000
0001
0000
0010
0001
0100
0000
,
0010
0010
0100
0100
1000
0000
0100
0000
,
0010
0000
1000
0000
0001
0100
1000
0000
,
1000
0100
0010
1000
0001
0000
1001
0000
,
0010
0010
0010
1000
,
0001
0000
1000
0000
0001
0000
1000
0001
,
0010
0010
0100
0100
,
1000
0000
1000
0000
0010
0000
0010
0100
,
1001
0001
1000
0001
,
0100
0000
0010
0000
1000
0100
0010
0000
,
0001
0100
0010
1000
,
0001
0000
0010
0000
0100
0010
0001
0000
,
1000
0010
0100
0010
,
1000
0000
0001
0000
1000
0010
0100
0000
,
0001
0010
0100
1000
,
0001
0000
0100
0000
1000
0100
0010
0000
,
1001
0100
1001
0010
,
0001
0100
0010
1000
0100
0000
1000
0000
,
0002
0023
0230
2300
,
3200
0320
0032
0103
,
1001
0010
1001
0100
,
1000
0100
0010
0001
0010
0000
1000
0000
,
0020
0032
0203
2300
,
3200
0320
2030
3001
,
1001
0000
0010
0000
0100
0001
1000
0000
,
1000
0100
0010
0000
0100
0010
0001
0000
,
0100
0000
0001
0000
0100
0001
0100
0000
,
0001
0000
0000
1000
0000
0000
0000
0000
0001
0000
0000
1000
0000
0000
0000
0000
,
0100
0100
0010
0000
0001
0100
1000
0000
,
0100
0000
0000
0100
0000
0000
0100
0000
0000
0010
0000
0000
0000
0000
0000
0000
,
1000
0000
0100
0010
0001
1000
0001
0000
,
0101
0000
1100
0000
0101
1000
0100
0000
,
0010
0000
0010
0000
0100
0000
1000
0001
,
0010
0001
1000
0001
,
0010
0100
0010
0100
,
0001
1000
0001
1000
,
0100
0010
0001
1000
,
0010
0100
1000
0001
,
1001
0000
0010
0100
0001
0000
1000
0100
,
0010
0100
1000
0001
,
0010
0000
0100
0010
0001
0000
0100
0010
,
1000
0001
0100
1000
,
0010
0000
0100
0001
0010
0000
1000
0010
,
0100
0010
0100
0001
,
1000
0000
0100
0010
0001
0000
1000
0100
,
0010
0000
0100
0000
1000
0001
1000
0000
,
1001
0000
0000
0000
;

//---------------dance-single - Copied from----------------
#NOTES:
     dance-single:
     Copied from:
     Hard:
     7:
     0.408,0.435,0.261,0.010,0.101:
0000
0000
0000
0000
,
0000
0000
0000
0000
,
0000
0000
0000
0000
,
0001
0010
0100
1000
0001
0000
0000
0000
,
1100
0000
0011
0000
1100
0010
0001
0000
,
0100
0001
0010
0100
1000
0000
0001
0000
,
0101
0000
1100
0000
0110
1000
0001
0000
,
0001
0010
0100
1000
1000
0000
0110
0000
,
0001
0100
0010
1000
0100
0010
0001
0000
,
0010
1000
0100
0010
0100
1000
0001
0000
,
0010
0010
0100
0001
0010
0100
1000
0000
,
0100
1000
0001
0010
0100
1000
0001
0100
,
1001
0000
0000
1000
0000
0000
0001
0000
0100
0000
0000
0010
0000
0000
1000
0000
,
0100
1001
0010
1001
,
0010
0000
0000
0100
0000
0000
0001
0000
1000
0000
0000
0100
0000
0000
0010
0000
,
0001
1100
0001
1100
,
0010
0000
0000
1000
0000
0000
0001
0000
0100
0000
0000
0010
0000
0000
1000
0000
,
0001
0011
0100
1100
,
0010
0000
0000
0100
0000
0000
0001
0000
1000
0000
0000
0100
0000
0000
0010
0000
,
0001
1010
0001
0101
,
0010
0000
0100
0001
1000
0000
0100
1000
,
0010
0000
0110
0000
0110
0000
0001
1000
,
0100
0000
0010
0001
1000
0000
0010
0100
,
0001
0000
0010
0100
1000
0000
0001
1000
,
0001
0000
0010
0100
1000
0000
0010
0100
,
0001
0000
1001
0000
1000
0000
0100
1000
,
0010
0000
0100
0001
0010
0000
0001
1000
,
0001
0000
0010
0100
0010
0000
0001
0000
,
1000
0100
0010
0100
1000
0001
0100
0000
,
0001
0001
0010
0001
0100
0010
0100
0000
,
0010
1000
0010
1000
0001
0100
0001
0000
,
0002
0000
0000
1000
0003
0000
0000
0000
1000
0100
0000
0010
0000
0000
0000
0000
,
0001
1000
1000
0001
0100
0001
1000
0000
,
0100
0000
0000
0010
0000
0000
0100
0000
0000
1000
0000
0000
0001
0000
0000
0000
,
0110
0000
1000
0100
0001
0100
1000
0000
,
0001
0010
0001
0100
0010
1000
0100
0000
,
1001
0100
0001
0100
0010
0100
1000
0100
,
0010
0100
0001
0100
0001
0100
1000
0100
,
0001
0010
0100
1000
,
0001
0010
0100
1000
,
0010
0100
0001
1000
,
0100
0010
0001
1000
0100
0010
0001
0000
,
1001
0000
0000
0100
0000
0000
1000
0000
0100
0000
0000
0010
0000
0000
0001
0000
,
0100
0001
0010
0100
,
1000
0000
0000
0010
0000
0000
0100
0000
0001
0000
0000
0010
0000
0000
0100
0000
,
1000
0001
0100
1000
,
0100
0000
0000
0010
0000
0000
1000
0000
0100
0000
0000
0010
0000
0000
0001
0000
,
0100
1001
0010
1001
,
0010
0000
0000
0010
0000
0000
0100
0000
1000
0000
0000
0100
0000
0000
0010
0000
,
0001
0110
1000
0110
,
0110
0000
0000
0000
;

//---------------dance-single - Copied from ----------------
#NOTES:
     dance-single:
     Copied from:
     Challenge:
     9:
     0.494,0.628,0.203,0.000,0.488: // measure 1
0000
0000
0000
0000
,  // measure 2
0000
0000
0000
0000
,  // measure 3
0000
0000
0000
0000
,  // measure 4
0010
0000
0100
0010
0100
0000
0010
0000
0100
0000
0000
0000
0001
0000
0000
0000
,  // measure 5
1000
0000
0000
0000
0100
0000
0000
0010
0001
0000
0100
0000
0010
0000
0000
0000
,  // measure 6
1000
0001
0100
1000
0100
0000
0001
0000
,  // measure 7
1000
0000
0000
0000
0010
0000
0000
0001
0010
0000
0100
0000
1000
0000
0000
0000
,  // measure 8
0100
0010
0100
1000
0001
0100
1001
0000
,  // measure 9
0101
0000
0000
1000
0000
0000
0100
0000
0010
0000
0000
0001
0000
0000
0100
0000
0010
0000
0000
1000
0000
0000
0001
0000
0001
0000
0000
0100
0000
0000
1000
0000
,  // measure 10
0100
0000
0000
0010
0000
0000
1000
0000
0100
0000
0000
0010
0000
0000
0001
0000
1000
0000
0000
0001
0000
0000
0100
0000
0100
0000
0000
1000
0000
0000
0100
0000
,  // measure 11
0010
0000
0000
0010
0000
0000
1000
0000
0001
0000
0000
0010
0000
0000
0100
0000
1000
0000
0000
0001
0000
0000
0010
0000
0100
0000
0000
0010
0000
0000
0001
0000
,  // measure 12
1000
0000
0000
0001
0000
0000
0100
0000
1000
0000
0000
0100
0000
0000
0010
0000
0010
0000
0000
0100
0000
0000
0010
0000
1000
0000
0000
0100
0000
0000
0010
0000
,  // measure 13
0001
0000
0000
1000
0000
0000
0001
0000
0100
0000
0000
0010
0000
0000
1000
0000
,  // measure 14
0100
0000
0000
0100
0000
0000
1000
0000
0010
0000
0000
0100
0000
0000
0001
0000
,  // measure 15
0010
0000
0000
0100
0000
0000
0010
0000
0001
0000
0000
1000
0000
0000
0100
0000
,  // measure 16
1000
0000
0000
0001
0000
0000
0001
0000
0100
0000
0000
0010
0000
0000
1000
0000
,  // measure 17
0001
0000
0000
0001
0000
0000
1000
0000
0100
0000
0000
0100
0000
0000
1000
0000
,  // measure 18
0010
0000
0000
0100
0000
0000
1000
0000
0100
0000
0000
0010
0000
0000
1000
0000
,  // measure 19
0001
0000
0000
0100
0000
0000
0001
0000
0010
0000
0000
1000
0000
0000
0100
0000
,  // measure 20
0010
0000
0000
1000
0000
0000
0100
0000
0010
0000
0000
0001
0000
0000
0100
0000
,  // measure 21
0001
0000
1000
0100
0001
0000
0100
1000
,  // measure 22
0010
0000
0100
0001
0100
0000
0010
0000
1000
0000
0000
0000
0001
0000
0100
0000
,  // measure 23
1000
0000
0100
0010
1000
0000
0100
0010
,  // measure 24
0001
0000
1000
0100
0010
0000
0100
1000
,  // measure 25
1001
0000
0010
0100
1001
0000
0010
0100
,  // measure 26
0101
0000
0001
0010
0001
0000
0100
0000
1010
0000
0000
0000
1000
0000
0100
0000
,  // measure 27
0100
0000
0010
0001
0001
0000
0100
0001
,  // measure 28
1001
0000
0100
1000
1001
0000
0110
0000
,  // measure 29
1000
0100
1000
0100
0010
0000
0001
0000
0010
0000
0100
0000
1000
0000
0000
0000
,  // measure 30
1001
0100
0100
0010
1001
0100
1001
0000
,  // measure 31
0011
0100
1000
0100
1000
0010
0100
0001
,  // measure 32
1001
0000
0000
0110
0000
0000
0000
0000
0001
1000
0000
0010
0000
0000
1000
0000
,  // measure 33
1100
0001
0100
0010
1000
0100
0100
0010
,  // measure 34
0001
0000
0000
1001
0000
0000
0100
0000
0000
1001
0000
0000
0010
0000
0100
0000
,  // measure 35
0010
1000
0010
1000
0001
0100
0001
0100
,  // measure 36
0001
0010
0100
0000
1000
0000
0100
0000
0010
0000
0001
0000
0100
0000
0100
0000
,  // measure 37
0010
0000
0000
1000
0000
0000
1000
0000
0001
0000
0000
0010
0000
0000
0100
0000
0010
0000
0000
0001
0000
0000
1000
0000
0001
0000
0000
0100
0000
0000
0010
0000
,  // measure 38
1000
0000
0000
0100
0000
0000
1000
0000
0010
0000
0000
0100
0000
0000
0001
0000
0010
0000
0000
0100
0000
0000
0010
0000
0001
0000
0000
1000
0000
0000
0010
0000
,  // measure 39
0110
0000
0000
0001
0000
0000
1000
0000
0001
0000
0000
0100
0000
0000
0010
0000
,  // measure 40
1000
0000
0000
0100
0000
0000
0100
0000
1000
0000
0000
0010
0000
0000
0100
0000
,  // measure 41
0001
0000
0000
0010
0000
0000
0100
0000
1000
0000
0000
0010
0000
0000
0100
0000
,  // measure 42
0001
0000
0000
1000
0000
0000
1000
0000
0100
0000
0000
0010
0000
0000
0001
0000
,  // measure 43
0100
0000
0000
0001
0000
0000
1000
0000
0100
0000
0000
0010
0000
0000
0100
0000
,  // measure 44
1000
0000
0000
0001
0000
0000
0100
0000
0010
0000
0000
0100
0000
0000
0001
0000
,  // measure 45
0010
0000
0000
0100
0000
0000
1000
0000
0010
0000
0000
0100
0000
0000
0100
0000
,  // measure 46
0010
0000
0000
1000
0000
0000
0100
0000
0010
0000
0000
0001
0000
0000
0100
0000
,  // measure 47
1001
0000
0000
0010
0000
0000
0100
0000
0010
0000
0000
0010
0000
0000
1000
0000
,  // measure 48
0100
0000
0000
0001
0000
0000
0010
0000
0100
0000
0000
1000
0000
0000
0001
0000
,  // measure 49
1000
0000
0000
1000
0000
0000
0100
0000
0010
0000
0000
0001
0000
0000
0010
0000
,  // measure 50
0100
0000
0000
1000
0000
0000
1000
0000
0010
0000
0000
0001
0000
0000
0100
0000
,  // measure 51
1100
0000
0000
0000
;
