#TITLE:Let the Snow Paint Me;
#SUBTITLE:;
#ARTIST:Sana;
#TITLETRANSLIT:;
#SUBTITLETRANSLIT:;
#ARTISTTRANSLIT:;
#GENRE:;
#CREDIT:;
#MENUCOLOR:;
#NEWMETERSYSTEM:NO;
#BANNER:Let the Snow Paint Me-bn.png;
#BACKGROUND:Let the Snow Paint Me-bg.png;
#LYRICSPATH:;
#CDTITLE:MixMania 4 CD Title.png;
#MUSIC:Let the Snow Paint Me.mp3;
#OFFSET:-0.380;
#SAMPLESTART:74.160;
#SAMPLELENGTH:12.000;
#SELECTABLE:YES;
#LISTSORT:;
#BPMS:0.000=130.000;
#STOPS:;
#BGCHANGES:;
#ATTACKS:;

//---------------dance-single - ----------------
#NOTES:
     dance-single:
     :
     Easy:
     1:
     0.099,0.129,0.026,0.094,0.000:
0000
0000
0000
0000
,
0000
0000
0000
0000
,
0000
0000
0000
0000
,
0000
0000
0000
0000
,
1000
0000
1000
0000
,
0001
0000
0001
0000
,
0100
0000
0100
0000
,
0010
0000
0010
0000
,
1000
0000
0000
0000
,
0001
0001
0000
0000
,
0100
0000
0000
0000
,
0010
0010
0000
0000
,
0100
0000
0000
0000
,
0001
0001
0000
0000
,
1000
0000
0000
0000
,
1000
1000
0000
0000
,
0200
0000
0300
0000
,
0200
0000
0300
0000
,
0020
0000
0030
0000
,
0020
0000
0030
0000
,
2000
0000
3000
0000
,
2000
0000
3000
0000
,
0002
0000
0003
0000
,
0002
0000
0003
0000
,
0100
0000
0000
0000
,
0100
0000
0000
0000
,
0001
0000
0000
0000
,
1000
0000
0000
0000
,
0010
0000
0000
0000
,
0100
0000
0000
0000
,
0001
0000
0000
0000
,
0010
0000
0000
0000
,
0100
0000
0000
0000
,
0100
0000
0000
0000
,
1000
0000
0000
0000
,
0100
0000
0000
0000
,
0010
0000
0000
0000
,
0001
0000
0000
0000
,
1000
0000
0000
0000
,
1000
0000
0001
0000
,
1001
0000
0000
0000
,
0100
0000
0000
0000
,
0010
0000
0000
0000
,
0100
0000
0001
0000
,
0010
0000
0000
0000
,
1000
0000
0000
0000
,
0100
0000
0000
0000
,
0010
0000
0000
0000
,
0110
0000
0000
0000
,
0001
0000
0000
0000
,
1000
0000
0000
0000
,
0001
0000
1000
0000
,
0001
0000
0000
0000
,
0100
0000
0000
0000
,
0020
0000
0000
0000
,
0000
0000
0030
0000
,
1000
0000
0000
0000
,
0100
0000
0000
0000
,
0010
0000
0000
0000
,
0001
0000
0000
0000
,
0220
0000
0330
0000
;

//---------------dance-single - Copied from----------------
#NOTES:
     dance-single:
     Copied from:
     Beginner:
     1:
     0.071,0.128,0.017,0.068,0.000:
0000
0000
0000
0000
,
0000
0000
0000
0000
,
0000
0000
0000
0000
,
0000
0000
0000
0000
,
2000
0000
0000
0000
,
3000
0000
0000
0000
,
0002
0000
0000
0000
,
0003
0000
0000
0000
,
0100
0000
0000
0000
,
0010
0000
0000
0000
,
0100
0000
0000
0000
,
0000
0000
0000
0000
,
0001
0000
0000
0000
,
1000
0000
0000
0000
,
0001
0000
0000
0000
,
0000
0000
0000
0000
,
0200
0000
0300
0000
,
0020
0000
0030
0000
,
2000
0000
0000
0000
,
3000
0000
0000
0000
,
0002
0000
0003
0000
,
0200
0000
0300
0000
,
0002
0000
0000
0000
,
0003
0000
0000
0000
,
1000
0000
0000
0000
,
0100
0000
0000
0000
,
0010
0000
0000
0000
,
0000
0001
0000
0000
,
0100
0000
0000
0000
,
0001
0000
0000
0000
,
1000
0000
0000
0000
,
0000
0010
0000
0000
,
0100
0000
0000
0000
,
0100
0000
0000
0000
,
0010
0000
0000
0000
,
0010
0000
0000
0000
,
1000
0000
0000
0000
,
0001
0000
0000
0000
,
1000
0000
0000
0000
,
0001
0000
0000
0000
,
1001
0000
0000
0000
,
0000
0000
0000
0000
,
0100
0000
0000
0000
,
0000
0000
0000
0000
,
0010
0000
0000
0000
,
0000
0000
0000
0000
,
1000
0000
0000
0000
,
0001
0000
0000
0000
,
1001
0000
0000
0000
,
0100
0000
0000
0000
,
0001
0000
0000
0000
,
1000
0000
0000
0000
,
0010
0000
0000
0000
,
1000
0000
0000
0000
,
0100
0000
0000
0000
,
0010
0000
0000
0000
,
0001
0000
0000
0000
,
0100
0000
0000
0000
,
1000
0000
0000
0000
,
0100
0000
0000
0000
,
0001
0000
0000
0000
;

//---------------dance-single - Copied from----------------
#NOTES:
     dance-single:
     Copied from:
     Medium:
     5:
     0.300,0.337,0.017,0.128,0.000:
0000
0000
0000
0000
,
0000
0000
0000
0000
,
0000
0000
0000
0000
,
0000
0000
0000
0000
,
2000
0000
0100
3000
,
0020
0000
0100
0030
,
0002
0000
0010
0003
,
0200
0000
1000
0300
,
0010
0000
0000
0000
1000
0000
0001
1000
,
0001
0000
0100
0000
0010
0000
0100
0010
,
0001
0000
1000
0000
,
0001
0000
0100
0000
0001
1000
0001
0000
,
0100
0000
0000
0000
0010
0000
1000
0001
,
0010
0010
0100
0100
,
1000
0010
1000
0000
0100
0000
0000
0000
,
0010
0000
0001
0000
1000
0100
0010
0000
,
0100
0000
0000
0000
0010
0000
0100
0010
,
0001
1000
0001
0010
,
2000
0000
0000
0000
3010
0000
0001
0100
,
1000
0000
0100
0000
0010
0000
0100
0010
,
0100
0000
0000
0000
0001
0000
1000
0001
,
1000
0001
0010
0010
,
0002
0000
0000
0000
0000
0000
0103
0100
,
0010
0000
1000
0000
0001
1000
0001
0000
,
0100
0000
0010
0000
0100
0000
0001
1000
,
0001
0000
0100
0000
0010
0000
1000
0100
,
1000
0010
0100
0001
,
0010
0000
0100
0000
0010
0001
0100
0000
,
0010
1000
0001
0100
,
0001
0010
0100
0010
,
0001
0010
0100
0000
0010
0000
0001
0000
,
0100
0000
1000
0000
0010
0000
0100
0010
,
1000
0000
0100
0000
0001
0000
0010
0001
,
0100
0010
0100
0001
,
2000
0100
0010
3001
,
0002
0010
0100
1003
,
1000
0000
0001
0000
0100
0000
0001
0010
,
0100
0000
0010
0000
0001
0000
1000
0001
,
1000
0000
0100
1000
0100
0000
0010
0100
,
0010
0000
0010
0010
,
1001
0000
0100
0001
0000
1000
0000
0001
,
0000
0100
0100
0010
,
0000
0000
0100
0000
0001
0000
1000
0001
,
0000
0000
1000
0000
0100
0000
0010
0100
,
0010
0000
0000
0000
0001
0000
1000
0001
,
0000
1000
0100
1000
,
0020
0100
0230
0001
,
0302
1000
0100
1003
,
1001
0000
0010
0100
0000
0010
0000
1000
,
0000
0001
0010
0001
,
0100
0000
0010
0000
1000
0000
0100
0010
,
0000
0000
0100
0000
1000
0000
0001
0010
,
0100
0000
0010
0000
0001
0000
1000
0001
,
0010
0100
0010
0001
,
0200
0000
0000
0000
0000
0010
0000
0320
,
0000
1000
0100
1030
,
0001
0010
0001
0100
,
0001
1000
0100
1000
,
0010
1000
0100
0010
,
0001
0000
0010
0000
0100
1000
0001
0000
,
0002
0000
0000
0200
0000
0000
0000
0303
;

//---------------dance-single - Copied from----------------
#NOTES:
     dance-single:
     Copied from:
     Hard:
     6:
     0.387,0.415,0.102,0.213,0.009:
0000
0000
0000
0000
,
0000
0000
0000
0000
,
0000
0000
0000
0000
,
0000
0000
0000
0000
,
0001
0001
0010
0010
,
0001
0001
0100
0100
,
0010
0010
1000
1000
,
0100
0100
0010
0010
,
0200
0000
0000
0000
0001
0000
0310
0001
,
0100
0000
0100
0000
0010
0000
1000
0010
,
2000
0000
3200
0000
,
0320
0000
0000
0000
0031
0000
0000
0100
0000
0000
0001
0000
1000
0000
0000
0000
,
0200
0000
0000
0000
0010
0000
0310
0001
,
1000
1000
0100
1000
,
0010
1000
0100
0000
2000
0000
0000
0000
,
3200
0000
0010
0000
0310
0000
0010
0001
,
0100
0000
0001
0000
1000
0000
0100
1000
,
0010
0000
0100
0000
0010
0000
0100
0010
,
1000
0000
1000
0000
1000
0000
0100
0010
,
0001
0000
0001
0000
0100
0000
0001
1000
,
0010
0000
0010
0000
0100
0000
0010
0100
,
0001
0000
1000
0000
0001
0000
0010
0001
,
0100
0000
0010
0000
1000
0000
0010
0100
,
0010
0000
0000
0000
0100
0000
0000
0001
0000
0000
1000
0000
0001
0000
0000
0000
,
1001
0001
0010
0000
0001
1000
0001
0000
,
1000
0100
1000
0000
0010
0000
0100
0010
,
0100
0001
0010
0100
,
1000
0000
0100
0000
0010
0100
0010
0000
,
1001
0000
0001
0000
0010
0000
0001
0100
,
1000
0100
0010
1000
,
0100
0010
0100
0000
0010
0000
0001
0000
,
1000
0000
0001
0000
0100
0000
1000
0100
,
0010
0000
1000
0000
0001
0000
0010
0001
,
0100
0010
1000
0001
,
0100
0000
0010
0000
1000
0000
0001
0100
,
0001
0000
1000
0000
0010
1000
0100
0010
,
0001
0000
0100
0000
0001
0010
0100
1000
,
0100
0010
0100
0010
,
0110
0000
0001
0000
1000
0000
0001
0100
,
0101
1000
1100
0100
,
0110
0000
0010
1000
0001
0100
0001
0010
,
0001
0100
0010
1000
,
0100
0000
2000
0000
3020
0000
0130
0010
,
0200
0000
0302
0000
0023
0000
0130
0100
,
2000
0000
3100
0000
0010
0100
0010
0001
,
0100
0000
0010
0000
0100
0100
0010
0000
,
2000
3100
0002
0103
,
0020
0100
0001
1030
,
1001
0000
0001
0100
1000
0100
0010
1000
,
0100
0000
0010
0000
0001
0100
0001
0000
,
1000
0000
0200
0000
2300
0000
3010
0100
,
0002
0000
0023
0000
0230
0000
1300
1000
,
2000
0000
3100
0000
0010
0001
1000
0001
,
0100
0000
0010
0000
0100
0001
0001
0000
,
1001
0000
0001
0000
0010
0001
0100
0001
,
1001
0100
0010
1001
,
0110
0010
1000
0001
0100
0000
0001
0000
,
0010
0001
1000
0100
0010
0000
0100
0000
,
0010
0001
1000
0001
0100
0000
0010
0000
,
0100
0001
1000
0001
0100
0010
0110
0000
,
0200
0000
0301
2000
0000
3002
0000
0013
;

//---------------dance-single - Copied from ----------------
#NOTES:
     dance-single:
     Copied from:
     Challenge:
     8:
     0.485,0.548,0.145,0.136,0.034: // measure 1
0000
0000
0000
0000
,  // measure 2
0000
0000
0000
0000
,  // measure 3
0000
0000
0000
0000
,  // measure 4
0000
0000
0000
0000
,  // measure 5
1000
0100
0001
0100
,  // measure 6
1000
0010
0001
0010
,  // measure 7
1000
0100
0001
0100
,  // measure 8
1000
0010
0001
0010
,  // measure 9
1000
0000
0001
0000
0100
0000
0001
0010
,  // measure 10
0100
0000
0100
0000
0010
0000
0001
1000
,  // measure 11
0001
0100
0010
1000
,  // measure 12
0100
0000
0000
0000
0010
0000
0000
0001
0000
1000
0001
0000
0100
0000
0000
0000
,  // measure 13
0110
0000
0010
0000
1000
0000
0001
1000
,  // measure 14
0100
0100
0010
0001
,  // measure 15
1000
0001
0010
0000
0100
0000
1000
0000
,  // measure 16
0001
0000
0000
0000
0100
0000
0000
0001
0000
1000
0100
0000
0010
0000
0010
0000
,  // measure 17
0110
0001
1000
0000
0001
0100
0001
0000
,  // measure 18
1000
0100
1000
0000
0010
0100
0010
0000
,  // measure 19
0100
0001
1000
0000
0010
1000
0001
0000
,  // measure 20
0100
0001
0010
0000
0100
1000
0010
0000
,  // measure 21
0100
0001
0100
0000
0010
1000
0010
0000
,  // measure 22
0100
1000
0100
0000
0010
0001
0010
0000
,  // measure 23
0100
0001
0010
0000
0100
1000
0010
0000
,  // measure 24
0100
0001
1000
0001
0100
0001
0100
0010
,  // measure 25
1000
0000
1000
0000
0100
0000
0010
0001
,  // measure 26
0100
0000
0001
0000
1000
0001
1000
0000
,  // measure 27
1100
0000
0010
0000
0100
0001
0010
0000
,  // measure 28
0100
0000
1000
0000
0010
0000
0000
0010
0000
0100
0001
0000
0010
0000
0000
0000
,  // measure 29
1001
0000
0100
0000
0001
1000
0001
0000
,  // measure 30
0100
0001
0010
0100
1000
0010
0100
0000
,  // measure 31
0010
0100
0010
0000
1000
0000
0001
0000
,  // measure 32
0100
0000
0000
0000
0001
0000
0000
0010
0000
0100
1000
0000
0100
0000
0100
0000
,  // measure 33
0011
1000
0100
1000
0010
0001
0010
1000
,  // measure 34
0100
0010
0001
0100
0001
0010
0100
0010
,  // measure 35
0001
1000
0001
0100
0010
1000
0010
0100
,  // measure 36
0010
0001
0010
0100
0010
1000
0100
0010
,  // measure 37
0001
0010
0100
1000
0001
0100
0010
1000
,  // measure 38
0100
0001
0100
1000
0010
0001
0100
1000
,  // measure 39
0010
0100
0001
1000
0100
0010
0001
0100
,  // measure 40
1001
0010
0100
0010
1001
0100
1001
0001
,  // measure 41
0110
1000
0100
0020
0001
0032
0100
0203
,  // measure 42
0010
0310
1000
0000
0100
0100
0001
0000
,  // measure 43
1001
0000
0100
0001
1000
0010
0100
0002
,  // measure 44
0100
0103
1000
0000
0100
0010
0100
0010
,  // measure 45
1001
0100
0001
1000
0100
0010
0100
1000
,  // measure 46
0001
0010
0100
0010
0001
1000
0001
0100
,  // measure 47
0002
0000
0100
0100
0203
0000
0010
0010
,  // measure 48
0320
1030
1001
0110
,  // measure 49
1001
0001
0100
1000
0100
0001
0010
0100
,  // measure 50
1000
0100
0010
0001
1000
0010
0100
0001
,  // measure 51
1000
0001
0020
0000
0230
0000
1300
0010
,  // measure 52
0200
0000
0302
0000
0013
0100
0100
0010
,  // measure 53
1001
0100
1000
0100
0010
0001
0100
0001
,  // measure 54
1000
0010
0100
0010
0001
0010
0100
0010
,  // measure 55
2000
0000
3100
0010
0001
0100
0001
0010
,  // measure 56
0002
0103
0020
1030
,  // measure 57
1100
1000
0100
0010
0001
1000
0001
0100
,  // measure 58
0010
1000
0010
0001
0010
1000
0010
0100
,  // measure 59
0010
1000
0100
0010
0001
0100
1000
0100
,  // measure 60
0001
0100
1000
0010
0100
0001
1001
0100
,  // measure 61
0001
1000
0001
0200
0000
0310
0010
2000
,  // measure 62
0000
3000
0000
0000
;
