#TITLE:L.A.N.;
#SUBTITLE:;
#ARTIST:Kiddy & Sunshine Lovers;
#TITLETRANSLIT:;
#SUBTITLETRANSLIT:;
#ARTISTTRANSLIT:;
#GENRE:;
#CREDIT:;
#MENUCOLOR:;
#NEWMETERSYSTEM:NO;
#BANNER:L.A.N.-bn.png;
#BACKGROUND:L.A.N.-bg.png;
#LYRICSPATH:;
#CDTITLE:MixMania 4 CD Title.png;
#MUSIC:L.A.N..mp3;
#OFFSET:-1.200;
#SAMPLESTART:73.180;
#SAMPLELENGTH:12.000;
#SELECTABLE:YES;
#LISTSORT:;
#BPMS:0.000=160.000;
#STOPS:;
#BGCHANGES:;
#ATTACKS:;

//---------------dance-single - ----------------
#NOTES:
     dance-single:
     :
     Easy:
     4:
     0.315,0.325,0.034,0.218,0.000:
0000
0000
0000
0000
,
0000
0000
0000
0000
,
0000
0000
0000
0000
,
0000
0000
0000
0000
,
2000
0000
3100
0000
,
0002
0000
0013
0000
,
0200
0000
0310
0000
,
2000
0000
3100
0000
,
0001
0100
0001
0100
,
0010
1000
0010
1000
,
0100
1000
0100
1000
,
0001
0100
0001
0100
,
0001
0010
0001
0010
,
0100
1000
0100
1000
,
0010
1000
0010
1000
,
0001
1000
0001
1000
,
0010
0000
0100
0001
,
1000
0100
1000
0100
,
0010
0000
0001
0100
,
0001
0000
1000
0001
,
0100
0000
0010
1000
,
0100
0010
0001
0001
,
0100
0000
0010
1000
,
0001
0000
0100
0001
,
1000
0000
1000
0100
,
1000
0000
0010
0100
,
0010
0000
0001
0100
,
0001
0000
0010
0100
,
0010
0000
1000
0100
,
1000
0000
0010
0100
,
0010
0000
0001
0100
,
0001
0000
1000
0100
,
0010
0100
0010
0100
,
0010
0001
0010
0001
,
1000
0100
1000
0100
,
0001
0100
0001
0100
,
1000
0010
1000
0010
,
0100
0001
0100
0001
,
0100
0010
0100
0010
,
1000
0001
1000
0001
,
1001
0000
0010
0010
,
0002
0100
0103
0000
,
0010
0000
1000
1000
,
0200
1000
0310
0000
,
1001
0000
1000
0001
,
0200
0010
0310
0000
,
1001
0000
0001
1000
,
0200
1000
1300
0000
,
0002
0000
0103
0000
,
2000
0000
3100
0000
,
0020
0000
0130
0000
,
0002
0000
1003
0000
,
2000
0000
3010
0000
,
0002
0000
0103
0000
,
0020
0000
0031
0000
,
0200
0000
1300
0000
,
1000
0100
1000
0100
,
0001
0100
0001
0100
,
1000
0010
1000
0010
,
0100
0001
0100
0001
,
0010
0001
0010
0001
,
1000
0100
1000
0100
,
0010
0100
0010
0100
,
0001
1000
0001
1000
,
0020
0000
2030
0000
,
3002
0000
0203
0000
,
0320
0000
2030
0000
,
3200
0000
0320
0000
,
0032
0100
0100
0103
,
1001
0000
0100
0100
,
0010
0000
1000
0001
,
1000
0000
0001
0100
,
0001
0010
0001
0000
,
1000
0000
0100
0100
,
0010
0100
0010
0000
,
0001
0001
1000
0001
,
0100
0000
0010
1000
,
0002
0000
0103
0000
;

//---------------dance-single - Copied from----------------
#NOTES:
     dance-single:
     Copied from:
     Beginner:
     1:
     0.113,0.162,0.000,0.143,0.000:
0000
0000
0000
0000
,
0000
0000
0000
0000
,
0000
0000
0000
0000
,
0000
0000
0000
0000
,
0000
0010
0000
0010
,
0000
0010
0000
0010
,
0000
0100
0000
0100
,
0000
0100
0000
0100
,
0000
0000
0001
0001
,
0001
0000
0000
0000
,
1000
0000
1000
0000
,
1000
0000
0000
0000
,
0100
0000
0000
0000
,
0010
0000
0000
0000
,
0001
0000
0000
0000
,
0001
0000
0000
0000
,
1000
0000
0000
0000
,
0100
0000
0000
0000
,
0010
0000
0000
0000
,
0001
0000
0000
0000
,
0100
0000
0000
0000
,
1000
0000
0000
0000
,
0100
0000
0000
0000
,
0001
0000
0000
0000
,
0020
0000
0000
0000
,
0030
0000
0000
0000
,
0200
0000
0000
0000
,
0300
0000
0000
0000
,
0002
0000
0000
0000
,
0003
0000
0000
0000
,
2000
0000
0000
0000
,
3000
0000
0000
0000
,
0010
0000
0010
0000
,
0010
0000
0010
0000
,
1000
0000
1000
0000
,
1000
0000
0000
0000
,
0001
0000
0001
0000
,
0001
0000
0001
0000
,
0100
0000
0100
0000
,
0100
0000
0100
0000
,
0000
0000
0010
0000
,
0010
0000
0000
0000
,
0000
0000
1000
0000
,
1000
0000
0000
0000
,
0000
0000
0001
0000
,
0001
0000
0000
0000
,
0000
0000
0100
0000
,
0100
0000
0000
0000
,
0020
0000
0030
0000
,
0200
0000
0300
0000
,
0020
0000
0030
0000
,
0200
0000
0300
0000
,
0002
0000
0003
0000
,
2000
0000
3000
0000
,
0002
0000
0003
0000
,
2000
0000
3000
0000
,
0001
0000
0000
0000
,
0001
0000
0000
0000
,
1000
0000
0000
0000
,
0001
0000
0000
0000
,
0100
0000
0000
0000
,
0010
0000
0000
0000
,
1000
0000
0000
0000
,
1000
0000
0000
0000
,
0200
0000
0000
0000
,
0000
0000
0300
0000
,
0020
0000
0000
0000
,
0000
0000
0030
0000
,
0002
0000
0000
0000
,
0000
0000
0000
0000
,
0000
0000
0003
0000
,
2000
0000
0000
0000
,
0000
0000
0000
0000
,
0000
0000
3000
0000
,
0100
0000
0000
0000
,
0100
0000
0000
0000
,
0100
0000
0000
0000
,
0020
0000
0030
0000
;

//---------------dance-single - Copied from----------------
#NOTES:
     dance-single:
     Copied from:
     Medium:
     6:
     0.428,0.487,0.092,0.126,0.000:
0000
0000
0000
0000
,
0000
0000
0000
0000
,
0000
0000
0000
0000
,
0000
0000
0000
0000
,
0002
0100
0013
1000
,
0020
0100
1030
0100
,
2000
0001
3100
0010
,
0200
0010
0301
0100
,
1001
0000
0100
0000
0001
1000
0100
0000
,
0010
0100
0001
1000
,
0001
0000
0100
0000
0010
1000
0001
0100
,
0001
0010
0001
1000
,
0100
0000
0010
0000
0100
0000
0010
0001
,
1000
0000
0001
0000
0100
0000
0001
1000
,
0100
0000
1000
0000
0010
0000
0100
0010
,
0100
0010
1000
0001
,
1001
0000
0010
0001
,
0100
0020
1000
0100
,
0031
0100
0010
1000
,
0001
0100
0001
1000
,
0100
1000
0010
0100
,
0001
0000
0200
0000
0000
0010
0000
0000
,
0301
0100
0010
1000
,
0001
1000
0100
1000
,
0010
0000
1000
0010
0000
1000
0010
0000
,
1001
0000
0001
0100
0000
0001
0100
0010
,
1000
0000
1000
0100
0000
1000
0100
0000
,
0010
0000
0100
0010
0000
0100
0010
0100
,
0001
0000
0010
0001
0000
0010
0001
0000
,
1000
0000
0100
1000
0000
0100
1000
0010
,
0100
0000
0001
1000
0000
0001
1000
0000
,
0010
0000
0100
0010
0000
1000
0010
0100
,
0010
0000
0100
0000
0001
1000
0001
0000
,
0100
0000
0010
0000
1000
0100
1000
0000
,
0001
0000
0100
0000
0001
0010
0001
0000
,
0100
0000
0010
0000
1000
0001
1000
0000
,
0010
0000
0100
0000
0001
0010
0001
0000
,
0100
0000
0010
0000
1000
0100
1000
0000
,
0010
0000
0100
0000
0001
0010
0001
0000
,
0100
0000
0010
0000
1000
0010
1000
0000
,
1001
0000
0100
0010
,
1001
0000
0001
0010
,
0101
0000
1000
0100
,
1010
0100
0002
0103
,
0010
0100
0001
1000
,
0100
1000
0001
0010
,
0001
0100
0001
0000
1000
0100
1000
0000
,
0010
0100
0010
1000
0100
0010
0001
0000
,
0102
1000
1003
0100
,
2000
0010
3100
0010
,
0200
0001
1300
0010
,
2000
0001
3001
0100
,
0001
1000
0001
0000
0100
0000
0010
0000
,
0010
1000
0100
0000
0010
0000
0001
0000
,
1000
0010
1000
0000
0001
0000
0010
0000
,
0100
0010
0001
0000
1000
0000
0100
0000
,
1001
0000
0001
0000
1000
0001
1000
0000
,
0010
0000
0100
0000
0001
0000
1000
0001
,
0010
0000
0001
0000
0100
0010
1000
0100
,
0010
0000
0100
0000
0010
0000
0001
1000
,
0001
0000
0100
0000
0010
0000
1000
0001
,
0100
0000
0001
0000
1000
0000
0010
0100
,
0010
0000
1000
0000
0001
0000
0100
0001
,
1000
0000
0001
0100
0010
0000
1000
0000
,
0101
0000
0000
0001
0100
0000
0010
0000
,
1000
0000
0000
0100
1000
0000
0010
0000
,
0100
0000
0000
0010
0200
0000
0010
0000
,
0301
0000
0000
0100
0010
0000
0010
0000
,
0010
0010
0010
0010
,
1001
0000
0000
0010
0100
0000
0001
0000
,
1000
0000
0000
1000
0100
0000
1000
0000
,
0010
0000
0000
0100
0001
0000
0010
0000
,
0001
0000
0000
0001
0100
0000
0010
0000
,
2000
0000
0000
0200
0000
0000
3300
0000
,
1000
0000
0100
0010
0000
0000
0100
0000
,
0010
0001
0100
0010
,
1000
0001
1000
0001
,
0200
0000
0310
0000
;

//---------------dance-single - Copied from----------------
#NOTES:
     dance-single:
     Copied from:
     Hard:
     7:
     0.493,0.487,0.109,0.050,0.000:
0000
0000
0000
0000
,
0000
0000
0000
0000
,
0000
0000
0000
0000
,
0000
0000
0000
0000
,
2000
0001
3100
0010
,
0200
0010
1300
0010
,
0200
0001
1300
0001
,
0020
0001
0130
0010
,
1000
0001
1000
0001
0100
0000
0001
0000
,
1000
0010
1000
0010
0100
0000
0001
0000
,
0010
0001
0010
0001
0100
0000
0010
0000
,
1000
0001
1000
0001
0100
0000
0100
0000
,
0001
0010
0001
0010
0100
0000
0010
0000
,
0001
1000
0001
1000
0100
0000
1000
0000
,
0010
0100
0010
0100
0001
0000
0001
0000
,
1000
0001
1000
0001
0100
0000
1001
0000
,
0110
0000
1000
0000
0001
0100
0010
0000
,
1000
0000
0100
0010
0001
1000
0100
0010
,
0100
0000
0010
0000
0001
1000
0001
0000
,
0100
0010
1000
0001
,
0100
0000
0001
0000
1000
0000
0100
0010
,
1000
0000
0001
0000
0001
1000
0000
1000
,
0010
0000
0100
0000
0001
1000
0100
0000
,
1000
0010
0100
0001
,
1000
0000
0001
0100
0000
0001
0100
0010
,
1000
0000
0100
1000
0000
1000
0100
0010
,
0001
0000
0100
0001
0000
0010
0001
0100
,
0010
0000
1000
0010
0000
0100
0010
1000
,
0001
0000
0100
0001
0000
0010
0001
0100
,
0010
0000
0010
1000
0000
1000
0100
0010
,
0001
0000
0100
0001
0000
0010
0001
0100
,
0010
0000
0010
1000
0000
0010
1000
0100
,
0010
0000
0100
0010
0001
0000
0100
0010
,
0001
0000
1000
0100
0010
0100
1000
0010
,
0100
0000
0001
0010
0100
0000
0001
0010
,
0100
0000
0001
0010
0100
0010
1000
0100
,
0010
0000
1000
0100
0010
0000
1000
0100
,
0010
0000
1000
0100
0010
0100
1000
0001
,
0010
0000
0001
0010
0100
0000
0001
0010
,
0100
0000
0001
1000
0001
1000
0001
1000
,
1001
0001
0000
0000
0010
0000
0100
0000
,
1100
1000
0000
0000
0100
0000
0001
0000
,
1001
0001
0000
0000
0010
0000
0100
0000
,
0110
0010
0000
0000
1000
0000
0100
0010
,
0110
1000
0000
0000
0100
0000
0010
0000
,
1001
1000
0000
0000
0100
0000
0010
0000
,
1010
0010
0000
0000
1000
0000
0100
0000
,
0010
0001
0010
0001
1000
0100
1000
0100
,
0010
0000
0100
0010
0010
0000
1000
0000
,
0001
0000
0100
0001
1000
0000
0010
0000
,
0100
0000
0010
1000
0100
0000
0010
0000
,
0001
0000
1000
1000
0100
0000
0010
0000
,
0001
0000
1000
0001
0010
0000
0001
0000
,
0100
0000
0001
0010
0001
0000
0100
0000
,
0001
0000
0010
0100
1000
0000
0001
0000
,
0100
0000
0010
0010
1000
0000
0001
0000
,
1000
0000
1000
0100
0010
0001
0100
0010
,
0100
0000
0001
1000
0100
0000
0100
0000
,
0010
0000
0001
1000
0100
0010
0100
1000
,
0001
0000
0100
0001
0010
0000
0001
0000
,
0101
0000
0001
0010
0001
0000
1000
0000
,
0010
0000
0100
0010
1000
0000
0001
0000
,
0100
0000
0001
1000
0001
0000
0100
0000
,
0010
0100
0010
0100
1000
0001
1000
0001
,
0100
0000
0001
1000
0001
0000
0100
0000
,
0100
0000
0010
0100
0010
0000
1000
0000
,
1000
0000
0100
1000
0100
0000
0010
0000
,
0010
0000
0001
1000
0001
1000
0001
1000
,
0001
1000
0001
1000
0001
1000
0001
0000
,
0110
0000
1000
0100
,
1100
0000
0010
0001
,
0101
0000
0001
0000
0010
0000
0100
0010
,
0100
0010
1000
0100
,
1000
0000
0001
0100
0000
0001
0000
0000
,
0010
0001
0100
0010
0000
1000
0000
0001
,
1000
0000
0010
0000
0100
0001
1000
0000
,
0010
0001
0100
0010
,
2000
0002
3003
0000
;

//---------------dance-single - Copied from----------------
#NOTES:
     dance-single:
     Copied from:
     Challenge:
     9:
     0.664,0.715,0.402,0.243,0.013: // measure 1
0000
0000
0000
0000
,  // measure 2
0000
0000
0000
0000
,  // measure 3
0000
0000
0000
0000
,  // measure 4
0000
0000
0000
0000
,  // measure 5
0010
1000
0000
0010
1000
0010
0100
0001
,  // measure 6
0010
0001
0000
0010
0001
0100
0010
1000
,  // measure 7
0001
0100
0000
0010
1000
0001
0100
0001
,  // measure 8
0010
0001
0000
1000
0100
1000
0010
0100
,  // measure 9
0001
0000
0001
1000
1001
0000
0101
0000
,  // measure 10
1100
0000
0010
1000
0100
0000
0010
0001
,  // measure 11
0100
0000
0001
0100
0010
1000
0001
0100
,  // measure 12
0101
0000
1000
0100
1100
0000
0110
0000
,  // measure 13
0001
1000
0100
0000
0010
0001
0100
0000
,  // measure 14
0010
1000
0001
0000
0100
0001
1000
0000
,  // measure 15
0010
0100
0001
0100
0010
1000
0100
0010
,  // measure 16
0001
0100
0001
0100
1000
0100
0010
0001
,  // measure 17
0100
0000
0001
0100
0100
0000
0010
0000
,  // measure 18
1000
0000
1001
0000
0110
0000
1010
0100
,  // measure 19
0110
0000
0001
0100
0001
0000
1000
0100
,  // measure 20
1000
0000
0010
0100
0010
1000
0001
0000
,  // measure 21
0101
0000
1000
0100
1000
0000
0010
0000
,  // measure 22
0100
0000
1001
0100
0010
1010
0100
0100
,  // measure 23
1001
0000
0001
1000
0010
0000
0100
0000
,  // measure 24
1001
0000
0100
0010
1000
0100
0010
0000
,  // measure 25
0002
0000
0103
0020
0000
1030
0100
1000
,  // measure 26
0020
0000
0130
0002
0000
1003
0100
0010
,  // measure 27
0001
1000
1000
0010
0100
0010
1000
0001
,  // measure 28
0200
0000
0310
0002
0000
0103
0010
1000
,  // measure 29
0002
0000
1003
0200
0000
1300
0010
0100
,  // measure 30
0002
0000
0103
0010
1000
0001
0100
1000
,  // measure 31
0010
0100
0100
1000
0100
0010
0001
0100
,  // measure 32
2000
0000
3100
0020
0000
0031
0100
0001
,  // measure 33
1000
0001
0100
0001
1000
0100
1000
0010
,  // measure 34
0100
0001
0010
1000
0010
0001
0100
0010
,  // measure 35
1000
0010
0100
0001
1000
0100
1000
0100
,  // measure 36
0010
0100
0010
0001
0100
0001
0110
0010
,  // measure 37
1001
0001
0100
0001
0100
0010
1000
0100
,  // measure 38
1000
0010
0100
0001
1000
0100
0001
0100
,  // measure 39
1000
0010
0100
0001
0010
0100
1000
0010
,  // measure 40
0100
0100
0010
1000
0001
1000
0001
1000
,  // measure 41
0110
0101
0000
0000
2000
0000
3010
0010
,  // measure 42
0110
1010
0000
0000
0200
0000
0310
0001
,  // measure 43
1100
0011
0000
0000
0002
0000
0103
0010
,  // measure 44
1001
0101
0000
0000
0020
0000
1030
0100
,  // measure 45
1100
1010
1000
0010
0100
0001
1000
0100
,  // measure 46
1010
0101
0010
0001
1000
0001
0010
0100
,  // measure 47
0110
1001
0010
0100
0010
0001
0001
0100
,  // measure 48
1000
0100
0010
0100
1000
0100
0010
1000
,  // measure 49
0110
0000
1000
0001
0101
0000
0010
0000
,  // measure 50
0100
0000
1000
0100
1100
0000
0010
0000
,  // measure 51
0100
0000
0001
1000
1001
0000
0010
0000
,  // measure 52
0001
0000
0100
0001
0011
0000
0010
0000
,  // measure 53
0100
0000
1000
0100
1010
0000
1000
0000
,  // measure 54
0100
0000
1000
0001
0110
0000
0001
0000
,  // measure 55
1000
0000
0010
0100
1001
0000
0100
0000
,  // measure 56
0001
0000
0010
0001
0101
0000
1000
0000
,  // measure 57
0001
0010
0001
0100
0010
1000
0100
0010
,  // measure 58
0002
0000
0103
0010
1010
0000
0100
0000
,  // measure 59
1000
0010
0100
0001
1000
0100
0010
0100
,  // measure 60
0020
0000
1030
0100
1100
0000
0001
0000
,  // measure 61
1000
0100
0001
0100
1000
0010
0100
0001
,  // measure 62
0200
0000
0301
0010
1001
0000
0100
0000
,  // measure 63
0010
1000
0001
0100
1000
0100
0001
0010
,  // measure 64
0002
0000
0103
1000
1001
0000
0100
0000
,  // measure 65
1001
0000
0000
1000
0010
0000
0100
0000
0001
0000
0100
0000
0010
0000
1000
0000
,  // measure 66
0100
0000
0000
0010
0001
0000
1000
0000
0001
0000
0100
0000
0100
0000
0010
0000
,  // measure 67
1000
0000
0000
0001
1000
0000
0010
0000
1000
0000
0001
0000
0010
0000
0100
0000
,  // measure 68
1000
0100
0010
0001
0010
0100
1000
0100
,  // measure 69
0010
0001
0010
0100
1000
0100
0010
0001
,  // measure 70
1001
0000
0100
0001
2000
0001
3002
0000
,  // measure 71
0203
0000
0310
2000
0000
3001
0100
0010
,  // measure 72
0020
0000
2030
0200
3000
0310
0000
0001
,  // measure 73
1000
0001
0100
0010
0000
0000
0110
0000
,  // measure 74
1001
0000
0001
0200
0000
0320
0000
1030
,  // measure 75
0100
0001
0100
1000
0000
0010
0010
0010
,  // measure 76
0100
0000
0001
1000
0001
0000
1000
0000
,  // measure 77
0100
0010
0001
1000
0010
0100
0010
0001
,  // measure 78
0010
0200
0010
0010
0310
0000
0000
0000
;
