#TITLE:L'amour dans le lycée;
#SUBTITLE:;
#ARTIST:Studio Bongo Mango feat. Tomoko Kataoka;
#TITLETRANSLIT:L'amour dans le lycee;
#SUBTITLETRANSLIT:;
#ARTISTTRANSLIT:;
#GENRE:;
#CREDIT:;
#MENUCOLOR:;
#NEWMETERSYSTEM:NO;
#BANNER:L'amour dans le lycee-bn.png;
#BACKGROUND:L'amour dans le lycee-bg.png;
#LYRICSPATH:;
#CDTITLE:MixMania 4 CD Title.png;
#MUSIC:L'amour dans le lycee.mp3;
#OFFSET:-0.380;
#SAMPLESTART:77.440;
#SAMPLELENGTH:12.000;
#SELECTABLE:YES;
#LISTSORT:;
#BPMS:0.000=160.000;
#STOPS:;
#BGCHANGES:;
#ATTACKS:;

//---------------dance-single - ----------------
#NOTES:
     dance-single:
     :
     Easy:
     3:
     0.248,0.294,0.097,0.203,0.000:
0000
0000
0000
0000
,
0000
0000
0000
0000
,
0000
0000
0000
0000
,
0000
0000
0000
0000
,
0001
0000
0000
0000
,
1000
0000
0000
0000
,
0100
0000
0000
0000
,
0010
0000
0001
0000
,
0100
0000
0000
0000
,
0010
0000
0000
0000
,
1000
0000
0100
0000
,
0010
0000
0001
0000
,
1001
0000
0001
0000
,
0200
0000
0000
0000
,
0310
0000
1000
0000
,
0200
0000
0000
0000
,
1300
0000
0001
0000
,
0020
0000
0000
0030
,
1001
0001
0100
0000
,
1000
0010
0100
0001
,
0010
0000
0100
0000
,
1000
0000
0001
1000
,
0100
1000
0010
0100
,
0001
0000
0010
0001
,
0100
0000
0010
1000
,
0002
0000
0103
0000
,
1001
0000
0100
1000
,
0001
0000
0010
0001
,
0100
0000
0010
0000
,
1000
0000
0001
0010
,
0010
0000
0000
0001
,
1000
0000
0100
0010
,
0100
0000
0000
0010
,
0001
0000
0100
0000
,
1001
0000
0010
1000
,
0001
0000
0010
0001
,
0001
0000
0010
0000
,
0100
0000
1000
0010
,
0010
0000
0000
0100
,
0001
0000
1000
0001
,
1000
0000
0000
0100
,
1000
0000
0010
0000
,
0110
0000
0010
0000
,
2002
0000
3003
0000
,
0110
0000
0001
0000
,
2002
0000
3003
0000
,
0110
0000
1000
0000
,
2002
0000
3003
0000
,
1000
0000
0100
0000
,
0001
0000
0100
0000
,
1000
0000
0010
0000
,
0100
0010
0020
0000
,
0130
1001
0001
0000
,
1000
0001
0100
0000
,
0010
0000
1000
0100
,
1000
0000
0001
0010
,
0100
0000
0010
0000
,
0001
0000
1000
0100
,
0020
0000
0230
0000
,
2300
0000
3001
0001
,
0100
1001
0010
0000
,
1000
0100
0010
0000
,
0100
0000
0001
0010
,
0001
0000
1000
0100
,
0020
0030
0200
0300
,
1000
0001
0002
0000
,
0023
0030
0002
0003
,
1000
0100
2000
0000
,
3200
0300
0020
0030
,
1000
0001
0100
0100
,
0020
0000
1030
0000
,
1000
0001
0100
0000
,
1000
0000
0010
0000
,
0010
0001
0100
0001
,
0002
0000
0103
0000
,
0010
1000
0100
0000
,
0010
0000
0100
0000
,
1000
0001
1000
0001
,
0100
0000
0100
0000
,
0020
0000
0000
0000
,
0000
0000
0030
0000
;

//---------------dance-single - Copied from----------------
#NOTES:
     dance-single:
     Copied from:
     Beginner:
     1:
     0.103,0.131,0.049,0.065,0.000:
0000
0000
0000
0000
,
0000
0000
0000
0000
,
0000
0000
0000
0000
,
0000
0000
0000
0000
,
0100
0000
0000
0000
,
0100
0000
0000
0000
,
0010
0000
0000
0000
,
0010
0000
0000
0000
,
1000
0000
0000
0000
,
1000
0000
0000
0000
,
0001
0000
0000
0000
,
0001
0000
0000
0000
,
0020
0000
0000
0000
,
0030
0000
0000
0000
,
0200
0000
0000
0000
,
0300
0000
0000
0000
,
2000
0000
0000
0000
,
3000
0000
0000
0000
,
0110
0000
0000
0000
,
0000
0000
0000
0010
,
0010
0000
0000
0000
,
0000
0000
0000
0000
,
1001
0000
0000
0000
,
0000
0000
0000
1000
,
1000
0000
0000
0000
,
0020
0000
0030
0000
,
0010
0000
0000
0000
,
0000
0000
0000
0000
,
1000
0000
0000
0000
,
0000
0000
0000
0100
,
0100
0000
0000
0000
,
0010
0000
0000
0001
,
0001
0000
0000
0000
,
1000
0000
0000
0000
,
1001
0000
0000
0000
,
0000
0000
0000
0000
,
0010
0000
0000
0000
,
0000
0000
0000
0001
,
0001
0000
0000
0000
,
0100
0000
0000
0010
,
0010
0000
0000
0000
,
0100
0000
0000
0000
,
0010
0000
0000
0000
,
1000
0000
0000
0000
,
0100
0000
0000
0000
,
0010
0000
0000
0000
,
0001
0000
0000
0000
,
1000
0000
0000
0000
,
1100
0000
0000
0000
,
0000
0000
0000
0000
,
0001
0000
0000
0000
,
2000
0000
3000
0000
,
0000
1001
0000
0000
,
0010
0000
0000
0000
,
0100
0000
0000
0000
,
0001
0000
0000
0000
,
0010
0000
0000
0000
,
0100
0000
0000
0000
,
1000
0000
1000
0000
,
0001
0000
0001
0000
,
0000
0110
0000
0000
,
0001
0000
0000
0000
,
1000
0000
0000
0000
,
0010
0000
0000
0000
,
0100
0000
0000
0000
,
0010
0000
0010
0000
,
0100
0000
0000
0000
,
0001
0000
0001
0000
,
1000
0000
0000
0000
,
1000
0000
1000
0000
,
0200
0000
0000
0000
,
0300
0000
0000
0010
,
0010
0000
0000
0000
,
0000
0000
0000
0001
,
0002
0000
0000
0000
,
0003
0000
0000
1000
,
1000
0000
0000
0000
,
0000
0000
0000
0100
,
0200
0000
0000
0000
,
0000
0000
0000
0000
,
0000
0000
0300
0000
;

//---------------dance-single - Copied from----------------
#NOTES:
     dance-single:
     Copied from:
     Medium:
     6:
     0.372,0.490,0.154,0.122,0.000:
0000
0000
0000
0000
,
0000
0000
0000
0000
,
0000
0000
0000
0000
,
0000
0000
0000
0000
,
0010
0000
0000
1000
0000
0000
0000
0000
,
0001
0000
0000
0100
0000
0000
0000
0000
,
0001
0000
1000
0000
,
0100
0010
0100
0010
,
0001
0000
0000
1000
0000
0000
0000
0000
,
0100
0000
0000
0010
0000
0000
0000
0000
,
0010
1000
0001
0100
,
0010
0000
1000
0001
0000
0000
0010
0000
,
0101
0001
1000
0001
,
0200
0000
0310
0000
,
1010
1000
0100
0010
,
0200
0000
0310
0000
,
1001
0100
1000
0100
,
0200
0000
0000
1300
,
1001
0000
0100
0001
0000
1000
0000
0000
,
0100
0000
1000
0000
0010
0100
0010
0000
,
1001
0000
0100
0001
0000
0010
0000
0000
,
0001
0000
0100
0000
0010
1000
0010
0000
,
1001
0000
0100
0010
0000
0100
0000
0000
,
0010
0000
1000
0000
0100
1000
0010
0000
,
0110
0000
0100
0010
0000
1000
0000
0000
,
0001
0000
0000
1001
,
0010
0000
0100
0000
0001
1000
0100
0000
,
0001
1000
0001
0010
,
0001
0000
0100
0001
0000
0000
1000
0000
,
0100
0000
1000
0100
0000
0000
0010
0000
,
0200
0010
0001
0310
,
0110
0000
0010
1000
,
0200
1000
0010
1300
,
1100
0000
0000
0000
1000
0001
1000
0000
,
0001
0000
0100
0000
0001
0010
1000
0000
,
0010
0000
0001
0000
0100
0000
0010
1000
,
0010
0000
0100
0000
0000
0001
0000
0000
,
0010
0000
0000
1000
0000
0000
0010
0000
,
0100
0000
0010
0000
0001
1000
0001
0000
,
0100
0010
1000
0010
,
0100
0000
0001
0000
0010
0100
1000
0000
,
0100
0010
0200
0000
,
0310
0100
0010
0001
,
1001
0000
0010
0010
,
0100
0001
1000
0100
,
0110
0000
1000
0001
,
0100
0001
0010
0100
,
1100
0000
0100
1000
,
0010
0000
0000
0100
0000
0000
0001
0000
,
0010
0000
0000
0100
0000
0000
1000
0000
,
0001
0000
0000
1000
0000
0000
0001
0000
,
1000
0001
1000
0000
0020
0000
0230
0000
,
0310
0000
0110
0000
0001
1000
0100
0000
,
1000
0001
0010
0001
,
0100
0000
0001
0010
0000
0100
0000
0100
,
1000
0010
0100
0001
,
1000
0000
0000
0001
0000
0010
0000
0001
,
0000
1000
0100
1000
,
0020
0100
0230
0001
,
0302
0000
0013
0020
0000
0130
0010
0000
,
0110
0000
1001
0000
0001
0100
1000
0000
,
0100
0010
1000
1000
,
0001
0000
1000
0100
0000
0010
0000
0001
,
0100
0001
1000
0010
,
1000
0000
0000
0001
0000
1000
0000
0001
,
0000
0100
0110
0000
,
0010
0000
0100
0010
0000
1000
0000
0001
,
0000
0100
1001
0000
,
1000
0000
0100
0010
0000
0100
0000
0010
,
0001
1000
0001
0100
,
1001
0000
0000
0100
1000
0000
0100
0000
,
0010
0001
1000
0001
,
0020
0001
0100
0031
,
0010
0000
0001
0000
1000
0000
0001
0100
,
0001
0000
1000
0100
0010
0000
0100
0000
,
1000
0010
0100
0001
,
2000
0100
0001
3100
,
1000
0100
0010
0001
,
0010
0000
0100
0010
0001
0000
0100
0000
,
0002
0000
0000
0000
,
0000
0000
0003
0000
;

//---------------dance-single - Copied from----------------
#NOTES:
     dance-single:
     Copied from:
     Hard:
     7:
     0.473,0.490,0.138,0.122,0.008:
0000
0000
0000
0000
,
0000
0000
0000
0000
,
0000
0000
0000
0000
,
0000
0000
0000
0000
,
0001
0100
0001
1000
0000
0000
0000
0000
,
1000
0100
1000
0001
0000
0000
0000
0000
,
0010
0100
0010
0001
0000
0000
0000
0000
,
1000
0100
1000
0000
0001
0100
0001
0000
,
0010
0001
0010
0001
0000
0000
0000
0000
,
1000
0100
1000
0100
0000
0000
0000
0000
,
0010
0100
0010
0000
1000
0001
1000
0000
,
0001
0100
0001
1000
0000
0000
0100
0000
,
0110
0010
1000
0001
,
2002
0003
3010
0000
,
1000
0001
0100
0001
,
0022
0030
0103
0010
,
1001
0000
1000
0000
0001
0000
0100
0001
,
0020
0000
0100
0130
,
1001
0000
1000
0100
0010
0000
0100
0000
,
0010
0000
0001
0000
1000
0001
0010
0100
,
1000
0000
0010
0100
0000
0001
1000
0000
,
0100
0000
1000
0000
0010
0100
0010
0000
,
0100
0000
0001
0010
0000
0100
1000
0000
,
0010
0000
0100
0001
1000
0001
0100
0000
,
0010
0000
1000
0001
0000
1000
0100
0000
,
0010
0000
0000
0000
0000
0000
0000
0000
0000
0100
0000
0000
0001
0000
0000
0000
,
0110
0000
1000
0000
0001
0100
0010
1000
,
0001
0000
0100
0000
0001
0000
0010
0100
,
1000
0000
0001
0100
0000
0001
0000
0000
,
1000
0000
0100
1000
0000
0010
0100
0000
,
0100
0000
0010
0000
1000
0100
0010
0001
,
1000
0001
0020
0230
,
1300
0000
0010
0000
0100
0001
1000
0001
,
0010
0000
0001
0000
0000
0100
0100
0000
,
0010
0000
1000
0000
0001
1000
0100
1000
,
0010
0000
0100
0000
0010
0000
1000
0100
,
0010
0000
0001
0000
1000
0001
1000
0000
,
0010
0000
0100
0010
0100
0000
0010
0000
,
0110
0000
0010
0000
1000
0100
0010
0001
,
0100
0001
0010
0011
,
0001
0000
1000
0000
0001
1000
0001
0100
,
0010
0010
2000
3002
,
0103
0000
0010
1000
0001
1000
0000
0001
,
0100
0001
1000
0010
,
1000
0000
0001
1000
0010
0100
0000
0010
,
1000
0000
0100
0000
0010
0001
1000
0001
,
0100
0000
0100
0010
1000
0001
0000
0010
,
0001
0100
0001
1000
,
0001
0000
0010
0001
0000
0000
0100
0000
,
0001
0000
0010
0001
0000
0000
0100
0000
,
0001
0000
1000
0001
0000
0000
1000
0000
,
0010
0100
0010
0000
1000
0100
0001
0100
,
1100
0000
0011
0000
0010
0100
0001
0000
,
1000
0100
0010
0001
0010
0100
1000
0000
,
0001
0010
0001
0100
0000
0001
0000
1000
,
0001
0000
0010
0001
0100
0001
1000
0100
,
1000
0000
0010
1000
0000
0010
0100
0010
,
0000
0100
0010
0000
0001
0000
1000
0000
,
0200
1300
0020
0130
,
0001
0010
0001
0101
0000
0001
1000
0000
,
1010
0000
1001
0000
0010
0001
0100
0001
,
0000
1000
0000
0010
0100
0000
0010
0000
,
1000
0001
1000
0100
0000
0100
0000
0010
,
0001
0000
0100
0001
0010
0000
0100
0000
,
0010
1000
0001
0100
0001
0010
0100
1000
,
0000
0010
1001
1001
,
0010
0001
0100
0001
1000
0100
1000
0010
,
0000
1000
1001
1001
,
0010
0100
0001
1000
0100
0010
0001
0010
,
0100
1000
0001
0000
0100
0000
0001
0000
,
0010
0000
0001
0100
0100
0000
0010
0000
,
1000
0001
1000
0000
0100
0000
2000
0000
,
3100
0000
0010
0100
0000
0010
0000
0000
,
0001
1000
0001
0000
0100
0000
0001
0001
,
1000
0000
1000
0100
0100
0000
0010
0000
,
0100
1000
0001
0000
0100
0000
0020
0000
,
0130
0000
0001
1000
0000
0001
0000
0000
,
0010
0001
0100
0001
,
0010
0000
0100
0010
0010
0000
0100
0000
,
2000
0000
0000
0002
0000
0000
0000
0000
0000
0000
0000
0000
0000
0000
0000
0000
,
0000
0000
3003
0000
;

//---------------dance-single - Copied from ----------------
#NOTES:
     dance-single:
     Copied from:
     Challenge:
     8:
     0.607,0.651,0.325,0.154,0.065: // measure 1
0000
0000
0000
0000
,  // measure 2
0000
0000
0000
0000
,  // measure 3
0000
0000
0000
0000
,  // measure 4
0000
0000
0000
0000
,  // measure 5
0001
1000
0001
0100
0000
0001
1000
0100
,  // measure 6
0010
0001
0100
0001
0000
1000
0100
1000
,  // measure 7
0010
0000
0100
0001
0000
1000
0000
0001
,  // measure 8
1000
0100
0010
0001
1000
0100
0010
0001
,  // measure 9
1000
0100
1000
0100
0010
0000
0010
0000
,  // measure 10
0001
0010
0001
0010
0100
0000
0100
0000
,  // measure 11
0010
1000
0001
0000
0010
0001
1000
0000
,  // measure 12
0010
1000
0001
0100
0010
1000
0001
0100
,  // measure 13
0001
0000
1000
0000
0100
0000
0000
1000
0000
0000
1000
0000
0100
0000
0010
0000
,  // measure 14
0200
0000
0010
0310
0000
0110
0000
0010
,  // measure 15
1000
0000
0001
0000
0100
0000
0000
0001
0000
0000
0010
0000
0001
0000
0100
0000
,  // measure 16
0002
0103
0110
1001
,  // measure 17
0001
0000
0100
0000
1000
0000
0000
0100
0000
0000
0010
0000
0100
0000
0001
0000
,  // measure 18
0010
0000
0100
0010
0000
0100
0000
1100
,  // measure 19
1010
0000
1000
0100
0010
0001
1000
0000
,  // measure 20
0001
0100
0001
1000
0100
1000
0010
0000
,  // measure 21
0110
0000
0010
1000
0001
0100
0001
0010
,  // measure 22
0001
0100
0010
1000
0010
1000
0001
0000
,  // measure 23
1001
0000
1000
0100
1000
0010
0100
0010
,  // measure 24
0100
0001
0010
0001
1000
0001
1000
0000
,  // measure 25
0011
0000
0001
0100
0001
1000
0010
1000
,  // measure 26
0200
0000
0000
0000
0000
0000
0300
0000
0000
0010
0000
0000
0100
0000
0000
0000
,  // measure 27
0001
0000
1000
0001
1000
0001
0010
0001
,  // measure 28
0100
0000
0010
0000
0100
0100
0010
1000
,  // measure 29
0100
0000
1000
0001
0100
0001
1000
0000
,  // measure 30
0010
0000
1000
0001
1000
0100
1000
0000
,  // measure 31
1010
0000
0001
0000
0100
0001
0010
0100
,  // measure 32
0010
0000
0001
0000
0010
0001
0100
0001
,  // measure 33
1000
0000
0010
1000
0100
1000
0010
0100
,  // measure 34
0100
0000
0000
0000
1001
0000
0000
0010
0000
0000
0100
0000
0100
0000
0000
0000
,  // measure 35
1001
0000
0010
0100
0010
1000
0001
1000
,  // measure 36
0001
0000
0010
0001
0100
0010
1000
0000
,  // measure 37
1001
0000
1001
0000
0100
0110
0000
0001
,  // measure 38
0101
0000
1000
1100
0000
0010
0100
0010
,  // measure 39
1001
0000
0010
0000
0001
0100
0001
0010
,  // measure 40
0001
0000
1000
0000
0100
1000
0010
0000
,  // measure 41
0110
0000
0001
0100
1000
0100
0010
0001
,  // measure 42
0100
0000
0001
0000
0010
0001
0001
0100
,  // measure 43
1001
0000
0100
0001
0010
0100
1000
0100
,  // measure 44
0020
0000
0130
0000
0001
1000
0001
0000
,  // measure 45
0110
0001
0010
0100
1000
0100
0010
0001
,  // measure 46
0200
0001
0310
0000
,  // measure 47
0001
0100
1000
0100
0001
0010
0100
1000
,  // measure 48
0100
0010
0001
1000
0001
0100
0001
0000
,  // measure 49
0010
0000
0001
0000
0100
0000
0001
0000
0000
1000
0000
0000
0010
0000
0000
0000
,  // measure 50
1000
0000
0100
0000
1000
0000
0010
0000
0000
1000
0000
0000
0100
0000
0000
0000
,  // measure 51
0010
0000
0001
0000
0100
0000
0010
0000
0000
0100
0000
0000
0001
0000
0000
0000
,  // measure 52
1000
0001
1000
0001
1000
0000
0100
0000
0100
0000
0010
0000
0010
0000
0001
0000
,  // measure 53
1001
0000
0011
0000
0001
0100
0010
1000
,  // measure 54
0000
1100
0000
0100
0010
0010
0001
0000
,  // measure 55
1000
0001
0010
0002
0000
0103
0010
0100
,  // measure 56
0001
1000
0001
0010
0100
1000
0010
0100
,  // measure 57
0002
0000
0103
2000
0000
3200
0000
0320
,  // measure 58
1000
0030
0100
0000
0001
1000
0001
0000
,  // measure 59
0012
0000
0103
0100
0120
0000
1030
0000
,  // measure 60
2001
0000
3000
0120
0000
1030
0001
0100
,  // measure 61
1001
0000
0101
0000
1000
0001
0010
0002
,  // measure 62
0000
2003
0000
3200
0010
0300
0010
0000
,  // measure 63
0001
1000
0001
0010
0001
0100
0100
0000
,  // measure 64
0010
0100
0010
1000
0001
0010
0001
0100
,  // measure 65
1001
0000
0010
0001
0000
0101
0000
0101
,  // measure 66
0000
0010
0100
0000
1000
1000
1000
0000
,  // measure 67
1100
0000
0100
0010
0000
1010
0000
1010
,  // measure 68
0000
0100
0010
0000
0001
0001
0001
0000
,  // measure 69
1001
0000
0010
0100
0010
0001
1000
0001
,  // measure 70
1000
0100
0100
0000
0001
0100
0100
0000
,  // measure 71
1001
0000
0001
0100
1000
0010
0100
0000
,  // measure 72
0010
0000
0001
1000
0001
0100
0001
0000
,  // measure 73
1001
0000
0001
0010
1000
0010
0001
0000
,  // measure 74
0100
0000
0010
0100
0010
1000
0100
0100
,  // measure 75
0110
0000
0010
0001
0001
0000
1000
0000
,  // measure 76
0100
0001
0000
1000
0100
0010
0100
0100
,  // measure 77
1100
0000
0100
0010
0000
0001
1000
0000
,  // measure 78
0001
0000
0010
0001
0000
1000
0001
1000
,  // measure 79
0002
0000
0100
0100
0200
0000
0000
0303
,  // measure 80
0001
0000
0000
0000
0000
0000
0000
0000
0000
1000
0000
0000
0000
0000
0000
0000
0000
0000
0000
0001
0000
0000
0000
0000
0000
0000
0000
0000
0000
1000
0000
0000
0000
0000
0000
0000
0000
0000
0000
0001
0000
0000
0000
0000
0000
0000
0000
0000
,  // measure 81
0000
1000
0000
0000
0000
0000
0000
0000
0000
0000
0000
0001
0000
0000
0000
0000
0000
0000
0000
0000
0000
0000
0000
0000
0000
0000
0000
0000
0000
0000
0000
0000
0000
0000
0000
0000
0000
0000
0000
0000
0000
0000
0000
0000
0000
0000
0000
0000
;
