#TITLE:Infinity of Our Love;
#SUBTITLE:;
#ARTIST:猫叉Master feat. JESSY;
#TITLETRANSLIT:;
#SUBTITLETRANSLIT:;
#ARTISTTRANSLIT:Nekomata Master feat. JESSY;
#GENRE:;
#CREDIT:;
#MENUCOLOR:;
#NEWMETERSYSTEM:NO;
#BANNER:Infinity of Our Love-bn.png;
#BACKGROUND:Infinity of Our Love-bg.png;
#LYRICSPATH:;
#CDTITLE:MixMania 4 CD Title.png;
#MUSIC:Infinity of Our Love.mp3;
#OFFSET:-5.560;
#SAMPLESTART:91.340;
#SAMPLELENGTH:12.000;
#SELECTABLE:YES;
#LISTSORT:;
#BPMS:0.000=114.000;
#STOPS:;
#BGCHANGES:;
#ATTACKS:;

//---------------dance-single - ----------------
#NOTES:
     dance-single:
     :
     Easy:
     3:
     0.186,0.311,0.044,0.116,0.000:
0000
0000
0000
0000
,
0000
0000
0001
0000
,
0001
0000
1000
0000
,
2000
0000
3100
0000
,
0010
0000
0001
0000
,
0100
0000
0010
0000
,
1000
0000
0010
0000
,
0200
0000
0000
0310
,
1001
0000
0001
0000
,
0100
1000
0100
0010
,
1000
0000
0100
0000
,
0010
0001
0002
0013
,
0200
0000
0010
0000
,
1300
0100
0010
0001
,
1000
0000
0010
0000
,
0100
0001
0100
0000
,
0010
0000
1000
0000
,
0100
1000
0100
0000
,
0001
0000
0010
0000
,
0001
0100
0010
1000
,
0100
0000
1000
0000
,
0001
1000
0001
1000
,
0010
0000
0100
0000
,
1000
0100
0010
0001
,
1001
0000
0010
0000
,
0001
0000
1000
0000
,
0100
1000
0010
0100
,
0100
0000
0010
0000
,
1000
0000
0001
0000
,
0010
0100
0010
0000
,
0001
0000
1000
0000
,
0010
0100
0010
1000
,
0001
0000
0001
0000
,
0001
0000
0001
0000
,
1000
0000
1000
0000
,
1000
0000
1000
0000
,
0100
0000
0010
0000
,
0100
0000
0010
0000
,
0001
0000
1000
0000
,
0010
0000
0100
0000
,
0002
0000
2000
3003
,
0110
0010
1000
0100
,
0010
0000
0001
0000
,
0100
0010
1000
0001
,
0100
0000
0010
0000
,
1000
0100
1000
0010
,
1000
0000
0100
0000
,
0010
0100
2000
0000
,
3001
0010
0100
1000
,
0001
0100
0001
1000
,
0001
0000
0100
0000
,
0010
1000
0010
0100
,
0010
0000
0001
0000
,
1000
0100
1000
0001
,
1000
0000
0100
0000
,
0010
0001
0200
0000
,
0310
1000
0001
0100
,
2002
3003
0220
0330
,
2002
3003
1000
0100
,
0020
0000
0000
0000
,
0230
0000
1000
0000
,
1300
0000
0000
0000
;

//---------------dance-single - Copied from----------------
#NOTES:
     dance-single:
     Copied from:
     Beginner:
     2:
     0.113,0.222,0.087,0.102,0.000:
0000
0000
0000
0000
,
0000
0000
1000
0000
,
0000
0000
0100
0000
,
0000
0000
1000
0000
,
0000
0000
0001
0000
,
0000
0000
0010
0000
,
0000
0000
0100
0000
,
2000
0000
3000
0000
,
1001
0000
0000
0000
,
0010
0000
0010
0000
,
1000
0000
0000
0000
,
0100
0000
0000
0000
,
0010
0000
0000
0000
,
0001
0000
1000
0000
,
0001
0000
0000
0000
,
0001
0000
0001
0000
,
1000
0000
0000
0000
,
0100
0000
0000
0000
,
0010
0000
0000
0000
,
0010
0000
1000
0000
,
0001
0000
0000
0000
,
0100
0000
0000
0000
,
0100
0000
0010
0000
,
1000
0000
0000
0000
,
0100
0000
0000
0000
,
0001
0000
0000
0000
,
0010
0000
0010
0000
,
0001
0000
0000
0000
,
0100
0000
0000
0000
,
1000
0000
0000
0000
,
0100
0000
0010
0000
,
0001
0000
0000
0000
,
2002
0000
3003
0000
,
0220
0000
0330
0000
,
0220
0000
0330
0000
,
2002
0000
3003
0000
,
0001
0000
0100
0000
,
0010
0000
1000
0000
,
0020
0000
0000
0030
,
0010
0000
1000
0000
,
2002
0000
3003
0000
,
0110
0000
0001
0000
,
1000
0000
0001
0000
,
0110
0000
0001
0000
,
1000
0000
0000
0000
,
1001
0000
0100
0000
,
0010
0000
0000
0000
,
0010
0000
0001
0000
,
0000
0000
1000
0000
,
1001
0000
0001
0000
,
0100
0000
0000
0000
,
1001
0000
0100
0000
,
0100
0000
0000
0000
,
1001
0000
1000
0000
,
0010
0000
0100
0000
,
0001
0000
0010
0000
,
0000
0000
0100
0000
,
1000
0000
0100
0000
,
0010
0000
0001
0000
,
2000
0000
3000
0000
,
0002
0000
0003
0000
,
0010
0000
0000
0000
;

//---------------dance-single - Copied from----------------
#NOTES:
     dance-single:
     Copied from:
     Medium:
     5:
     0.317,0.333,0.175,0.167,0.000:
0000
0000
0000
0000
,
0000
0000
1000
1000
,
0001
0001
1000
0001
,
0020
0031
0101
0001
,
1000
0010
0100
0001
,
0010
0100
1000
0010
,
0100
0010
1000
0100
,
2000
0000
0100
3100
,
1001
0010
0001
0100
,
0001
0000
0010
0000
0100
0000
1000
0010
,
0100
0001
1000
0001
,
0000
0100
0010
1000
0000
0100
0100
0000
,
1001
0010
0100
0010
,
1000
0000
0100
0000
0010
0000
0001
1000
,
0001
0100
0010
1000
,
0100
0001
1000
0200
0000
0000
1300
0000
,
1001
0100
0001
0010
,
0100
1000
0001
0100
,
0010
1000
0100
0010
,
0100
0010
0001
1000
,
0001
0100
0010
0000
0100
0000
0100
0000
,
0010
1000
0100
0000
1000
0000
1000
0000
,
0100
0010
0001
1000
,
0010
0100
0020
0000
0100
0000
1030
0000
,
1001
0100
0001
1000
,
0100
0000
0010
0001
1000
0000
1001
0000
,
0100
0000
0010
0000
0100
1000
0010
0000
,
0100
0001
0010
0000
0100
0000
0010
0000
,
0001
0100
1000
0100
,
0010
0000
0100
0000
0010
1000
0001
0000
,
0100
0001
0010
0100
,
0010
0010
0001
0000
1000
0000
0100
0000
,
2010
0100
0001
3100
,
0012
0100
0100
1003
,
2001
0100
0010
3100
,
0120
1000
0001
1030
,
2001
0100
0010
3001
,
1002
0010
0100
1003
,
0220
0300
2000
0030
,
0200
3000
0020
0300
,
0031
0000
0010
0000
0100
0000
1000
0001
,
0110
0000
0001
0000
0100
0000
0001
1000
,
0100
0000
0100
0000
0100
0000
0010
0100
,
1001
0010
0001
0100
,
0010
1000
0001
0010
0000
0001
0000
0000
,
0100
0000
0010
0000
0100
0000
0010
1000
,
0001
0000
0010
0001
1000
0000
0001
0000
,
0200
0000
0310
1000
0100
0000
0010
0000
,
0100
0000
1001
0000
1001
0000
0010
0100
,
1001
0000
0100
0000
1001
0000
0010
0001
,
0100
1000
0100
0010
,
1001
0000
0100
0010
1001
0000
0100
0000
,
0001
0100
1000
0100
0001
0000
0010
0000
,
0200
0000
1300
0000
0200
0000
0310
0001
,
1000
0000
0100
1000
0010
0000
0100
0000
,
0001
0000
0100
0010
1000
0000
1100
0000
,
0001
0200
0302
0023
,
0130
0010
0101
1000
,
0110
0001
0001
1000
,
2000
0000
0000
0000
0000
0000
0000
0100
,
3200
0000
1000
1000
,
0310
0000
0000
0000
;

//---------------dance-single - Copied from----------------
#NOTES:
     dance-single:
     Copied from:
     Hard:
     6:
     0.415,0.377,0.277,0.167,0.011:
0000
0000
0000
0000
,
0000
0000
0000
0001
0011
0000
1000
0000
,
0100
1000
0010
0100
,
0001
0000
0010
0100
1001
0000
0100
0000
,
1000
0010
0100
0001
,
1000
0000
0100
0010
0011
0000
0100
0000
,
0001
0000
0000
0000
1000
0000
0000
0000
0001
0000
0000
0000
1000
0100
0000
0020
,
0000
0000
0000
0000
0030
0000
0000
0000
0001
0000
0000
1000
0100
0000
0000
0000
,
1001
0000
0001
0000
0100
0000
0001
1000
,
1100
0000
0110
0000
0001
0100
0010
1000
,
0100
0010
0001
1000
,
1100
0000
0110
0000
1000
0100
0020
0000
,
1030
0000
0100
0000
0010
0001
0100
0000
,
0101
0000
0110
0000
1000
0100
1000
0001
,
0010
0000
0001
0000
0100
0000
0010
1000
,
0100
1000
0001
0020
0000
0000
0031
0000
,
0101
0100
0010
1000
0001
0100
0001
0000
,
1000
0100
0010
0001
0010
0100
1000
0000
,
0010
0100
0001
1000
0001
0100
1000
0100
,
0010
1000
0001
0000
0101
0000
0101
0000
,
1000
0100
0010
0100
1000
0000
0001
0000
,
0001
0010
0100
0010
0001
1000
0100
0000
,
0010
0000
1000
0000
0001
0100
0010
1000
,
0100
0001
0100
0000
1100
0000
0011
0000
,
1001
0010
0100
0010
1000
0100
0010
0000
,
0001
0100
1000
0100
0001
0010
1000
0000
,
0010
0001
0100
0010
1000
0100
0010
0001
,
1000
0100
1000
0000
0010
0000
0100
0000
,
0001
0100
0010
1000
0001
0001
0000
0000
,
0100
0001
0010
0100
0010
0001
1000
0000
,
1000
0100
0100
1000
0010
0100
0010
0100
,
1000
0100
0010
0000
1000
0000
0001
0000
,
1001
0000
0010
0000
0100
0100
0010
0000
,
1001
0000
0010
0000
0100
0100
0001
0010
,
1001
0000
0100
0000
1000
1000
0001
0000
,
0110
0000
0001
0010
0100
1000
0100
0010
,
1001
0000
0010
0000
0100
0001
1000
0000
,
0110
0000
1000
0100
0010
0001
1000
0100
,
1001
0100
1000
0001
,
0100
0101
0100
1100
,
0020
0000
0100
0000
0130
0000
1000
0100
,
1001
0010
0001
0100
0010
0000
1000
0100
,
0020
0000
0230
1000
2300
0000
3002
0000
,
0103
0000
0010
1000
0001
0000
0010
0100
,
0010
0001
1000
0200
0000
1300
0010
0000
,
1001
0000
0100
0001
0010
0000
0100
1000
,
0010
0100
0010
1000
0200
0000
0310
0001
,
1001
0000
0010
0100
1001
0000
0010
0000
,
0001
0100
0020
0000
2030
0000
3100
0001
,
1010
0000
0100
0000
1010
0000
1000
0100
,
0020
0000
1030
0010
0001
0100
0010
0000
,
0101
0000
0010
1000
0101
0000
0010
0001
,
0100
0100
0001
0010
0100
2000
0000
3010
,
0100
0000
0010
1000
0002
0000
0013
0001
,
0100
0010
1000
0100
0100
0010
0200
0000
,
1300
0010
0100
0001
2000
0000
0010
0000
,
3100
0000
0011
0000
0110
0000
1100
1000
,
0002
0000
0103
0010
2000
0000
3100
0010
,
0002
0000
0103
0010
0200
0000
1300
0001
,
0002
0000
0000
0000
0000
0000
0000
0010
,
2003
0000
0000
0000
3001
0100
0110
0000
,
1001
0000
0000
0000
;

//---------------dance-single - Copied from----------------
#NOTES:
     dance-single:
     Copied from:
     Challenge:
     8:
     0.514,0.488,0.233,0.182,0.302: // measure 1
0000
0000
0000
0000
,  // measure 2
0000
0000
0000
0000
0000
0100
0010
0100
0010
0000
1000
0000
0000
0001
0000
0100
,  // measure 3
0000
0000
0000
0000
0010
0000
0000
0000
1000
0000
0001
0000
0000
1000
0000
0002
,  // measure 4
0000
0000
0000
0000
0013
0000
1000
0000
0101
0000
1000
0000
0000
0100
0000
0010
,  // measure 5
0000
0000
0000
0000
0100
0000
0000
0000
1000
0000
0001
0000
0000
0010
0000
0100
,  // measure 6
0000
0000
0000
0000
0010
0000
0001
1000
0001
0000
0100
0000
0000
0100
0000
0010
,  // measure 7
0000
0000
0000
0000
1000
0000
0000
0000
0100
0000
0010
0000
0000
0002
0000
2000
,  // measure 8
0000
0000
0000
0000
0000
0000
0000
0000
3003
0000
0000
1000
0010
0000
0100
0000
,  // measure 9
1001
0000
0001
0000
0000
0100
0000
0001
0000
1000
0000
0100
1000
0000
0010
0000
,  // measure 10
0100
0001
0001
0100
0010
1000
1000
0010
,  // measure 11
0110
0000
0001
0000
0000
1000
0000
0100
0000
0010
0000
0001
1000
0000
0001
0000
,  // measure 12
0010
0100
0010
0002
0000
1000
0103
0000
,  // measure 13
0110
0000
0001
0000
0000
1000
0000
0001
0000
0010
0000
0001
0100
0000
0010
0000
,  // measure 14
1000
0100
0010
0100
0100
1000
0001
0001
,  // measure 15
0110
0000
0010
0000
0000
1000
0000
0001
0000
0010
0000
0100
0010
0000
1000
0000
,  // measure 16
0100
0000
0010
0000
0100
0000
0100
0000
1000
0001
0000
0100
0001
0000
1000
0000
,  // measure 17
0101
1000
0100
0010
0100
1000
0001
0000
,  // measure 18
1010
1000
0100
0010
0001
0010
0100
0000
,  // measure 19
0110
0001
1000
0001
0010
0100
1000
0100
,  // measure 20
0020
0001
0031
0000
0010
0100
1000
0100
,  // measure 21
1001
0010
0010
0100
1000
0100
0010
0000
,  // measure 22
0011
0100
1000
0100
0001
0100
1000
0000
,  // measure 23
0101
0001
1000
0100
1000
0001
0100
0001
,  // measure 24
0020
0100
0130
0000
0001
0100
1000
0100
,  // measure 25
1001
0010
0001
0100
0010
1000
0001
0100
,  // measure 26
0010
1000
0100
0010
0100
1000
0001
0100
,  // measure 27
1000
0100
0010
0100
0001
0010
0100
1000
,  // measure 28
0001
0001
0010
0010
0100
1000
0010
0100
,  // measure 29
1001
0010
0100
1000
0100
0001
0010
0001
,  // measure 30
0100
1000
0010
0100
0001
0010
0001
0100
,  // measure 31
0010
1000
0001
0010
0001
0100
0100
0010
,  // measure 32
1000
1000
0100
1000
0010
0010
0100
0001
,  // measure 33
1001
0000
0000
0000
0010
0000
0001
0000
0100
0000
0010
1000
0000
0001
0000
0100
,  // measure 34
0000
0000
0010
0000
0010
0000
1000
0000
0001
0000
0010
0000
0001
0100
0000
0001
,  // measure 35
0000
0000
1000
0000
0100
0000
0010
0000
0100
0000
0010
0001
0000
1000
0000
0100
,  // measure 36
0000
1000
1000
0100
0010
0001
0010
0100
,  // measure 37
1001
0000
0000
0000
0010
0000
0100
0000
0010
0000
1000
0000
0100
0000
0010
0100
,  // measure 38
0000
1000
1000
0001
0010
0010
0100
0100
,  // measure 39
0020
0000
0001
0000
0100
0100
1030
0000
,  // measure 40
0200
0000
1000
0000
0010
0010
0301
0000
,  // measure 41
1001
0000
0000
0000
0110
0000
0000
0000
1001
0000
0000
1000
0100
0000
0010
0000
,  // measure 42
1001
0000
0100
0000
0010
1000
0000
0001
0000
0100
0000
0001
0010
0000
0100
0000
,  // measure 43
1000
0000
0010
0100
0010
0000
1000
0001
1000
0000
0001
0010
0001
0000
0000
0000
,  // measure 44
0110
0000
1000
0000
0100
1000
0000
0010
0000
0100
0000
0001
0010
0000
0001
0000
,  // measure 45
1000
0100
0100
0020
0000
0230
1000
1300
,  // measure 46
1010
0000
0010
0000
0100
0001
0000
0010
0000
0100
0000
0010
0001
0000
1000
0000
,  // measure 47
0100
0100
0010
0100
1000
0001
0010
0100
,  // measure 48
0110
0000
0001
1000
1001
0000
0100
0000
,  // measure 49
0002
0000
0000
0000
0023
0000
0000
0000
0031
1000
0000
0001
0010
0000
0100
0000
,  // measure 50
1001
0000
0100
0000
0010
1000
0000
0100
0000
0010
0000
0100
0010
0000
0001
0000
,  // measure 51
0100
0000
0001
0100
0001
0000
1000
0010
1000
0000
0001
1000
0001
0000
1000
0000
,  // measure 52
1001
0000
0100
0000
0010
0001
0000
1000
0000
1000
0000
0100
0010
0000
0100
0000
,  // measure 53
1000
0001
0001
0020
0100
0130
1001
0000
,  // measure 54
0110
0000
1000
0000
0001
0010
0000
0001
0000
0100
0000
0100
0010
0000
1000
0000
,  // measure 55
0200
0000
0320
0001
0032
0000
0103
0000
,  // measure 56
1001
0010
0100
0010
0002
0100
0103
0000
,  // measure 57
2000
0000
0000
0000
3200
0000
0000
0000
0310
0100
0000
1000
0100
0000
0010
0000
,  // measure 58
2001
0000
3100
0010
1002
0000
0103
0010
,  // measure 59
2001
0000
0000
0000
3100
0000
0010
0000
0001
0100
0000
0010
1000
0000
0001
0000
,  // measure 60
0022
0000
0000
0000
0000
0000
0000
0000
0033
0000
0000
0000
0000
0000
0010
0100
,  // measure 61
2000
0000
0000
0000
3000
0000
0000
0000
0010
0100
0000
0001
1000
0000
0001
0000
,  // measure 62
0100
0000
0000
0000
;
