#TITLE:HAGOROMO;
#SUBTITLE:;
#ARTIST:cheetah KAMATA;
#TITLETRANSLIT:;
#SUBTITLETRANSLIT:;
#ARTISTTRANSLIT:;
#GENRE:;
#CREDIT:;
#MENUCOLOR:;
#NEWMETERSYSTEM:NO;
#BANNER:HAGOROMO-bn.png;
#BACKGROUND:HAGOROMO-bg.png;
#LYRICSPATH:;
#CDTITLE:MixMania 4 CD Title.png;
#MUSIC:HAGOROMO.mp3;
#OFFSET:-0.420;
#SAMPLESTART:88.340;
#SAMPLELENGTH:12.000;
#SELECTABLE:YES;
#LISTSORT:;
#BPMS:0.000=180.000;
#STOPS:;
#BGCHANGES:;
#ATTACKS:;

//---------------dance-single - ----------------
#NOTES:
     dance-single:
     :
     Easy:
     4:
     0.357,0.507,0.122,0.175,0.000:
0000
0000
0000
0000
,
0000
0000
0000
0000
,
0000
0000
0000
0000
,
0000
0000
0000
0000
,
0001
0100
0000
0001
,
1000
0100
0000
1000
,
0010
0100
0000
0010
,
1000
0100
0010
0001
,
1001
0000
0010
0000
,
0001
0000
0100
0010
,
1001
0000
0100
0000
,
1000
0000
0010
0100
,
1001
0000
0010
0000
,
0001
0000
1000
0001
,
0101
0000
1000
0000
,
1100
0000
1000
0010
,
0100
0001
0100
1000
,
0100
0010
1000
0000
,
0100
0010
0001
1000
,
0001
0100
0010
0000
,
0001
0010
0001
1000
,
0100
1000
0010
0000
,
0100
0010
0100
0010
,
1000
0001
1000
0001
,
0200
0310
0002
1003
,
0200
1300
0020
0030
,
0200
0301
2000
3010
,
0200
0310
2000
3000
,
0002
0013
0200
1300
,
0020
0130
0002
0003
,
2000
3100
0200
0310
,
0020
0031
0200
0310
,
1001
0000
0010
0001
,
0100
0000
0010
0000
,
1000
0000
0100
1000
,
0010
0000
0100
0000
,
0110
0000
0001
0100
,
0001
0000
2000
3000
,
0010
0000
0010
0100
,
0010
0000
1000
0001
,
0101
0000
0010
0000
,
0010
0000
0010
0001
,
1000
0000
1000
0000
,
1000
0000
1000
0001
,
0100
0000
0100
0000
,
0100
0000
0100
0010
,
0001
0000
0001
0000
,
0001
0000
0001
1000
,
0010
0100
0000
0100
,
0010
1000
0000
1000
,
0001
0100
0000
0010
,
0001
0100
0000
0010
,
1000
0001
0000
0001
,
0100
0001
1000
0100
,
1000
0010
0000
0100
,
0001
1000
0001
0010
,
1001
0001
1000
0000
,
0100
1000
0001
0000
,
0010
0001
0100
0000
,
0010
0100
0020
0030
,
0010
1000
0100
0000
,
0010
0001
0100
0000
,
0010
1000
0001
0000
,
0100
0001
0010
0100
,
1001
0000
1001
0000
,
1001
0000
1001
0000
,
0001
0100
1000
0100
,
0001
0010
0100
1000
,
0010
0100
0001
1000
,
0010
0100
0001
1000
,
0001
0010
1000
0010
,
0001
0100
0010
1000
,
0001
1000
0001
1000
,
0100
0010
0001
0100
,
0001
0010
0100
0010
,
0001
0010
0100
1000
,
0100
0010
0100
1000
,
0001
0100
0010
0100
,
1000
0100
0010
0100
,
0010
0001
1000
0001
,
1000
0010
1000
0010
,
0100
0001
0100
0001
,
2020
0000
0000
3030
;

//---------------dance-single - Copied from----------------
#NOTES:
     dance-single:
     Copied from:
     Beginner:
     2:
     0.152,0.215,0.017,0.052,0.000:
0000
0000
0000
0000
,
0000
0000
0000
0000
,
0000
0000
0000
0000
,
0000
0000
0000
0000
,
0000
0001
0000
0000
,
0000
0000
0000
0000
,
0000
1000
0000
0100
,
0000
0100
0000
0010
,
0000
0010
0000
1000
,
0000
0100
0000
0000
,
0000
0001
0000
0010
,
0000
0100
0000
0000
,
0000
1000
0000
0001
,
0000
0100
0000
0000
,
0000
0010
0000
0010
,
0000
1000
0000
0000
,
0100
0000
0100
0000
,
0010
0000
0010
0000
,
0001
0000
0001
0000
,
2000
0000
3000
0000
,
1000
0000
1000
0000
,
0010
0000
0010
0000
,
0100
0000
0100
0000
,
0002
0000
0003
0000
,
1001
0000
0000
0000
,
0010
0000
0000
0000
,
0100
0000
0000
0000
,
0010
0000
0000
0000
,
1000
0000
0000
0000
,
0001
0000
0000
0000
,
0010
0000
0010
0000
,
0100
0000
0100
0000
,
2000
0000
3000
0000
,
0002
0000
0003
0000
,
0100
0000
0100
0000
,
0010
0000
0000
0000
,
0020
0000
0030
0000
,
2000
0000
3000
0000
,
0100
0000
0100
0000
,
0010
0000
0010
0000
,
0001
0000
0001
0000
,
0001
0000
0001
0000
,
1000
0000
1000
0000
,
1000
0000
1000
0000
,
0100
0000
0100
0000
,
0100
0000
0100
0000
,
0010
0000
0010
0000
,
0010
0000
0010
0000
,
0000
0001
0000
0000
,
0000
0000
0000
0000
,
0000
0100
0000
0000
,
0000
0000
0000
0000
,
0000
0010
0000
0000
,
1000
0000
0000
0000
,
0000
0100
0000
0000
,
0010
0000
0100
0000
,
0010
0000
0000
0000
,
0001
0000
0000
0000
,
1000
0000
0000
0000
,
0100
0000
0010
0000
,
0100
0000
0000
0000
,
0010
0000
0000
0000
,
1000
0000
0000
0000
,
0001
0000
0100
0000
,
0001
0000
0001
0000
,
1000
0000
1000
0000
,
0110
0000
0000
0000
,
0100
0000
0001
0000
,
0100
0000
0000
0000
,
0010
0000
1000
0000
,
0100
0000
0000
0000
,
0010
0000
0100
0000
,
0010
0000
0000
0000
,
0001
0000
1000
0000
,
0001
0000
0000
0000
,
0100
0000
0010
0000
,
1000
0000
0000
0000
,
0100
0000
0010
0000
,
0100
0000
0000
0000
,
0010
0000
0001
0000
,
0100
0000
0000
0000
,
0010
0000
1000
0000
,
0001
0000
0000
0000
;

//---------------dance-single - Copied from----------------
#NOTES:
     dance-single:
     Copied from:
     Medium:
     7:
     0.482,0.507,0.184,0.017,0.035:
0000
0000
0000
0000
,
0000
0000
0000
0000
,
0000
0000
0000
0000
,
0000
0000
0000
0000
,
0010
0100
0001
0000
1000
0000
0001
0000
,
0100
1000
0100
0010
,
1000
0100
1000
0000
0001
0100
0001
0000
,
0010
0000
0010
0000
0100
0010
0100
0010
,
0001
1000
0001
0100
,
0001
0000
0010
0100
1000
0000
0100
1000
,
0100
0010
0001
0100
,
0001
0000
1000
0010
0100
0000
0001
1000
,
0001
0100
0001
0010
,
0100
0000
1000
0000
0010
0000
0100
0010
,
0100
0000
0001
1000
0001
0000
0100
0001
,
0010
0100
1000
0001
,
0100
0001
1000
0100
,
0011
0110
1100
0001
,
0100
0010
1000
0001
,
1100
0011
1001
1000
,
0100
0001
0100
1000
,
0101
1001
1010
1000
,
0010
0100
0001
1000
,
0001
0100
0001
0100
0010
1000
0010
0000
,
1100
0100
1000
0010
,
0100
0000
0001
0000
0010
0001
0100
0010
,
1000
0100
1000
0010
,
0100
0000
0001
0000
1000
0001
0100
0010
,
0100
0010
1000
0100
,
1000
0000
0001
0000
0010
0001
0100
0010
,
1000
0001
0100
1000
,
0100
0000
0001
0000
1000
0100
0010
0001
,
0100
0000
0000
0000
0001
0000
0100
0001
,
0000
1000
0100
0000
1000
0000
0000
0000
,
0010
0000
0000
0000
0100
0000
0001
0100
,
0000
0010
1000
0000
0001
0000
0000
0000
,
0100
0000
0000
0000
1000
0000
0100
0010
,
0000
1000
0001
0000
0100
0000
0000
0000
,
0001
0000
0000
0000
0010
0000
0001
0010
,
0000
0010
0100
0000
1000
0000
0001
0000
,
0100
0000
0000
0010
0000
0000
0010
0000
1000
0000
0000
0000
0100
0000
0000
0000
,
0001
0000
0000
0100
0000
0000
0001
0000
1000
0000
0000
0000
0100
0000
0000
0000
,
1000
0000
0000
0100
0000
0000
0010
0000
0001
0000
0000
0000
0100
0000
0000
0000
,
0010
0000
0000
1000
0000
0000
0001
0000
0100
0000
0000
0000
0010
0000
0000
0000
,
1000
0000
0000
0001
0000
0000
0100
0000
0001
0000
0000
0000
0010
0000
0000
0000
,
0001
0000
0000
0100
0000
0000
0010
0000
1000
0000
0000
0000
0100
0000
0000
0000
,
1000
0000
0000
0010
0000
0000
0100
0000
0010
0000
0000
0000
1000
0000
0000
0000
,
0100
0000
0000
0010
0000
0000
0001
0000
0100
0000
0000
0000
1001
0000
0000
0000
,
0100
0001
0010
0000
0100
0000
0010
0000
,
0001
0100
0010
1000
,
0001
1000
0100
0000
1000
0000
0010
0000
,
0100
0001
0010
1000
,
0010
0001
1000
0000
0010
1000
0001
0000
,
0100
0010
0100
0010
1000
0001
1000
0000
,
0001
0100
0010
0000
0010
0000
1000
0000
,
0100
0010
0001
1000
0100
0010
0001
0000
,
1100
0000
0001
0100
,
0101
0000
1000
0010
,
0110
0000
0000
0000
0001
0000
1000
0001
,
0000
0100
0000
0010
0000
1000
0100
0000
,
1100
0010
0110
0000
,
0001
1000
0110
0000
,
1000
0000
0010
0000
0101
0000
0000
0001
,
0000
1000
0000
0100
0000
0010
0001
0000
,
1001
0000
1001
0000
,
0010
0000
0001
0000
0100
0010
1000
0010
,
1000
0100
0010
0001
,
1000
0000
0001
0000
0100
0010
1000
0001
,
0010
0001
0100
0010
,
1000
0000
0001
0000
1000
0100
1000
0010
,
0100
0001
1000
0100
,
0010
0000
0100
0000
0010
0001
1000
0001
,
0010
0100
1000
0001
,
0010
0000
0001
0000
0100
0010
1000
0001
,
1000
0001
0100
0001
,
0010
0000
0100
0000
1000
0010
1000
0100
,
0010
0001
0100
0001
,
1000
0000
0001
0000
0010
0001
0100
0010
,
0100
0001
1000
0001
,
0100
0000
1000
0000
0100
0010
1000
0100
,
0010
0001
0100
0001
,
0010
0000
0001
0000
1000
0001
1000
0000
,
2200
0000
0000
3300
;

//---------------dance-single - Copied from----------------
#NOTES:
     dance-single:
     Copied from:
     Hard:
     9:
     0.672,0.651,0.271,0.227,0.114:
0000
0000
0000
0000
,
0000
0000
0000
0000
,
0000
0000
0000
0000
,
0000
0000
0000
0110
,
0001
1000
0001
0000
0100
0000
0001
0000
,
0010
0100
1000
0000
0010
0000
0100
0000
,
0010
1001
0100
1001
,
0001
0010
0001
0010
0100
1000
0100
1000
,
0010
0100
0001
1000
0100
0010
0000
0001
,
0100
0001
1000
0100
0000
0000
0010
0100
,
0010
0001
0100
0001
1000
0001
0000
0100
,
1000
0010
0100
0001
0000
0000
1000
0000
,
0001
0100
0010
1000
0100
0010
0000
0001
,
0100
0001
0010
0100
0000
0000
1000
0000
,
0010
1000
0001
0100
0001
0010
0000
0010
,
0100
1000
0010
0100
0001
0000
1000
0000
,
0001
0100
0001
1000
,
0001
0100
0010
1000
0100
0010
0001
0000
,
1000
0001
0100
0010
,
1000
0001
0010
0100
0010
0001
1000
0000
,
0001
0100
0010
1000
,
0010
0100
0010
0001
1000
0001
0100
0010
,
1000
1000
0001
0001
,
0010
0001
0100
0010
1000
0010
0100
0010
,
1000
0000
0000
0001
0000
0000
0010
0000
0001
0000
0000
0100
0000
0000
0010
0000
,
1000
0000
0000
0010
0000
0000
0100
0000
0001
0000
0010
0000
0001
0000
0010
0000
,
0001
0000
0000
0100
0000
0000
0010
0000
1000
0000
0000
0100
0000
0000
1000
0000
,
0010
0000
0000
0100
0000
0000
0001
0000
0010
0000
0100
0000
0010
0000
0100
0000
,
0010
0000
0000
0001
0000
0000
1000
0000
0010
0000
0000
0100
0000
0000
0001
0000
,
1000
0000
0000
0010
0000
0000
1000
0000
0001
0000
0010
0000
0100
0000
1000
0000
,
0100
0000
0000
0010
0000
0000
0100
0000
0001
0000
0000
0100
0000
0000
1000
0000
,
0010
0000
0100
0000
0001
0000
1000
0000
0001
0000
0000
1001
0000
0000
0100
0000
,
1000
0200
0000
0310
0002
0000
1003
0020
,
0000
0130
0002
0000
1003
0010
1000
0100
,
0010
0002
0000
0013
2000
0000
3100
0020
,
0000
1030
0002
0000
0103
0010
1000
0001
,
0100
0020
0000
1030
0200
0000
0310
0002
,
0000
1003
0002
0000
0103
0010
1000
0001
,
0100
0010
1000
0001
0100
0001
1000
0100
,
1000
0010
0100
0001
0100
1000
0100
0010
,
0100
0000
0000
0001
0000
0000
0100
0000
0010
0000
0000
1000
0000
0000
0100
0000
,
0010
0000
0000
0100
0000
0000
1000
0000
0001
0000
0000
0100
0000
0000
0001
0000
,
0010
0000
0000
0100
0000
0000
0010
0000
0001
0000
0000
1000
0000
0000
0010
0000
,
0100
0000
0000
0001
0000
0000
0100
0000
1000
0000
0000
0010
0000
0000
0100
0000
,
0010
0000
0000
0001
0000
0000
1000
0000
0010
0000
0000
0100
0000
0000
0001
0000
,
1000
0000
0000
0001
0000
0000
0100
0000
0001
0000
0000
0010
0000
0000
0100
0000
,
1000
0000
0000
0001
0000
0000
1000
0000
0100
0000
0000
0010
0000
0000
0100
0000
,
1000
0100
1000
0100
0010
0001
0010
0001
,
1001
0100
0010
0000
1000
0000
0001
0000
,
0100
0001
0010
0100
1000
0010
0100
0000
,
0001
0100
0010
0000
1000
0000
0001
0000
,
0100
0001
0010
0100
1000
0010
0100
0000
,
1001
1000
1001
0001
,
0010
0100
0010
0100
0010
0001
0010
0001
,
0110
0010
0110
0100
,
0100
1000
0100
1000
0001
0100
0001
0100
,
0001
0010
0011
0000
2200
0000
3300
0000
,
0010
0100
0110
0000
2002
0000
3003
0000
,
0010
0001
1001
0000
2200
0000
3300
0000
,
0010
0110
0000
0101
0000
2020
0000
3030
,
1000
0001
0110
0000
0022
0000
0033
0000
,
0001
1000
0110
0000
2200
0000
3300
0000
,
1000
0001
0100
0001
1000
0100
1000
0010
,
0000
0110
0000
1001
0000
0100
0001
1000
,
1001
0000
0110
0000
,
0001
0000
0100
0000
1000
0100
0010
1000
,
0100
0010
0001
1000
0001
0100
0010
1000
,
0001
0100
0001
0010
0100
0000
0100
0000
,
1000
0010
0100
0001
1000
0001
0100
0010
,
1000
0001
0100
0001
1000
0000
0001
0000
,
0100
0001
0010
0100
1000
0010
0100
0001
,
1000
0001
0100
0001
0010
0000
0010
0000
,
0001
1000
0100
1000
0010
0100
0001
1000
,
0001
0010
0100
0010
0100
0000
1001
0000
,
1000
0100
1000
0010
0100
0001
1000
0001
,
0010
1000
0100
0001
0010
0000
1001
0000
,
0010
0001
1000
0100
1000
0010
0100
0001
,
0010
1000
0010
0001
0100
0000
1010
0000
,
0100
1000
0010
0100
0001
0100
1000
0100
,
0001
0100
0001
1000
0010
0000
0011
0000
,
0001
0010
0100
0010
1000
0010
0001
0100
,
0010
1000
0001
0010
0100
1000
0100
0010
,
2002
0000
0000
3003
;

//---------------dance-single - Copied from Copied from----------------
#NOTES:
     dance-single:
     Copied from Copied from:
     Challenge:
     9:
     0.747,0.688,0.542,0.254,0.131: // measure 1
0000
0000
0000
0000
,  // measure 2
0000
0000
0000
0000
,  // measure 3
0000
0000
0000
0000
,  // measure 4
0000
0000
0000
0110
,  // measure 5
0001
0010
0001
1000
0200
0000
1300
0000
,  // measure 6
0001
0100
0001
0000
0100
0000
1001
0000
,  // measure 7
0010
1100
1000
0110
,  // measure 8
0010
0001
0010
1000
0001
1000
0001
0100
,  // measure 9
0010
1000
0001
0010
0001
0100
0020
1000
,  // measure 10
0130
1000
0010
2000
0001
0001
3001
0000
,  // measure 11
0010
1000
0100
1000
0010
0100
0002
0100
,  // measure 12
0013
1000
0001
0002
0010
0010
0013
0000
,  // measure 13
0001
0100
0010
0010
0100
0100
2000
0001
,  // measure 14
3100
0001
1000
0020
0100
0100
0130
0000
,  // measure 15
0001
1000
0100
0010
0100
0010
0200
0001
,  // measure 16
0301
0100
0001
2000
0010
0010
3010
0000
,  // measure 17
1001
0010
2002
3003
,  // measure 18
0001
1000
0001
0100
0010
0100
0001
1000
,  // measure 19
0110
0010
0220
0330
,  // measure 20
0001
0100
0001
1000
0001
0100
0010
1000
,  // measure 21
0011
0001
2020
3030
,  // measure 22
0100
0010
1000
0001
0010
0001
1000
0010
,  // measure 23
1100
0100
0101
0011
,  // measure 24
1000
0100
0010
0001
1000
0100
0001
0010
,  // measure 25
1000
0000
0000
0010
0000
0000
0001
0000
0010
0000
0000
1000
0000
0000
0001
0000
,  // measure 26
0010
0000
0000
0100
0000
0000
0010
0000
0001
0000
1000
0000
0100
0000
0010
0000
,  // measure 27
1000
0000
0000
0001
0000
0000
0010
0000
0001
0000
0000
1000
0000
0000
1000
0000
,  // measure 28
0001
0000
0000
1000
0000
0000
0010
0000
0001
0000
0100
0000
1000
0000
0100
0000
,  // measure 29
0010
0000
0000
0001
0000
0000
1000
0000
0100
0000
0000
0100
0000
0000
0010
0000
,  // measure 30
0100
0000
0000
1000
0000
0000
0001
0000
0010
0000
1000
0000
0010
0000
0100
0000
,  // measure 31
1000
0000
0000
0100
0000
0000
0010
0000
0100
0000
0000
1000
0000
0000
0001
0000
,  // measure 32
0010
0000
0100
0000
1000
0000
0100
0000
1001
0000
0000
1010
0000
0000
1001
0000
,  // measure 33
0010
0100
0001
1000
0001
0000
0100
0010
,  // measure 34
1000
0001
1000
0000
0110
0000
1001
0000
,  // measure 35
1000
0001
1000
0100
0010
0000
0001
0100
,  // measure 36
0001
0010
0100
0000
0110
0000
1001
0000
,  // measure 37
0001
0010
1000
0100
0001
0000
1000
0100
,  // measure 38
0001
0010
1000
0000
0101
0000
1100
0000
,  // measure 39
0100
1000
0001
1000
0100
0010
0100
1000
,  // measure 40
0001
0100
0010
1000
0001
0100
0001
0010
,  // measure 41
0100
0000
0000
0110
0000
0000
0001
0000
0100
0000
0000
1001
0000
0000
1000
0000
,  // measure 42
0010
0000
0000
1010
0000
0000
0100
0000
0010
0000
0000
1100
0000
0000
0010
0000
,  // measure 43
0001
0000
0000
0101
0000
0000
1000
0000
0100
0000
0000
0110
0000
0000
0001
0000
,  // measure 44
0100
0000
0000
1001
0000
0000
0100
0000
0010
0000
0000
0011
0000
0000
1000
0000
,  // measure 45
0100
0000
0000
0110
0000
0000
1000
0000
0001
0000
0000
1010
0000
0000
0100
0000
,  // measure 46
0010
0000
0000
1100
0000
0000
0001
0000
1000
0000
0000
0101
0000
0000
0010
0000
,  // measure 47
1000
0000
0000
1001
0000
0000
1000
0000
0100
0000
0000
1001
0000
0000
0010
0000
,  // measure 48
1000
0100
0010
0010
0100
1000
0001
0010
,  // measure 49
1001
1000
0001
0000
1000
0000
0001
1000
,  // measure 50
0100
0001
0100
1000
0100
0010
0001
1000
,  // measure 51
0001
1000
0010
0000
1000
0000
0100
0000
,  // measure 52
0001
0010
0001
1000
0100
0001
0100
1000
,  // measure 53
0200
0310
0002
0013
,  // measure 54
0001
0001
0010
0010
0100
0000
1001
0000
,  // measure 55
1100
0100
1001
0001
,  // measure 56
0100
0010
1000
1000
0100
0001
0100
1000
,  // measure 57
0100
0100
1001
0000
2100
0000
3001
0000
,  // measure 58
0001
0100
1100
0000
1002
0000
0103
0000
,  // measure 59
0001
1000
1010
0000
2100
0000
3001
0000
,  // measure 60
0001
0011
0000
1010
0000
1000
0001
1000
,  // measure 61
0100
0100
1100
0000
0102
0000
1003
0000
,  // measure 62
1000
0010
0110
0000
2100
0000
3100
0000
,  // measure 63
0100
0010
0110
0000
1002
0000
0013
1000
,  // measure 64
0000
1100
0000
0101
0000
0010
0001
1000
,  // measure 65
1010
0010
0101
0100
,  // measure 66
1000
0001
0100
0001
1000
0100
0010
0001
,  // measure 67
1001
1000
0100
0010
0100
1000
0001
0010
,  // measure 68
0100
1000
0001
0100
0010
1000
0000
0001
,  // measure 69
0100
0001
1000
0100
0001
0100
0010
0001
,  // measure 70
0100
0000
1000
0000
0100
0000
0010
0000
0010
0000
0000
1000
0000
0000
0001
0000
,  // measure 71
0010
1000
0010
0001
0100
1000
0100
0001
,  // measure 72
0100
0010
0100
0001
0010
1000
0000
0010
,  // measure 73
0001
0100
1000
0010
0100
0001
0010
0001
,  // measure 74
0100
0000
0010
0000
1000
0000
0100
0000
1000
0000
0000
1001
0000
0000
0001
0000
,  // measure 75
0100
0001
1000
0100
1000
0010
0100
0010
,  // measure 76
1000
0001
1000
0001
0010
0002
0000
2003
,  // measure 77
0010
3100
0001
0100
0010
0100
0001
1000
,  // measure 78
0100
0000
1000
0000
0010
0000
0100
0000
0001
0000
0000
0110
0000
0000
0010
0000
,  // measure 79
1000
0001
0100
0001
1000
0100
0010
0100
,  // measure 80
0001
1000
0100
1000
0001
0200
0000
0320
,  // measure 81
0100
1030
0001
0100
0010
0010
1000
0100
,  // measure 82
0001
0000
0100
0000
1000
0000
0001
0000
1000
0000
0000
0100
0000
0000
0010
0000
,  // measure 83
2002
0000
0000
3003
;
