#TITLE:Fly Away to India;
#SUBTITLE:;
#ARTIST:baby weapon feat. Kajil;
#TITLETRANSLIT:;
#SUBTITLETRANSLIT:;
#ARTISTTRANSLIT:;
#GENRE:;
#CREDIT:;
#MENUCOLOR:;
#NEWMETERSYSTEM:NO;
#BANNER:Fly Away to India-bn.png;
#BACKGROUND:Fly Away to India-bg.png;
#LYRICSPATH:;
#CDTITLE:MixMania 4 CD Title.png;
#MUSIC:Fly Away to India.mp3;
#OFFSET:-3.980;
#SAMPLESTART:47.280;
#SAMPLELENGTH:12.000;
#SELECTABLE:YES;
#LISTSORT:;
#BPMS:0.000=133.000;
#STOPS:128.000=0.900
;
#BGCHANGES:;
#ATTACKS:;

//---------------dance-single - ----------------
#NOTES:
     dance-single:
     :
     Easy:
     4:
     0.297,0.370,0.154,0.199,0.000:
0000
0000
0000
0000
,
0000
0000
0000
0000
,
0000
0000
0000
0000
,
1000
0001
0100
0001
,
1001
0100
0000
0100
,
0010
0010
0000
0010
,
0001
1000
0000
1000
,
0001
0100
0002
0000
,
0103
0010
1000
0100
,
0001
0100
1000
0100
,
0020
1000
0000
1030
,
0200
0001
0000
0301
,
0010
0001
1000
0100
,
0010
0100
1000
0001
,
0020
0001
0000
0031
,
0200
1000
0000
1300
,
0010
0100
0001
1000
,
0001
0010
1000
0010
,
0200
0000
0302
0000
,
1003
0100
0010
0001
,
1001
0010
0100
0001
,
1000
0100
1000
0010
,
0100
0001
0010
0020
,
0000
0100
0001
0130
,
0110
1001
1000
0100
,
0001
2000
3200
0320
,
0230
1000
1000
0310
,
1001
0110
1001
0110
,
0001
0011
0001
0100
,
0010
2000
3002
0023
,
0032
0010
0100
0013
,
0110
1001
0110
1001
,
0110
1000
0001
0100
,
0001
0010
0100
1000
,
1001
0010
0001
2000
,
3010
0010
1000
0001
,
0200
0010
0000
0310
,
1000
0100
0010
0001
,
1001
0010
0001
0100
,
0010
1000
0002
0003
,
1000
0100
0010
0001
,
0100
0010
0100
0100
,
0010
1000
0001
0100
,
1000
0100
0020
0030
,
1000
0001
1000
0100
,
1000
0100
0010
0001
,
0100
0001
1000
0001
,
0100
0001
0010
0100
,
0010
0001
1000
0010
,
1000
0100
0010
0001
,
0100
0010
0100
0010
,
1000
0100
0010
0100
,
1000
0010
0100
0100
,
0001
0010
0100
1000
,
0220
0000
0330
0000
;

//---------------dance-single - Copied from----------------
#NOTES:
     dance-single:
     Copied from:
     Beginner:
     1:
     0.093,0.122,0.018,0.072,0.000:
0000
0000
0000
0000
,
0000
0000
0000
0000
,
0000
0000
0000
0000
,
1000
0000
0000
0000
,
0100
0000
0000
0000
,
0100
0000
0000
0000
,
0010
0000
0000
0000
,
0020
0000
0030
0000
,
1000
0000
0000
0000
,
0001
0000
0000
0000
,
0000
0100
0000
0100
,
0000
0010
0000
0010
,
0010
0000
0000
0000
,
1000
0000
0000
0000
,
0000
0100
0000
0100
,
0000
0010
0000
0010
,
0010
0000
0000
0000
,
0001
0000
0000
0000
,
2000
0000
3000
0000
,
0100
0000
0100
0000
,
0100
0000
0000
0000
,
1000
0000
0000
0000
,
0010
0000
0000
0000
,
0100
0000
0001
0000
,
0011
0000
0000
0000
,
0001
0000
0000
0000
,
1000
0000
0000
0000
,
0010
0000
1000
0000
,
0001
0000
0000
0000
,
1000
0000
0000
0000
,
0100
0000
1000
0000
,
0001
0000
0010
0000
,
0001
0000
0000
0000
,
2000
0000
3000
0000
,
0001
0000
0000
0000
,
0001
0000
0000
0000
,
0000
1000
0000
0010
,
0020
0000
0030
0000
,
0100
0000
0000
0000
,
1000
0000
0000
0000
,
0001
0000
0000
0000
,
0020
0000
0030
0000
,
0001
0000
0000
0000
,
1000
0000
0000
0000
,
0010
0000
0000
0000
,
0200
0000
0300
0000
,
0100
0000
0000
0000
,
0001
0000
0000
0000
,
1000
0000
0000
0000
,
2000
0000
3000
0000
,
0001
0000
0000
0000
,
0010
0000
0000
0000
,
0100
0000
0000
0000
,
0002
0000
0003
0000
,
1001
0000
0000
0000
;

//---------------dance-single - Copied from----------------
#NOTES:
     dance-single:
     Copied from:
     Medium:
     5:
     0.350,0.394,0.072,0.145,0.000:
0000
0000
0000
0000
,
0000
0000
0000
0000
,
0000
0000
0000
0000
,
0001
1000
0001
0100
0001
0000
1001
0000
,
1000
0000
0010
1000
0000
0010
1000
0000
,
0100
0000
1000
0100
0000
1000
0100
0000
,
0010
0000
0001
0010
0000
0001
0010
0000
,
0002
0000
0203
0000
0320
0100
0130
0000
,
0010
0000
1000
0001
1000
0000
0001
0000
,
0100
0000
0010
0000
1000
0100
0100
0000
,
0010
0000
0001
1000
0000
0001
1000
0000
,
0010
0000
0100
0010
0000
0100
0010
0000
,
1000
0000
0001
1000
0010
0000
1000
0000
,
0001
0000
0001
0000
1000
0001
1000
0000
,
0100
0000
1000
0010
0000
1000
0010
0000
,
0100
0000
0001
0100
0000
0001
0100
0000
,
0010
1000
0100
0010
,
0001
0100
0001
1000
,
0020
0100
1030
0110
,
0001
0100
1000
0100
0001
0010
0100
0000
,
1000
0001
1000
0100
,
0010
0000
0100
1000
0010
0000
0100
0000
,
0001
0000
0001
0000
1000
0001
0200
0000
,
0000
0010
0001
0310
,
0110
0000
1001
0000
0001
0000
0100
1000
,
0010
0200
0000
0302
0000
2003
0000
3100
,
1000
0000
0010
0000
0100
0000
0001
1000
,
0000
0100
0000
0010
0000
1001
0000
0000
,
0100
0000
1001
0000
0010
0000
0001
0100
,
0010
2000
0000
3002
0000
0203
0000
0310
,
0100
0000
0001
0000
1000
0000
0100
0010
,
0000
0001
0000
1000
0000
0110
0000
0000
,
0100
0010
1000
0001
,
1000
0010
0001
0010
1000
0100
0010
0000
,
0100
0001
1000
0200
,
0310
0001
1000
0001
,
0100
0000
0001
0010
0000
0001
0010
0000
,
0100
0000
1000
0100
0000
1000
0100
0000
,
0010
0100
0001
1000
,
0010
0100
0001
0000
1000
0100
1000
0000
,
0010
0000
0100
0000
0001
0000
1000
0010
,
0001
0010
0100
0010
,
1000
0001
0100
0001
,
0010
1000
0010
0000
0001
0010
0001
0000
,
0100
0010
1000
0001
,
0100
0001
1000
0100
0020
0000
0230
0000
,
0310
1000
0001
0100
,
0001
1000
0100
0000
0010
0001
0100
0000
,
0010
1000
0001
0100
,
0010
1000
0010
0001
0010
0100
0010
0000
,
1000
0100
0010
0001
,
1000
0100
0010
0001
,
0100
0001
0010
0001
,
0100
0001
1000
0100
0001
0100
1000
0000
,
2200
0000
3300
0000
;

//---------------dance-single - Copied from----------------
#NOTES:
     dance-single:
     Copied from:
     Hard:
     7:
     0.418,0.419,0.108,0.118,0.032:
0000
0000
0000
0000
,
0000
0000
0000
0000
,
0000
0000
0000
0000
,
0010
0000
0100
0000
0010
0000
0100
0000
0010
0000
1000
0001
1000
0000
0000
0000
,
0001
0000
0100
0001
1000
0100
0010
0000
,
0100
0000
0010
0100
0001
0010
0100
0000
,
1000
0000
0100
1000
0001
0010
0100
0000
,
1000
0000
0000
0000
0001
0000
0000
0100
0000
0000
0000
0010
0100
0000
0010
0000
,
1000
0000
0100
0010
0100
0000
0010
0000
,
0001
0000
1000
0001
0000
0100
0001
0000
,
0010
0000
0001
0100
0010
1000
0100
0000
,
1000
0000
0010
0100
0001
0010
0001
0000
,
1000
0000
0001
0100
1000
0000
0100
0000
,
0010
0000
1000
0100
0010
0001
0100
0000
,
0001
0000
1000
0010
0100
0001
0010
0000
,
1000
0000
0001
0010
0100
0010
0100
0000
,
1000
0100
1000
0010
0200
0000
0301
0010
,
0001
0000
0100
0010
1000
0100
0010
0000
,
0200
0000
1300
0010
0200
0000
0301
0000
,
0010
0001
0100
0010
1000
0001
0100
1000
,
0100
0010
1000
0001
,
1000
0100
0001
0100
1000
0000
0010
0000
,
0200
0000
0320
0000
1030
0100
0200
0000
,
0010
0000
0310
0010
0100
0010
1001
0000
,
0100
0000
1001
0000
0010
0000
0001
0100
,
1000
0100
0100
0010
0010
1000
1000
0100
,
0010
0000
0001
0000
1000
0000
0001
0100
,
0000
1001
0000
0110
0000
1001
0001
0000
,
0010
0000
0011
0000
0001
0000
0100
0010
,
1000
0001
0001
1000
1000
0010
0010
0100
,
0001
0000
1000
0000
0100
0000
1000
0010
,
0000
0101
0000
0011
0000
1010
0000
0000
,
0200
0010
0001
0310
,
0001
0100
1000
0100
0001
0010
0100
1000
,
0001
0000
0000
0000
0100
0000
0000
0001
0000
1000
0000
0000
0110
0000
0000
0000
,
0001
0000
0000
1000
0000
0000
0100
0000
0000
0001
1000
0001
,
1000
0000
1000
0001
0001
1000
0001
0000
,
0010
0001
0100
0010
1000
0100
0001
0100
,
1000
0010
0100
0001
,
0010
0001
0100
0001
0010
0100
1000
0000
,
0010
0000
0100
0000
0010
0000
1000
0001
,
0200
0302
0023
0230
,
0310
1000
0001
0100
,
0010
1000
0100
0001
0100
0010
0100
0000
,
0010
0000
0001
1000
0001
0000
0100
0000
,
0010
1000
0100
0010
0001
0100
0001
0000
,
1000
0000
0001
0000
0100
0010
1000
0000
,
0010
0100
0001
0010
0100
1000
0001
0000
,
0100
0001
0100
1000
0100
0010
1000
0000
,
0100
0010
0100
0010
0001
1000
0001
1000
,
1001
0000
0001
0000
0100
0010
1000
0000
,
0010
1000
0100
0000
0010
0001
0100
0000
,
0001
0000
1000
0000
0001
1000
0001
0000
,
0100
0100
0001
0010
0100
1000
0100
0010
,
2002
0000
3003
0000
;

//---------------dance-single - Copied from----------------
#NOTES:
     dance-single:
     Copied from:
     Challenge:
     8:
     0.524,0.542,0.154,0.199,0.185: // measure 1
0000
0000
0000
0000
,  // measure 2
0000
0000
0000
0000
,  // measure 3
0000
0000
0000
0000
,  // measure 4
0001
0000
0010
0000
0100
0000
1000
0000
0001
0000
0010
0001
0010
0000
0001
0000
,  // measure 5
0100
0000
0010
1000
1000
0100
0010
0000
,  // measure 6
0100
0010
0001
0100
0001
1000
1000
0000
,  // measure 7
0100
0010
0100
1000
0001
0010
0001
0000
,  // measure 8
1000
0001
0000
0000
1000
0000
0000
0001
0000
0100
0000
0010
1000
0000
0001
0000
,  // measure 9
0110
0000
0001
1000
0001
0010
0001
0000
,  // measure 10
0100
0010
1000
0100
0010
0001
0100
0000
,  // measure 11
0020
0000
0130
0001
1000
0100
0020
0000
,  // measure 12
0230
0000
0310
0001
1000
0100
0200
0000
,  // measure 13
0310
0001
1000
0001
0100
0000
0010
0000
,  // measure 14
1000
0010
0100
0001
0100
0010
1000
0000
,  // measure 15
0002
0000
0013
0100
1000
0001
0002
0000
,  // measure 16
2003
0000
3100
0010
0001
1000
2000
0000
,  // measure 17
3010
0100
0001
1000
0100
1000
0010
0100
,  // measure 18
0001
0100
0001
0010
0001
1000
0001
0000
,  // measure 19
2001
0000
3010
0010
0110
0000
0010
0000
,  // measure 20
1000
0001
0100
0010
1000
0100
0010
0001
,  // measure 21
1100
0010
0100
0001
1000
0000
0001
0100
,  // measure 22
1000
0000
0100
0010
1000
0100
0010
0001
,  // measure 23
0200
0000
0302
0000
0013
0010
0022
0000
,  // measure 24
0033
0000
0100
0001
1000
0001
0101
0000
,  // measure 25
1100
0000
0110
0000
0010
0100
0010
1000
,  // measure 26
0010
0000
1000
0100
1000
0000
0001
0100
0001
0000
0010
0100
0010
0000
0200
0000
,  // measure 27
0010
0000
1000
1000
0010
0010
1000
1000
,  // measure 28
0000
1000
0000
0001
0000
1000
0300
0010
,  // measure 29
1001
0000
0110
0000
0001
0100
1000
0100
,  // measure 30
0010
0000
0100
0010
1000
0000
0001
0100
0010
0000
1000
0001
1000
0000
0020
0000
,  // measure 31
1000
0000
0100
0100
0001
0001
1000
1000
,  // measure 32
0000
0100
0000
1000
0000
0001
0030
0100
,  // measure 33
2001
0000
0000
0010
3000
0000
0000
0000
0010
0000
0000
0000
0100
0000
0000
0000
,  // measure 34
1000
0001
0010
0100
1000
0001
0100
0010
,  // measure 35
1001
0000
0000
0000
0100
0000
0000
0010
0000
1000
0000
0100
0010
0000
0000
0000
,  // measure 36
1001
0000
0000
0000
0000
0000
0000
0000
0000
0100
0000
0000
0000
0000
0000
0000
0000
0000
0100
0000
0000
0000
0000
0000
0000
0000
0000
0000
0000
0000
0010
0000
0000
0000
0000
0000
1000
0000
0000
0000
0100
0000
0000
0000
0010
0000
0000
0000
,  // measure 37
0002
0000
0103
0100
0020
1000
1030
0000
,  // measure 38
1000
0001
1000
0001
0010
0100
1000
0001
,  // measure 39
0110
1000
0001
0100
0010
1000
0100
0010
,  // measure 40
0001
0100
0001
1000
0100
1000
0020
0000
,  // measure 41
0130
0001
1000
0001
0010
0000
0001
0100
,  // measure 42
0010
1000
0100
0010
0100
0010
0001
0100
,  // measure 43
0001
0100
1000
0100
0010
1000
0001
1000
,  // measure 44
0100
0010
0001
1000
0010
1000
0002
0000
,  // measure 45
0103
0001
1000
0010
0100
0010
1000
0001
,  // measure 46
0100
0001
0010
0100
1000
0010
0100
0001
,  // measure 47
1000
0000
0000
1000
0100
0000
0000
0000
0010
0000
0000
0010
0001
0000
0000
0000
,  // measure 48
0001
0000
1000
0000
0001
0000
0100
0000
0010
1000
0000
0001
0000
0100
0000
0100
,  // measure 49
0010
1000
0100
0000
0010
0000
0001
0000
1000
0000
0001
0000
0100
0000
0010
0000
,  // measure 50
0100
0001
0010
0100
1000
0001
0010
0100
,  // measure 51
1000
0100
0000
0100
0010
0000
0010
0001
0000
1000
0001
0000
0001
1000
0000
0010
,  // measure 52
0100
0000
0100
0001
0000
1000
0010
0000
0100
0001
0000
0001
0010
0000
0010
0100
,  // measure 53
0000
0000
0110
0000
0000
1001
0000
0000
1000
0000
0100
0000
0010
0001
0000
0100
,  // measure 54
0010
0000
0000
1000
0100
0010
0001
0000
0000
0010
0000
0000
0100
0000
0000
1000
0000
0000
0001
0000
0000
1000
0000
0000
,  // measure 55
0220
0000
0330
0000
;
