#TITLE:FU-FA;
#SUBTITLE:;
#ARTIST:Sana+MIKI-CHANG+Shoichiro;
#TITLETRANSLIT:;
#SUBTITLETRANSLIT:;
#ARTISTTRANSLIT:;
#GENRE:;
#CREDIT:;
#MENUCOLOR:;
#NEWMETERSYSTEM:NO;
#BANNER:FU-FA-bn.png;
#BACKGROUND:FU-FA-bg.png;
#LYRICSPATH:;
#CDTITLE:MixMania 4 CD Title.png;
#MUSIC:FU-FA.mp3;
#OFFSET:-0.360;
#SAMPLESTART:43.000;
#SAMPLELENGTH:14.500;
#SELECTABLE:YES;
#LISTSORT:;
#BPMS:0.000=135.000;
#STOPS:230.000=4.420
;
#BGCHANGES:;
#ATTACKS:;

//---------------dance-single - ----------------
#NOTES:
     dance-single:
     :
     Easy:
     3:
     0.281,0.325,0.158,0.300,0.000:
0000
0000
0000
0000
,
0000
0000
0000
0110
,
0001
0100
2000
3000
,
0100
1000
0002
0003
,
0010
0001
1000
0001
,
1000
0100
1000
0010
,
0100
0001
0020
0030
,
0100
1000
0200
0300
,
0001
1000
0001
0100
,
0020
0000
1000
0030
,
0001
1000
0001
1000
,
0100
1000
0100
0000
,
0010
0100
0010
0100
,
1000
0001
1000
0000
,
0010
0001
0100
0010
,
1000
0010
1000
0100
,
0010
0100
0010
0000
,
0002
2003
3002
0103
,
0010
0100
0010
0100
,
0001
1000
0001
0000
,
1000
0100
1000
0100
,
1000
0010
1000
0001
,
0200
0000
0000
0300
,
0001
0101
1000
1100
,
0110
0001
0200
0300
,
1010
1000
0200
0300
,
1001
0001
0100
1000
,
0200
0300
0000
1000
,
0001
0100
0002
1003
,
1000
0100
0020
0031
,
0100
0001
0100
0001
,
1000
0001
0010
0000
,
1001
1000
0020
0030
,
1001
0001
0200
0300
,
0110
1000
0002
0003
,
0110
0001
2000
3000
,
1000
0100
0010
0001
,
1000
0100
0010
0001
,
0200
0000
0001
0300
,
0000
0010
0100
0010
,
0200
0000
0302
0000
,
2003
0000
3002
0000
,
0203
0000
0320
0000
,
2030
0000
3000
0100
,
0010
2000
3200
0320
,
0032
0100
0103
0000
,
1001
0000
0110
0000
,
1001
1001
1001
0000
,
1100
1000
0002
0003
,
0101
0001
2000
3000
,
1010
1000
0200
0300
,
0011
0001
0020
0030
,
0001
0010
0100
1000
,
0001
0010
0100
1000
,
0002
0000
0100
0000
,
0010
0000
0103
0000
,
1000
0100
0010
0001
,
1000
0001
0020
0000
,
0100
0000
0000
0000
,
0100
0000
0000
0000
,
0030
0000
0000
0000
;

//---------------dance-single - Copied from----------------
#NOTES:
     dance-single:
     Copied from:
     Beginner:
     2:
     0.125,0.150,0.008,0.200,0.000:
0000
0000
0000
0000
,
0000
0000
0000
0000
,
0200
0000
0000
0300
0000
0000
0000
0000
,
0020
0000
0000
0030
0000
0000
0000
0000
,
1000
0000
0100
0000
,
0001
0000
0100
0000
,
2000
0000
0000
3000
0000
0000
0000
0000
,
0002
0000
0000
0003
0000
0000
0000
0000
,
0010
0000
0001
0000
,
1000
0000
0000
0000
,
1001
0000
0000
0000
,
0100
0000
0100
0000
,
0010
0000
0000
0000
,
0001
0000
1000
0000
,
0100
0000
0000
0000
,
0100
0000
0100
0000
,
0010
0000
0001
0000
,
0001
0001
0001
0000
,
1000
0000
0000
0000
,
0100
0000
0000
0000
,
0010
0000
0000
0000
,
0100
0000
0000
0000
,
2000
0000
3000
0000
,
0000
0010
0000
0100
,
0200
0000
0000
0300
0000
0000
0000
0000
,
0002
0000
0000
0003
0000
0000
0000
0000
,
2000
0000
0000
3000
0000
0000
0000
0000
,
0100
0000
0000
0000
,
0010
0000
0001
0000
,
1000
0000
0100
0000
,
0020
0000
0030
0000
,
0200
0000
0300
0000
,
0002
0000
0000
0003
0000
0000
0000
0000
,
2000
0000
0000
3000
0000
0000
0000
0000
,
0200
0000
0000
0300
0000
0000
0000
0000
,
0020
0000
0000
0030
0000
0000
0000
0000
,
0001
0000
0100
0000
,
1000
0000
0100
0000
,
0020
0000
0000
0000
,
0030
0010
0000
0001
,
0002
0000
0000
0003
0000
0000
0000
0000
,
0200
0000
0000
0300
0000
0000
0000
0000
,
0020
0000
0000
0030
0000
0000
0000
0000
,
1000
0000
0100
0000
,
0000
1000
1000
1000
,
1000
0000
0000
0000
,
0001
0000
1000
0000
,
0001
0001
0001
0000
,
0020
0000
0000
0030
0000
0000
0000
0000
,
0200
0000
0000
0300
0000
0000
0000
0000
,
2000
0000
0000
3000
0000
0000
0000
0000
,
0002
0000
0000
0003
0000
0000
0000
0000
,
0100
0000
0100
0000
,
0010
0000
1000
0000
,
0002
0000
0000
0000
,
0003
0000
0000
0000
,
0100
0000
0010
0000
,
0100
0000
0200
0000
,
0000
0000
0000
0000
,
0000
0000
0000
0000
,
0300
0000
0000
0000
;

//---------------dance-single - Copied from----------------
#NOTES:
     dance-single:
     Copied from:
     Medium:
     5:
     0.340,0.424,0.008,0.158,0.004:
0000
0000
0000
0000
,
0000
0000
0000
0000
0000
0010
0020
0000
,
0130
0000
0010
1000
0000
0000
0001
0000
,
0100
0000
0010
0100
0000
0000
0001
0000
,
1000
0100
0001
0100
,
1000
0010
0001
0010
,
1000
0000
0001
0100
0000
0000
0010
0000
,
1000
0000
0100
0010
0000
0000
0001
0000
,
0100
0001
1000
0010
,
0000
0100
0010
0100
0000
0010
1000
0000
,
0001
0100
0001
1000
,
0100
0010
0001
0000
1000
0000
0001
0000
,
0100
0000
0010
0000
1000
0000
0010
0100
,
0001
0000
1000
0010
0100
0000
1000
0001
,
0100
0000
0001
0000
1000
0000
0010
0100
,
0001
0100
0010
1000
,
0100
0010
1000
0100
0010
0000
0001
0000
,
0100
0000
0001
0000
1000
0002
0000
0000
,
0103
0010
0100
0001
,
0001
0010
0100
1000
0010
0000
0100
0000
,
0001
0000
1000
0000
0001
1000
0010
0000
,
0100
0001
0010
0000
0100
1000
0010
0000
,
0100
0100
0100
0100
,
0000
0001
1000
0001
0000
0010
0100
0000
,
1000
0000
0001
0100
0000
0010
1000
0000
,
0100
0000
0010
0001
0000
1000
0100
0000
,
0010
0000
0100
0001
0000
1000
0010
0100
,
0000
0000
0010
0000
0100
0000
0001
1000
,
0001
0000
0100
0000
0010
0000
0100
0001
,
1000
0000
0100
0000
0010
0000
0100
0001
,
1000
0100
0001
0000
1000
0100
0001
0000
,
0020
0000
0230
0000
0301
0100
0010
0000
,
1000
0001
0000
0100
0000
0001
0010
0000
,
0100
1000
0000
0100
0000
0010
0001
0000
,
1000
0001
0100
0001
0000
0010
0100
0000
,
1000
0001
0000
0100
0000
0000
0010
0000
,
0002
0023
0230
2300
,
3020
0230
0302
2003
,
3010
0100
0100
0100
,
0000
0010
1000
0001
0000
0010
0001
1000
,
0001
0000
0100
0001
0000
0000
1000
0000
,
0010
0000
0100
1000
0000
0010
0100
0000
,
0001
0000
1000
0002
0000
0013
0100
1000
,
0000
0100
0010
0000
1000
0000
0001
0100
,
0001
2000
3002
0203
,
0320
0000
0130
0000
1000
0000
0100
0001
,
0010
0100
1000
0000
0001
0010
0100
0000
,
0001
0000
1000
0000
0001
0100
0000
0010
,
1000
0100
0000
0010
0000
0000
0001
0000
,
0100
0001
0000
0010
0000
0000
0100
0000
,
1000
0001
1000
0100
0000
0000
0010
0100
,
0010
0000
0001
0100
0000
0001
1000
0000
,
0001
0100
0010
1000
,
0100
0010
0001
1000
,
0001
0100
0001
0010
,
0100
1000
0010
0100
,
0001
0001
1000
0001
,
1000
0000
0000
0001
0000
0000
0001
0000
2002
0000
0000
0000
0000
0000
0000
0000
,
0000
0000
0000
0000
,
0000
0000
0000
0000
,
3003
0000
0000
0000
;

//---------------dance-single - Copied from----------------
#NOTES:
     dance-single:
     Copied from:
     Hard:
     6:
     0.422,0.424,0.133,0.100,0.004:
0000
0000
0000
0000
,
0000
0000
0000
0000
0000
0001
1001
0000
,
0010
0100
0001
1000
0000
0000
0100
0000
,
0010
1000
0100
0010
0000
0100
0001
0000
,
1000
0001
0100
0010
1000
0001
0100
0010
,
1000
0100
0010
0001
,
1000
0100
0010
0001
0000
0000
0100
0000
,
1000
0100
0010
0001
0000
0100
0001
0000
,
0010
0001
0100
0000
0010
1000
0100
0000
,
0000
0010
0010
0110
0000
1000
1001
0000
,
0001
0100
1000
0100
0001
0000
1000
0010
,
0001
0000
0010
0000
0001
0100
0010
1000
,
0100
0000
0010
0001
1000
0000
0010
0000
,
0100
0010
1000
0000
0100
0000
0010
0000
,
0100
0010
0001
0000
1000
0100
0010
0000
,
0100
0000
0010
0000
0001
0000
1000
0001
,
0100
0010
1000
0001
0100
0000
0100
0000
,
0010
0000
0100
0000
0001
1000
0000
1000
,
0100
0010
0100
0000
0010
0001
0010
0000
,
0001
0100
0010
1000
0001
0000
0100
0000
,
0001
0100
1000
0000
1000
0100
0010
0000
,
1000
0100
0010
0000
0010
0001
0100
0000
,
1001
0100
1001
0010
,
0000
0001
0001
1000
0000
0100
1001
0000
,
0100
0000
1000
0100
0010
0000
0001
0000
,
0100
0000
0001
0010
0100
0100
0100
0000
,
0010
1000
0100
0010
0000
0001
0100
0010
,
0000
0100
0001
0000
1000
0100
1000
0000
,
0010
0100
0001
1000
0100
0000
1000
0010
,
0100
0001
0010
0100
1000
0000
0010
0000
,
0001
0010
0100
1000
0001
0010
0100
1000
,
0020
0000
0230
0000
0301
1000
0100
0100
,
0010
0100
0000
0001
0000
0010
0001
1000
,
0010
1000
0001
0100
0000
0010
1000
0000
,
0010
0001
1000
0010
0000
0100
0001
0000
,
0010
0100
1000
0010
0000
0010
0001
0000
,
0101
0110
1010
1001
,
0110
0000
1010
0000
0100
0010
0001
0000
,
1001
0100
0010
0100
,
0001
0100
0010
0010
0000
1000
0100
0100
,
0110
0000
0010
0001
0000
0001
0100
0010
,
1000
0000
1000
0001
0000
0100
0001
0010
,
0200
0000
1300
0020
0000
0130
0001
0010
,
0000
0001
0100
0000
0001
0100
1000
0100
,
0010
1000
1100
0010
,
0110
0000
0010
0001
0100
0000
0010
0001
,
1000
0100
0010
0001
1000
0100
0010
0001
,
2000
0000
3002
0000
0013
0001
1000
0001
,
0100
0010
0000
0001
0000
1000
0001
0100
,
0010
1000
0000
0010
0000
0100
0010
1000
,
0100
0010
0001
1000
0000
0001
0100
0010
,
1000
0000
0100
1000
0000
1000
0001
0010
,
0100
0000
0100
0000
0010
1000
0001
0000
,
0100
0010
0001
0000
0100
0010
1000
0000
,
0010
0100
1000
0001
,
0010
0100
1000
0000
0010
0100
0001
0000
,
0020
0032
0203
0320
,
1030
0000
0000
1000
0000
0000
0100
0000
2000
0000
0000
0000
0001
0000
0000
0000
,
0100
0001
0000
0010
,
0001
0020
0000
0000
,
3030
0000
0000
0000
;

//---------------dance-single - Copied from ----------------
#NOTES:
     dance-single:
     Copied from:
     Challenge:
     7:
     0.487,0.449,0.325,0.108,0.008: // measure 1
0000
0000
0000
0000
,  // measure 2
0000
0010
0100
0110
0000
0001
1001
0000
,  // measure 3
1000
0100
0010
0001
0100
0001
1000
0010
,  // measure 4
0100
0001
0010
0100
1000
0010
0010
0000
,  // measure 5
0100
0001
0010
0100
1000
0001
0010
0100
,  // measure 6
1000
0010
0100
0001
1000
0100
0010
0001
,  // measure 7
0100
0010
1000
0001
0100
0001
1000
0100
,  // measure 8
0010
0001
1000
0001
0100
0001
0001
0000
,  // measure 9
0010
0001
0100
0010
1000
0001
0100
0001
,  // measure 10
0000
1000
1000
0001
0000
1001
0110
0000
,  // measure 11
0001
0100
0001
1000
0100
1000
0010
0100
,  // measure 12
0001
1000
1000
0100
0010
0000
0110
0000
,  // measure 13
0010
0001
0100
0001
1000
0001
0100
0010
,  // measure 14
0000
1000
0100
0010
0000
0001
0100
0001
,  // measure 15
0010
1000
0000
0100
0010
0100
0000
0010
,  // measure 16
0002
0000
2003
0000
3100
0001
0100
0010
,  // measure 17
0001
1000
0001
0200
0010
0000
0310
0000
,  // measure 18
1001
0000
0000
0000
0011
0000
0000
0000
1001
0000
0001
0000
0000
0000
0010
0100
,  // measure 19
1000
0100
0010
0001
1000
0100
1000
0100
,  // measure 20
0010
0100
0010
0001
0100
0000
0101
0000
,  // measure 21
0001
1000
0001
0100
0000
0010
1000
0001
,  // measure 22
0100
0001
0010
0100
0000
0010
0100
0010
,  // measure 23
0002
1000
0100
1003
,  // measure 24
0000
0001
0001
1001
0000
0110
1001
0000
,  // measure 25
0100
0001
0100
0020
1000
0000
0130
0000
,  // measure 26
1000
0010
0100
0001
0020
0100
0130
0000
,  // measure 27
1000
0100
0010
0002
0100
0013
1000
0200
,  // measure 28
0000
0310
0001
0100
0000
0010
1000
0100
,  // measure 29
0010
0100
0010
1000
0100
0000
0100
0010
,  // measure 30
0100
0010
0001
0100
0010
0000
0100
0001
,  // measure 31
0001
0010
0100
1000
0001
0010
0100
1000
,  // measure 32
0101
0000
1100
0000
0010
0110
0000
0010
,  // measure 33
0100
0001
0010
0100
0000
0010
0100
0000
,  // measure 34
0010
0100
1000
0100
0000
0010
0100
0000
,  // measure 35
1000
0100
0010
0001
0000
0100
0001
0000
,  // measure 36
1000
0010
0100
0001
0000
0001
1000
0000
,  // measure 37
0110
0011
0110
1100
,  // measure 38
1001
0110
0011
1100
,  // measure 39
1001
0100
0001
1000
,  // measure 40
0000
0010
0010
0110
0000
0001
1001
0110
,  // measure 41
0001
0100
1000
0100
0001
0000
1000
0000
,  // measure 42
0100
0010
0001
1000
0100
0000
0010
0000
,  // measure 43
0100
1000
0001
0010
0001
0100
0001
1000
,  // measure 44
0100
0000
0010
0000
0100
0000
0001
1000
,  // measure 45
0001
0011
0101
1010
,  // measure 46
1100
0000
1000
0000
0100
0000
0001
0010
,  // measure 47
0100
0010
0100
0010
1000
0001
1000
0001
,  // measure 48
0101
0000
1100
0000
0010
0110
0000
1000
,  // measure 49
0100
0001
0010
0100
1000
0000
0010
0100
,  // measure 50
0001
1000
0100
1000
0010
0000
0100
0001
,  // measure 51
1000
0001
1000
0010
0100
0000
0010
0100
,  // measure 52
0001
0100
0001
1000
0001
0000
0100
0010
,  // measure 53
1000
1100
0001
0101
,  // measure 54
0010
0110
1000
1001
,  // measure 55
0010
0000
0001
0100
0010
1000
0100
0010
,  // measure 56
0001
1000
0001
0100
0010
1000
0100
0000
,  // measure 57
0010
0010
0001
0100
,  // measure 58
0001
0000
0000
1000
0000
0000
0010
0000
1002
0000
0000
0000
0200
0000
0000
0000
,  // measure 59
0300
2000
3000
0200
,  // measure 60
0300
2000
0000
0000
,  // measure 61
3003
0000
0000
0000
;
