#TITLE:ENDORPHINMACHINE;
#SUBTITLE:;
#ARTIST:SAM TORERO;
#TITLETRANSLIT:;
#SUBTITLETRANSLIT:;
#ARTISTTRANSLIT:;
#GENRE:;
#CREDIT:;
#MENUCOLOR:;
#NEWMETERSYSTEM:NO;
#BANNER:ENDORPHINMACHINE-bn.png;
#BACKGROUND:ENDORPHINMACHINE-bg.png;
#LYRICSPATH:;
#CDTITLE:MixMania 4 CD Title.png;
#MUSIC:ENDORPHINMACHINE.mp3;
#OFFSET:-0.020;
#SAMPLESTART:40.420;
#SAMPLELENGTH:11.980;
#SELECTABLE:YES;
#LISTSORT:;
#BPMS:0.000=190.000;
#STOPS:;
#BGCHANGES:;
#ATTACKS:;

//---------------dance-single - ----------------
#NOTES:
     dance-single:
     :
     Easy:
     4:
     0.329,0.352,0.107,0.124,0.000: // measure 1
0000
0000
0000
0000
,  // measure 2
0000
0000
0000
0000
,  // measure 3
0000
0000
0000
0000
,  // measure 4
0000
0000
0000
0000
,  // measure 5
0001
0100
0001
1000
,  // measure 6
0100
0100
0010
0000
,  // measure 7
1000
0010
0100
0000
,  // measure 8
0002
0000
2003
0000
,  // measure 9
3100
0100
0010
0000
,  // measure 10
0001
1000
0001
0000
,  // measure 11
0110
0000
1000
0001
,  // measure 12
1000
0000
0100
0000
,  // measure 13
0010
0001
1000
0001
,  // measure 14
0100
0000
0010
0000
,  // measure 15
1000
1000
0100
0000
,  // measure 16
0020
0000
0230
0000
,  // measure 17
0310
0000
1000
0001
,  // measure 18
1000
0000
0100
0001
,  // measure 19
0001
0001
0001
0000
,  // measure 20
1000
0000
0001
0100
,  // measure 21
0010
0000
1000
0100
,  // measure 22
0010
0010
0010
0000
,  // measure 23
0001
1000
0001
0000
,  // measure 24
0110
0000
0001
0100
,  // measure 25
1000
0000
0100
0010
,  // measure 26
1000
0000
0001
0010
,  // measure 27
1000
1000
1000
0000
,  // measure 28
1000
0000
0001
0100
,  // measure 29
0010
0000
1000
0010
,  // measure 30
0100
0100
0100
0000
,  // measure 31
0001
1000
0001
0000
,  // measure 32
0110
0000
0001
1000
,  // measure 33
0100
0000
0010
1000
,  // measure 34
0001
0000
0001
0000
,  // measure 35
0010
1000
0100
0000
,  // measure 36
0020
0000
0032
0000
,  // measure 37
1003
0100
1000
0000
,  // measure 38
0010
0001
0100
0000
,  // measure 39
0010
0100
0010
0000
,  // measure 40
2000
0000
3002
0000
,  // measure 41
0103
0000
0010
0010
,  // measure 42
0100
0000
0010
0100
,  // measure 43
0010
0000
1000
0100
,  // measure 44
1000
0000
0001
0100
,  // measure 45
0001
0000
1001
0000
,  // measure 46
0100
0010
0100
0000
,  // measure 47
0001
1000
0001
0000
,  // measure 48
1001
0000
0000
0110
,  // measure 49
0110
0000
0000
0100
,  // measure 50
0010
1000
0100
0000
,  // measure 51
0001
1000
0001
0000
,  // measure 52
0020
0000
2030
0000
,  // measure 53
3100
0000
0000
0000
,  // measure 54
0000
0000
0100
0000
,  // measure 55
0110
0000
1000
0001
,  // measure 56
0100
0000
0010
1000
,  // measure 57
0001
0001
0001
0000
,  // measure 58
0100
0000
0001
1000
,  // measure 59
0001
0000
0100
0001
,  // measure 60
0100
0100
0100
0000
,  // measure 61
0010
1000
0001
0000
,  // measure 62
0100
0000
0001
0010
,  // measure 63
0001
0000
1000
0100
,  // measure 64
1000
0000
0010
0100
,  // measure 65
0010
0010
0010
0000
,  // measure 66
0010
0000
0001
0100
,  // measure 67
0001
0000
1000
0100
,  // measure 68
1000
1000
1000
0000
,  // measure 69
0010
0000
0100
0010
,  // measure 70
0100
0000
0010
0000
,  // measure 71
1001
0000
0000
0000
,  // measure 72
0000
0000
1000
0000
,  // measure 73
1001
0000
0010
0001
,  // measure 74
0100
0000
0010
1000
,  // measure 75
0001
0001
0001
0000
,  // measure 76
0100
0000
0001
1000
,  // measure 77
0001
0000
1000
0001
,  // measure 78
0100
0100
0100
0000
,  // measure 79
0001
0010
0001
0000
,  // measure 80
1001
0000
0110
0000
,  // measure 81
0001
0100
0001
0000
,  // measure 82
0100
1000
0010
0000
,  // measure 83
0100
0010
1000
0000
,  // measure 84
0200
0000
0320
0000
,  // measure 85
0031
1000
0010
0000
,  // measure 86
0001
0010
0100
0000
,  // measure 87
1000
0010
0100
0001
,  // measure 88
0020
0000
0230
0000
,  // measure 89
0301
0000
0000
0000
;

//---------------dance-single - Copied from----------------
#NOTES:
     dance-single:
     Copied from:
     Beginner:
     1:
     0.100,0.156,0.018,0.009,0.000:
0000
0000
0000
0000
,
0000
0000
0000
0000
,
0000
0000
0000
0000
,
0000
0000
0000
0000
,
1000
0000
0000
0000
,
0000
0000
0000
0000
,
0001
0000
0000
0000
,
0000
0000
0000
0000
,
0100
0000
0000
0000
,
0100
0000
0000
0000
,
0100
0000
0000
0000
,
0010
0000
0000
0000
,
0100
0000
0000
0000
,
0100
0000
0000
0000
,
0100
0000
0000
0000
,
0010
0000
0010
0000
,
0010
0000
0000
0000
,
1000
0000
0000
0000
,
0100
0000
0000
0000
,
0010
0000
0000
0000
,
0001
0000
0000
0000
,
1000
0000
0000
0000
,
0001
0000
0000
0000
,
0100
0000
0000
0000
,
0010
0000
0000
0000
,
1000
0000
0000
0000
,
0001
0000
0000
0000
,
1000
0000
0000
0000
,
0100
0000
0000
0000
,
0010
0000
0000
0000
,
0100
0000
0000
0000
,
0010
0000
0000
0000
,
0001
0000
0000
0000
,
0000
0000
0000
0000
,
1000
0000
0000
0000
,
0000
0000
0000
0000
,
0001
0000
0000
0000
,
0000
0000
0000
0000
,
0100
0000
0000
0000
,
0000
0000
0000
0000
,
0000
0000
0000
0000
,
0010
0000
0000
0000
,
0100
0000
0000
0000
,
0010
0000
0000
0000
,
0100
0000
0000
0000
,
0001
0000
0000
0000
,
1000
0000
0000
0000
,
0100
0000
0000
0000
,
0100
0000
0000
0000
,
0010
0000
0000
0000
,
0010
0000
0000
0000
,
1001
0000
0000
0000
,
0000
0000
0000
0000
,
0000
0000
0000
0000
,
1000
0000
0000
0000
,
0100
0000
0000
0000
,
1000
0000
0000
0000
,
0001
0000
0000
0000
,
0010
0000
0000
0000
,
0001
0000
0000
0000
,
0100
0000
0000
0000
,
0010
0000
0000
0000
,
0100
0000
0000
0000
,
0010
0000
0000
0000
,
1000
0000
0000
0000
,
0100
0000
0000
0000
,
0010
0000
0000
0000
,
0001
0000
0000
0000
,
0100
0000
0000
0000
,
0010
0000
0000
0000
,
0110
0000
0000
0000
,
0000
0000
0000
0000
,
1000
0000
0000
0000
,
0001
0000
0000
0000
,
0100
0000
0000
0000
,
0010
0000
0000
0000
,
1000
0000
0000
0000
,
0100
0000
0000
0000
,
0010
0000
0000
0000
,
0002
0000
0003
0000
,
1000
0000
0000
0000
,
0001
0000
0000
0000
,
0100
0000
0000
0000
,
0100
0000
0000
0000
,
0001
0000
0000
0000
,
1000
0000
0000
0000
,
0010
0000
0000
0000
,
0100
0000
0000
0000
,
1000
0000
0000
0000
;

//---------------dance-single - Copied from----------------
#NOTES:
     dance-single:
     Copied from:
     Medium:
     6:
     0.418,0.430,0.133,0.195,0.000:
0000
0000
0000
0000
,
0000
0000
0000
0000
,
0000
0000
0000
0000
,
0000
0000
0000
0000
,
1000
0000
0100
0000
0010
0001
0000
1000
,
0000
0001
0000
0010
0002
0000
0000
0000
,
0103
0000
0010
0000
1000
0001
0000
0200
,
0000
0000
0000
0320
0000
0000
0000
0000
,
1030
0100
0010
0001
,
1000
0001
0100
0010
,
0110
0000
0001
1000
,
0100
0000
1000
0000
,
0010
0100
0001
0010
,
0001
1000
0100
1000
,
0010
0010
0100
0110
,
1002
0000
0203
0000
,
0310
1000
0100
0010
,
0001
0000
1000
0000
0001
0100
0001
0000
,
1000
0010
0100
0000
,
0010
0000
0100
0010
,
1000
0000
0100
0000
0010
0001
0100
0000
,
1000
0100
0001
0000
,
0100
0000
0010
1000
,
0001
0100
0001
1001
,
0100
0000
0100
0010
,
0100
0000
0001
0000
0010
0001
0010
0000
,
0001
0100
0010
0000
,
1000
0000
0100
1000
,
0100
0000
0001
0000
0100
1000
0001
0000
,
0010
0100
0001
0000
,
0100
0000
1000
0001
,
0010
0100
0100
0001
,
1001
0000
1000
0000
0100
0010
0000
0001
,
0000
1000
0000
0001
0020
0000
0000
0000
,
0031
0000
0100
0000
0010
1000
0000
2000
,
0000
0000
0000
3200
0000
0000
0000
0000
,
0310
0000
1000
0000
0001
0100
0000
0001
,
0000
0010
0000
0100
2000
0000
0000
0000
,
3010
0000
1000
0000
0010
0100
0000
0002
,
0000
0000
0000
2003
0000
0000
0000
0000
,
3000
0000
0100
0100
,
1000
0100
0010
0001
,
1000
0001
0101
0000
,
1000
0100
0100
0010
,
1000
0001
1100
0000
,
0010
0010
0100
0010
,
1000
0000
0001
0000
0101
0000
0000
1001
,
0000
0000
0100
0000
0000
1001
0000
1001
,
0000
0000
0001
0000
0000
0100
0000
0100
,
0010
0100
0010
1000
,
0001
0100
0001
0000
1000
0100
1000
0000
,
0020
0000
0230
0000
,
0301
0000
0000
0000
,
0000
0000
0010
0010
,
1001
0001
1000
0010
,
0100
0000
0001
0000
0010
0001
0010
0000
,
0001
1000
0100
0000
,
1000
0000
0010
0100
,
0001
0000
1000
0000
0100
1000
0010
0000
,
0100
0001
1000
0000
,
0100
0000
0010
0001
,
1000
0001
0100
1001
,
0100
0010
1000
0100
,
1000
0000
0010
0000
0100
0010
0100
0000
,
0001
0010
0100
0000
,
1000
0000
0001
0100
,
0001
0000
1000
0000
0010
0100
1000
0000
,
0100
0001
1000
0000
,
0100
0000
0010
0001
,
1001
0000
0010
0100
,
0010
0000
0000
0000
,
0000
0000
0000
0000
,
1000
0100
0010
0001
,
1000
0000
0001
0000
0010
0001
0010
0000
,
0001
0100
0010
0000
,
1000
0000
0100
0010
,
0100
0000
0010
0000
0001
1000
0100
0000
,
1000
0010
0100
0000
,
0010
0000
1000
0001
,
0100
0020
0230
0320
,
1030
0000
0001
0000
0100
0001
0000
1000
,
0000
0010
0000
0100
0020
0000
0000
0000
,
1030
0000
0100
0000
0010
0001
0000
2000
,
0000
0000
0000
3200
0000
0000
0000
0000
,
0310
0000
1000
0000
0001
0100
0000
0010
,
0000
1000
0000
0100
2000
0000
0000
0000
,
3010
0000
0100
0000
0001
1000
0000
2000
,
0000
0000
0000
3002
0000
0000
0000
0003
,
1001
0000
0000
0000
;

//---------------dance-single - Copied from----------------
#NOTES:
     dance-single:
     Copied from:
     Hard:
     8:
     0.626,0.625,0.480,0.204,0.000:
0000
0000
0000
0000
,
0000
0000
0000
0000
,
0000
0000
0000
0000
,
0000
0000
0000
0000
,
0110
0000
1001
0000
0001
0020
0000
0130
,
0000
0010
0000
1000
0100
0000
0010
0000
,
0100
0001
0010
0000
0100
1000
0010
0200
,
0000
0310
0100
0002
0000
0003
0010
0000
,
0110
0000
0001
1000
0100
0000
0010
0001
,
1000
0000
0001
0000
0100
0001
0010
0000
,
0110
0000
1000
0000
0010
0100
0010
0000
,
1000
0001
0100
0010
1000
0000
0100
0000
,
0010
0001
1000
0000
0010
1000
0001
0000
,
0100
0010
0100
0000
0001
1000
0001
0000
,
0001
0010
0100
1000
0100
0010
0001
0000
,
2000
0000
0100
3100
0020
0000
0001
0031
,
0100
0000
0010
0000
1000
0001
1000
0020
,
0000
0000
0130
0001
1000
0100
0010
0001
,
0000
0000
0001
0000
0100
0010
1000
0000
,
0101
0000
1100
0000
0010
0100
0010
0000
,
1001
0000
0100
0010
0001
0100
0010
1000
,
0000
0000
0010
0000
1000
0001
0100
0000
,
0110
0000
0011
0000
0010
0100
1000
0000
,
0110
0000
0001
0000
1000
0001
0100
0000
,
1001
0000
0100
0000
0010
1000
0100
0020
,
0000
0000
0031
1000
0001
0010
0100
0010
,
0000
0000
1000
0000
0001
0100
0001
0000
,
1010
0000
0101
0000
0010
1000
0100
0000
,
1001
0000
0010
0100
0001
1000
0100
0010
,
0000
0000
1000
0000
0001
0010
0001
0000
,
1001
0000
1010
0000
1000
0100
0001
0000
,
1001
0000
0010
0100
0010
0100
0010
0000
,
0011
0000
1100
0000
1000
0200
0000
0310
,
0000
0001
0000
1000
0100
0000
0110
0000
,
0001
1000
0001
0000
0010
0001
0010
0200
,
0000
0310
1000
0002
0000
0003
0100
0000
,
1001
0000
0010
0000
0001
0020
0000
0130
,
0000
0010
0000
1000
0100
0000
1001
0000
,
0100
1000
0010
0000
0010
0100
0001
0020
,
0000
0130
0001
2000
0000
3000
0100
0000
,
0010
0000
0000
0000
0100
0100
0100
0000
,
0110
0000
1001
0000
0100
1000
0100
0000
,
0010
0000
0001
0000
0010
0000
0100
0010
,
0100
0000
0010
0000
0001
1000
0001
0000
,
0010
0001
0010
0100
1000
0000
0100
0000
,
0110
0000
1001
0000
0100
1000
0100
0000
,
0010
0000
0001
0000
0010
0000
0100
1001
,
0000
0000
0100
0000
0010
1001
0000
1001
,
0000
0000
0010
0000
0100
1001
0000
1001
,
0100
1000
0100
0010
,
0001
1000
0001
0010
,
0200
0000
0010
0310
0002
0000
1000
1003
,
0100
0000
0000
0000
,
0000
0000
0011
1010
,
1001
0000
0100
0000
0010
0001
0100
0020
,
0000
0000
0130
0001
1000
0100
0010
0100
,
0000
0000
0001
0000
0010
0100
0010
0000
,
0110
0000
1010
0000
1000
0001
1000
0000
,
0011
0000
0100
0001
0010
0100
1000
0100
,
0000
0000
0010
0000
0100
0001
1000
0000
,
0110
0000
1001
0000
0010
0100
0001
0000
,
1100
0000
0010
0000
1000
0001
1000
0000
,
0110
0000
0010
0000
0010
0000
0100
0010
,
1000
0000
1000
0000
1000
0000
0001
0100
,
0001
0000
0001
0000
0001
0000
0010
0001
,
0100
0000
0100
0000
0100
0000
0010
1000
,
0110
0000
0010
0000
0010
0000
0100
0001
,
0100
0000
0100
0000
0100
0000
0010
0100
,
1000
0000
1000
0000
1000
0000
0010
0100
,
0001
0000
0001
0000
0001
0000
0010
0001
,
0100
0000
0000
0000
,
0000
0000
0000
0000
,
1010
0000
0001
0000
1000
0100
0010
0200
,
0000
0000
0310
0001
1000
0100
1000
0010
,
0000
0000
0100
0000
1000
0100
0001
0000
,
1001
0000
0110
0000
0001
1000
0001
0000
,
0011
0000
1000
0100
0010
0100
0001
0010
,
0000
0000
1000
0000
0001
0010
0100
0000
,
0110
0000
1001
0000
0001
0100
0010
0000
,
1100
0000
1000
0000
0010
0001
0100
0010
,
0110
0000
1001
0000
0001
0020
0000
1030
,
0000
0010
0000
0100
0010
0000
1000
0000
,
0001
0100
0001
0000
1000
0100
1000
0020
,
0000
0130
0001
0020
0000
0030
1000
0000
,
1010
0000
0101
0000
0010
0002
0000
1003
,
0000
0100
0000
0100
0010
0000
0100
0000
,
0001
1000
0001
0000
0100
0001
0100
0002
,
0000
0000
0003
2001
0000
0000
0000
3000
,
0010
0000
0000
0000
;

//---------------dance-single - Copied from----------------
#NOTES:
     dance-single:
     Copied from:
     Challenge:
     9:
     0.683,0.704,0.444,0.258,0.004:
0000
0000
0000
0000
,
0000
0000
0000
0000
,
0000
0000
0000
0000
,
0000
0000
0000
0000
,
0100
0000
1100
0000
1000
0100
0010
0002
,
0000
0203
0000
0310
1000
0100
0010
0000
,
1000
0000
1010
0000
1000
0100
0010
0200
,
0000
0310
1000
0002
0000
0003
0100
0000
,
0100
0001
1000
0100
0010
0001
0100
0000
,
0010
1000
0001
0100
0001
0010
0100
0000
,
1001
0000
0010
0000
1000
0001
0100
0000
,
0010
0010
0100
0001
1000
0200
0000
0300
,
1001
0001
1000
1000
0100
0100
0010
0000
,
0011
0001
0100
0100
0010
0010
1000
0000
,
1000
0000
0000
0000
0001
0000
1000
0000
0100
0000
0010
0001
0000
0000
0000
0000
,
0120
0000
1000
1030
2001
0000
0100
0100
,
3100
0000
0010
0000
0001
1000
0001
0200
,
0010
0000
0310
1000
0100
0010
0001
0100
,
0000
0000
1000
0001
0010
0100
0000
1000
,
0100
0000
1000
0010
0100
0001
1000
0001
,
0010
0000
0001
0100
0010
1000
0100
0010
,
0000
0000
0001
0100
0010
1000
0000
0000
,
1100
0011
0101
1010
,
0001
0010
0001
0010
1000
0010
1000
0100
,
0010
0000
0010
0000
0100
0001
0010
0200
,
1000
0000
1300
0100
0010
0001
0010
0100
,
0000
0000
0001
0001
1000
0100
0000
0001
,
0010
0000
1000
0010
0100
0010
1000
0100
,
0010
0000
0001
1000
0001
0010
0001
0100
,
0000
0000
1000
0001
0100
0010
0000
0000
,
1001
0011
1100
1001
,
0010
0001
0100
0010
1000
0100
0010
0001
,
0100
0000
0110
0000
0001
1000
0010
0200
,
0000
0320
0000
1030
0100
0010
0001
0000
,
0001
0000
0101
0000
0010
1000
0001
0200
,
0000
0310
1000
0200
0000
0310
0100
0000
,
0001
0000
1001
0000
0100
1000
0001
0200
,
0000
0302
0000
1003
0100
0010
0001
0000
,
1000
0000
1010
0000
0010
0001
0100
2000
,
0000
3001
1000
0002
0000
0103
0010
0000
,
1001
0000
0000
0000
,
0110
0000
0011
0000
1000
0010
0100
0000
,
0001
1000
0100
0010
0001
0100
0010
0000
,
0101
0000
1010
0000
1000
0100
1000
0000
,
0001
0100
0010
1000
0100
0010
0001
0000
,
1001
0000
0110
0000
1000
0001
1000
0000
,
0001
0100
1000
0100
0010
0001
0100
1001
,
0000
0000
0000
0000
0000
1001
0010
1001
,
0000
0000
0000
0000
0000
1001
0100
1001
,
0010
0100
1000
0000
0100
0001
1000
0000
,
1000
0001
0100
0010
0001
0100
0010
0000
,
2001
0000
0001
3001
0210
0000
0010
0310
,
0100
0000
0000
0000
,
0000
0000
0000
0000
,
1001
0000
0010
0000
0100
0001
1000
0200
,
1000
0000
1300
0001
0010
0001
0100
0010
,
0000
0000
0100
0100
0010
1000
0000
1000
,
0100
0000
0010
0001
1000
0100
0010
0001
,
0100
0000
0010
0001
1000
0001
0010
0001
,
0100
0000
1000
0010
0100
0010
0000
0000
,
0110
1001
0110
1001
,
0100
0010
0001
0010
0100
1000
0010
0100
,
0010
0000
0100
0000
0001
0000
0010
1000
,
0001
0000
1000
0000
0001
0000
0001
1000
,
0001
0000
0100
0000
0001
0000
0100
0010
,
1000
0000
0100
0000
0100
0010
0100
0010
,
1000
0000
0001
0000
0100
0000
0001
0010
,
0001
0000
0100
0000
0010
0000
1000
0100
,
0010
0000
0001
0000
0100
0000
0001
0010
,
0100
0010
0001
1000
,
1001
0000
0000
0000
,
0000
0000
0000
0000
,
1001
0000
1000
0000
0001
0100
0001
0020
,
0100
0000
0130
0010
0001
1000
0100
1000
,
0000
0000
1000
0010
1000
0001
0000
0100
,
0001
0000
0010
0001
0100
0010
1000
0001
,
0100
0000
0010
1000
0010
0100
0001
0100
,
0000
0000
1000
0100
0001
0100
0000
0000
,
0011
1100
1010
0101
,
0001
0100
0001
0100
1000
0100
1000
0100
,
0010
0000
1001
0000
0001
0010
1000
0020
,
0000
0032
0000
0103
0010
1000
0001
0000
,
0001
0000
0101
0000
0010
1000
0100
2000
,
0000
0010
3010
0200
0000
0010
0310
0000
,
1000
0000
1001
0000
0010
0001
0100
0020
,
0000
2030
0000
3100
0010
0001
0001
0000
,
1000
0000
1010
0000
0100
0001
1000
2001
,
0000
0010
3010
1002
0000
1000
1000
0003
,
0010
0000
0000
0000
;
