#TITLE:Domo Domo Domo;
#SUBTITLE:;
#ARTIST:SMiLE.dk;
#TITLETRANSLIT:;
#SUBTITLETRANSLIT:;
#ARTISTTRANSLIT:;
#GENRE:;
#CREDIT:;
#MENUCOLOR:;
#NEWMETERSYSTEM:NO;
#BANNER:Domo Domo Domo-bn.png;
#BACKGROUND:Domo Domo Domo-bg.png;
#LYRICSPATH:;
#CDTITLE:MixMania 4 CD Title.png;
#MUSIC:Domo Domo Domo.mp3;
#OFFSET:-0.900;
#SAMPLESTART:48.880;
#SAMPLELENGTH:12.000;
#SELECTABLE:YES;
#LISTSORT:;
#BPMS:0.000=140.000;
#STOPS:;
#BGCHANGES:;
#ATTACKS:;

//---------------dance-single - ----------------
#NOTES:
     dance-single:
     :
     Easy:
     4:
     0.335,0.397,0.154,0.262,0.000:
0000
0000
0000
0000
,
0000
0000
0000
0000
,
0000
0000
0000
0000
,
0000
0000
0000
0000
,
0001
0100
1000
0100
,
0001
0100
1000
0100
,
0001
0010
1000
0010
,
0001
0010
1000
0010
,
0001
0100
0010
1000
,
0001
0100
0010
1000
,
0010
0100
0001
1000
,
0010
0100
0001
1000
,
0010
0010
0010
0010
,
1000
1000
1000
1000
,
0001
1000
0001
0000
,
0100
0010
0100
0000
,
1000
1000
1000
1000
,
0100
0100
0100
0100
,
0010
0100
0010
0000
,
0001
1000
0001
1000
,
0020
0130
0002
0103
,
2000
3100
0020
0130
,
0001
0010
0100
1000
,
0002
1003
0100
0000
,
0020
0130
2000
3100
,
0020
0031
0002
0103
,
1001
0000
1001
0000
,
1001
1001
1001
0000
,
0010
0100
0020
1030
,
0100
1000
0010
0100
,
0001
0010
0100
0000
,
1000
0100
0020
0000
,
0031
0100
1000
0100
,
0001
1000
0100
1000
,
0020
2030
3100
0000
,
0011
0101
1100
0000
,
0001
0100
0010
1000
,
0001
0100
0010
1000
,
0010
0100
0001
1000
,
0010
0100
0001
1000
,
0100
0100
0100
0100
,
0001
0001
0001
0001
,
1000
0010
1000
0000
,
0001
0100
0001
0000
,
0010
0010
0010
0010
,
0100
0100
0100
0100
,
1000
0100
1000
0000
,
0010
0100
0010
0100
,
0002
1003
0200
1300
,
2000
3001
0200
0310
,
2000
3001
0020
0130
,
2000
3001
0010
0000
,
0200
0310
0002
1003
,
0200
1300
0020
0130
,
1001
0000
1001
0000
,
1001
1001
1001
0000
,
0010
0100
0020
1030
,
0001
0100
0010
1000
,
0100
0010
0100
0000
,
0001
0100
0020
0000
,
1030
0100
1000
0100
,
0001
0100
0010
1000
,
0020
0230
0301
0000
,
1010
0101
1001
0000
,
0001
1000
0000
0001
,
0100
1000
0000
0000
,
0010
1000
0100
0010
,
0010
0001
0100
0010
,
1000
0001
0000
0010
,
0001
0100
0000
0000
,
0020
0230
0301
1000
,
0200
2300
3010
0100
,
0002
2003
3001
0000
,
1001
1001
1001
0110
;

//---------------dance-single - Copied from----------------
#NOTES:
     dance-single:
     Copied from:
     Beginner:
     1:
     0.102,0.170,0.038,0.023,0.000:
0000
0000
0000
0000
,
0000
0000
0000
0000
,
0000
0000
0000
0000
,
0000
0000
0000
0000
,
0001
0000
0000
0000
,
1000
0000
0000
0000
,
0001
0000
0000
0000
,
1000
0000
0000
0000
,
0010
0000
0000
0000
,
0100
0000
0000
0000
,
0010
0000
0000
0000
,
0100
0000
0000
0000
,
0001
0000
0000
1000
,
1000
0000
0000
0000
,
0100
0000
0000
0000
,
0010
0000
0000
0000
,
0001
0000
0000
0010
,
0010
0000
0000
0000
,
0100
0000
0000
0000
,
1000
0000
0000
0000
,
1100
0000
0000
0000
,
0010
0000
0000
0000
,
0100
0000
0001
0000
,
0010
0000
0000
0000
,
0011
0000
0000
0000
,
0001
0000
0000
0000
,
1000
0000
1000
0000
,
1000
1000
1000
0000
,
0100
0000
0000
0000
,
0010
0000
0000
0000
,
0001
0000
0000
0000
,
0100
0000
0010
0000
,
1000
0000
0000
0000
,
0100
0000
0000
0000
,
0010
0000
0000
0000
,
0001
0000
0000
0000
,
0001
0000
0000
0000
,
0100
0000
0000
0000
,
0010
0000
0000
0000
,
1000
0000
0000
0000
,
0001
0000
0000
0000
,
1000
0000
0000
0000
,
0010
0000
0000
0000
,
0100
0000
0000
0000
,
0010
0000
0000
0000
,
1000
0000
0000
0000
,
0100
0000
0000
0000
,
0010
0000
0000
0000
,
1001
0000
0000
0000
,
0001
0000
0000
0000
,
1000
0000
0100
0000
,
0010
0000
0000
0000
,
0110
0000
0000
0000
,
0001
0000
0000
0000
,
0100
0000
0100
0000
,
0100
0100
0100
0000
,
0010
0000
0000
0000
,
1000
0000
0000
0000
,
0001
0000
0000
0000
,
0010
0000
0100
0000
,
0010
0000
0000
0000
,
0001
0000
0000
0000
,
0100
0000
0000
0000
,
0010
0000
0000
0000
,
1000
0000
0000
0001
,
0001
0000
0000
0000
,
0100
0000
0000
0000
,
0100
0000
0000
0000
,
1000
0000
0000
0010
,
0010
0000
0000
0000
,
0200
0000
0300
0000
,
0002
0000
0003
0000
,
2000
0000
3000
0000
,
0010
0000
0000
1001
;

//---------------dance-single - Copied from----------------
#NOTES:
     dance-single:
     Copied from:
     Medium:
     5:
     0.369,0.369,0.139,0.100,0.000:
0000
0000
0000
0000
,
0000
0000
0000
0000
,
0000
0000
0000
0000
,
0000
0000
0000
0000
,
0001
0100
0001
1000
0000
0100
0000
0000
,
1000
0100
0010
0001
,
1000
0010
1000
0100
0000
0100
0000
0000
,
0010
0001
0001
0000
,
0100
0001
0010
0100
0000
0010
0000
0000
,
0001
1000
0100
1000
,
0010
0100
0010
1000
0000
0001
0000
0000
,
0100
0001
1000
0000
,
0200
0000
1300
0000
0010
0000
0100
0001
,
0010
0100
0010
0001
,
1000
1000
1100
0000
,
0001
0001
0101
0011
,
0002
0000
0103
0000
0010
0000
1000
0001
,
0100
0010
0100
0010
,
1000
1000
1010
0000
,
0001
0001
0101
0011
,
0001
0000
0100
0000
0010
0000
1000
0100
,
0000
0010
0000
0001
0000
1000
0000
0000
,
0001
0000
0100
0001
0000
1000
0000
0020
,
0000
0000
0100
0130
,
1001
0000
0100
0000
0010
0000
1000
0001
,
0000
0100
0000
0001
0000
1000
0000
0100
,
0010
0000
0000
0100
0010
0000
0000
0100
,
0010
1001
1001
0000
,
0001
0100
1000
0100
,
0010
1000
0100
0000
0010
0000
0001
0000
,
1000
0100
0000
0010
0001
0000
0000
0100
,
0000
0001
0000
1000
0020
0000
0230
0000
,
0310
1000
0001
0000
0100
0001
1000
0000
,
0100
1000
0010
0100
,
0001
0000
0010
0001
0000
0001
0000
0100
,
0000
0002
0000
2000
0000
3003
0100
0000
,
0100
0001
1000
0010
0000
0100
0000
0000
,
0001
0000
0001
0000
1000
0001
0100
0000
,
0010
1000
0001
0100
0000
0010
0000
0000
,
0100
0010
1000
0000
,
0200
0000
1300
0000
0010
0000
0100
0001
,
0010
0100
1000
0001
,
0100
0010
0110
0000
,
0001
0001
1001
0110
,
0002
0000
0013
0000
0100
0000
1000
0010
,
0100
0001
1000
0100
,
0010
0001
0011
1000
,
0010
1000
1010
0101
,
0100
0000
0001
0000
1000
0000
0100
0010
,
0000
0001
0000
1000
0000
0010
0000
0000
,
0100
0000
0001
1000
0000
0100
0000
0010
,
0100
1000
0001
0100
,
1000
0000
0100
0000
0010
0000
1000
0001
,
0000
1000
0000
0100
0000
1000
0000
1000
,
0100
0000
0000
0100
0010
0000
0000
0010
,
0001
1001
1001
0000
,
0010
0100
0010
0000
1000
0000
0001
0000
,
1000
0100
1000
0000
0001
0000
0100
0000
,
0010
0001
0100
0000
0010
0000
1000
0000
,
0100
1000
0020
0230
,
0301
1000
0100
0000
1000
0010
0100
0000
,
0001
1000
0010
0100
,
0001
0010
0100
0000
1000
0000
0100
0000
,
0010
0100
0010
0000
0001
0000
1000
0000
,
0001
0000
0100
0000
1000
0010
0000
0100
,
0001
1000
0100
1000
,
0010
0100
0010
0000
1000
0001
1000
0000
,
0001
0100
0001
0000
1000
0100
1000
0000
,
0010
0000
0100
0000
0001
1000
0000
1000
,
0001
0100
0010
1000
,
0001
0010
0100
1000
0000
1000
0000
0000
,
0001
0010
0100
1000
0000
1000
0000
0000
,
0001
0010
0100
1000
0000
1000
0000
0001
,
0000
2000
0000
0002
0000
3003
0110
0000
;

//---------------dance-single - Copied from----------------
#NOTES:
     dance-single:
     Copied from:
     Hard:
     7:
     0.471,0.454,0.169,0.092,0.000:
0000
0000
0000
0000
,
0000
0000
0000
0000
,
0000
0000
0000
0000
,
0000
0000
0000
0000
,
0001
1000
0100
0010
0000
0100
0000
0010
,
0000
0001
1000
0000
0001
0100
0010
1000
,
0100
0010
0001
1000
0000
0001
0000
0100
,
0000
0010
0100
0000
0010
1000
0100
0010
,
0001
1000
0001
0100
0000
0001
0000
1000
,
0000
0100
1000
0000
0010
0100
0001
1000
,
0100
1000
0010
0100
0000
0010
0000
1000
,
0000
0100
0010
0000
0001
0010
0001
0100
,
0010
0000
1000
0000
0001
0100
1000
0100
,
0010
0000
1000
0000
0100
0000
0010
0001
,
1000
0100
0010
0000
0100
0000
0010
0000
,
0001
0100
0001
0000
1000
0100
1000
0000
,
0010
0000
0100
0000
0001
0010
0100
0010
,
0001
1000
0001
0100
,
0010
0100
0001
0000
1000
0000
0100
0000
,
1000
0010
0100
0010
1000
0000
1100
0000
,
1000
0000
0001
0000
0100
0000
0001
0010
,
0001
0000
1000
0100
1000
0000
0010
0000
,
0100
0000
0010
0100
0001
1000
0000
0100
,
0000
0001
2000
3200
,
0310
0000
0001
0100
0001
0000
1000
0100
,
0010
0100
0010
0001
0000
0100
0000
0001
,
0100
1000
1000
0100
1000
0010
0010
0100
,
1000
0000
0001
0000
0100
1000
0010
0000
,
0100
0010
0100
0010
0100
0010
0000
0100
,
0000
0001
1000
0100
2000
0000
3002
0000
,
0013
0001
0000
0100
0000
0000
0001
1000
,
0000
0100
1000
0010
0200
0000
0320
0000
,
1030
0100
1000
0100
1000
0100
0000
0010
,
0000
0001
0100
0001
1000
0100
0010
0000
,
0100
0010
0100
0002
0000
2003
0000
3010
,
0000
0110
0000
1001
0000
0000
0100
0000
,
0001
1000
0001
0010
0000
0100
0000
1000
,
0000
0010
1000
0000
0100
0010
0001
1000
,
0010
0100
0001
1000
0000
0010
0000
0100
,
0000
0001
0001
0000
0010
0001
0100
0010
,
1000
1100
0001
0101
,
0010
0110
1000
1001
,
0001
0100
0010
1000
0100
0010
0000
0100
,
0000
0010
0001
1000
0001
0100
0001
0000
,
1000
1010
0100
0110
,
0001
0011
0001
1001
,
0001
0100
1000
0100
0001
0010
0000
0100
,
1000
0010
0100
0001
1000
1000
0100
0000
,
1000
0000
0010
0100
0001
0000
0010
0100
,
1000
0000
0010
0100
0001
1000
0001
0000
,
0100
0000
0001
0010
0000
0100
1000
0010
,
0000
0100
0002
0023
,
0130
0000
0010
1000
0001
0000
0100
0001
,
0010
0100
0000
1000
0010
0100
0000
0001
,
1000
0100
0100
0010
0001
0100
0100
0001
,
1001
1100
1001
0010
,
0100
0001
1000
0001
0010
0001
0000
0100
,
0001
1000
0100
1000
0010
0000
0100
0000
,
0001
0010
0100
1000
0010
0000
0100
0001
,
0000
1000
0000
0001
0020
0000
0032
0000
,
0103
0010
1000
0001
0100
0001
0000
0010
,
0001
0100
0010
0000
1000
0000
0100
0000
,
1000
0010
0100
0001
0000
0001
0010
0001
,
0000
0110
0000
1010
0000
0000
1000
0000
,
0100
1000
0010
0000
0100
0001
0000
0010
,
0001
0000
0100
0000
0001
0000
1000
0010
,
0100
0001
1000
0000
1001
0000
0001
0010
,
0001
0100
0010
0000
1001
0000
0100
0000
,
1000
0010
0100
0000
0001
0010
0000
0010
,
0100
1000
0100
1000
,
0010
1000
0010
0100
0001
0010
0100
0000
,
0001
1000
0001
0010
0100
0010
0001
0000
,
1000
0010
0100
0001
0010
0100
1000
0011
,
0000
1001
0000
1100
0000
0000
0110
0000
;

//---------------dance-single - Copied from ----------------
#NOTES:
     dance-single:
     Copied from:
     Challenge:
     8:
     0.547,0.511,0.139,0.046,0.031: // measure 1
0000
0000
0000
0000
,  // measure 2
0000
0000
0000
0000
,  // measure 3
0000
0000
0000
0000
,  // measure 4
0000
0000
0000
0000
,  // measure 5
1000
0100
0010
0001
0000
0100
0000
0001
,  // measure 6
0000
0000
0010
0000
0001
0000
0000
0001
0100
0000
0010
0000
1000
0000
0100
0000
,  // measure 7
0010
0100
0010
0001
0000
1000
0000
0010
,  // measure 8
0000
0000
0100
0000
0010
0000
0000
1000
0100
0000
0010
0000
0100
0000
1000
0000
,  // measure 9
0001
0100
0010
0100
0000
0001
0000
1000
,  // measure 10
0000
0000
0100
0000
1000
0000
0000
0100
0010
0000
0100
0000
0001
0000
0100
0000
,  // measure 11
1000
0010
0100
0010
0000
1000
0000
0001
,  // measure 12
0000
0000
0100
0000
0010
0000
0000
0100
0001
0000
1000
0000
0010
0000
0100
0000
,  // measure 13
0001
0010
0001
0010
0001
0010
0001
0000
,  // measure 14
1000
0100
1000
0100
1000
0100
1000
0000
,  // measure 15
0010
0100
0010
0100
0001
1000
0000
0100
,  // measure 16
1000
0010
0100
0001
0100
0010
0100
0000
,  // measure 17
0001
1000
0001
1000
0001
1000
0001
0000
,  // measure 18
0100
0001
0100
0001
0100
0001
0100
0000
,  // measure 19
0010
1000
0010
1000
0010
0100
0000
0001
,  // measure 20
1000
0100
1000
0100
1000
0100
0010
0001
,  // measure 21
0100
0000
0110
0000
0001
0100
1000
0100
,  // measure 22
0010
1000
0100
0010
0001
0100
0001
0010
,  // measure 23
0100
0010
0001
1000
0100
0010
0100
1000
,  // measure 24
0010
0100
0001
1000
0002
0000
0203
0000
,  // measure 25
0310
1000
0100
0010
0100
0010
0001
1000
,  // measure 26
0001
0100
1000
0100
0010
1000
0100
0001
,  // measure 27
0010
0001
0001
0100
0010
1000
1000
0100
,  // measure 28
1000
0000
0000
0000
1010
0000
0000
0000
0101
0000
0001
1000
0001
0000
0000
0000
,  // measure 29
0100
0010
1000
0001
0100
0001
0000
0010
,  // measure 30
0001
0100
0010
1000
0001
0000
0100
0000
,  // measure 31
0010
1000
0100
0010
0001
0000
0100
1000
,  // measure 32
0100
1000
0010
1000
0010
0000
1010
0000
,  // measure 33
0100
0001
0010
0100
1000
0010
0000
0100
,  // measure 34
0001
1000
0010
0100
0001
0001
0010
0000
,  // measure 35
0100
1000
0010
0100
0000
0100
0010
0001
,  // measure 36
0000
0101
0000
1100
0000
0000
1010
0000
,  // measure 37
0100
1000
0010
0100
0000
0001
0000
1000
,  // measure 38
0000
0000
0100
0000
1000
0000
0000
0010
0100
0000
0001
0000
1000
0000
0100
0000
,  // measure 39
0010
0100
1000
0001
0000
0100
0000
1000
,  // measure 40
0000
0000
0100
0000
0010
0000
0000
1000
0100
0000
0010
0000
0001
0000
1000
0000
,  // measure 41
0100
0010
0100
0010
0100
0010
0100
0000
,  // measure 42
0001
1000
0001
1000
0001
1000
0001
0000
,  // measure 43
1000
0100
1000
0100
0010
0100
0000
1000
,  // measure 44
0001
0100
1000
0100
0001
1000
0100
0000
,  // measure 45
0010
0001
0010
0001
0010
0001
0010
0000
,  // measure 46
1000
0100
1000
0100
1000
0100
1000
0000
,  // measure 47
0001
0010
0001
0010
0100
0010
0000
0001
,  // measure 48
1000
0010
0100
0010
0100
0001
0010
0000
,  // measure 49
1001
0100
0001
1000
0010
0100
0001
0010
,  // measure 50
0100
0010
0001
1000
0100
1000
0100
0010
,  // measure 51
0100
0010
0001
1000
0001
0100
0010
1000
,  // measure 52
0010
0001
0010
0100
0020
0000
0230
0000
,  // measure 53
0301
0100
0010
1000
0001
0010
0100
1000
,  // measure 54
0001
0010
0001
1000
0001
0100
1000
0100
,  // measure 55
0010
0100
0100
1000
0001
0010
0010
0001
,  // measure 56
1000
0000
0000
0000
1100
0000
0000
0000
0101
0000
0100
0010
0100
0000
0000
0000
,  // measure 57
1000
0010
1000
0100
0010
0001
0000
0100
,  // measure 58
0001
1000
0001
0010
0100
0000
0100
0000
,  // measure 59
1000
0010
0100
0001
1000
0000
0001
0010
,  // measure 60
0100
0010
0001
0100
2000
0000
3020
0000
,  // measure 61
0130
0001
0010
0001
0100
0010
0000
1000
,  // measure 62
0100
1000
0010
0100
0001
1000
0001
0000
,  // measure 63
0100
0001
0010
0100
0000
0100
1000
0001
,  // measure 64
0000
0101
0000
1100
0000
0000
0110
0000
,  // measure 65
0001
0100
0100
0000
1000
0100
0010
0001
,  // measure 66
1000
0001
0100
0000
0001
0000
1000
0001
,  // measure 67
0010
0100
0010
0001
1000
0000
0001
0001
,  // measure 68
1000
0100
0010
0100
1000
0000
1001
0000
,  // measure 69
1000
0010
0100
0000
0001
0100
1000
0100
,  // measure 70
0001
0010
0100
0000
1000
0001
1000
0000
,  // measure 71
0001
0010
0100
1000
0001
0010
0100
0000
,  // measure 72
1000
0100
0010
0001
1000
0100
0010
0000
,  // measure 73
0001
1000
0001
1000
0010
0100
0010
0110
,  // measure 74
0000
1001
0000
0110
0000
0000
0110
0000
;
