#TITLE:Dive to Blue REMIX;
#SUBTITLE:;
#ARTIST:SHANDU;
#TITLETRANSLIT:;
#SUBTITLETRANSLIT:;
#ARTISTTRANSLIT:;
#GENRE:;
#CREDIT:;
#MENUCOLOR:;
#NEWMETERSYSTEM:NO;
#BANNER:Dive to Blue REMIX-bn.png;
#BACKGROUND:Dive to Blue REMIX-bg.png;
#LYRICSPATH:;
#CDTITLE:MixMania 4 CD Title.png;
#MUSIC:Dive to Blue REMIX.mp3;
#OFFSET:-0.080;
#SAMPLESTART:65.460;
#SAMPLELENGTH:12.000;
#SELECTABLE:YES;
#LISTSORT:;
#BPMS:0.000=150.000;
#STOPS:;
#BGCHANGES:;
#ATTACKS:;

//---------------dance-single - ----------------
#NOTES:
     dance-single:
     :
     Easy:
     3:
     0.213,0.237,0.000,0.037,0.000:
0000
0000
0000
0000
,
0000
0000
0000
0000
,
0000
0000
0000
0000
,
0000
0000
0000
0000
,
0000
0000
0000
0000
,
0001
0000
1000
0000
,
0001
0000
1000
0000
,
0100
0000
0010
0000
,
0001
0010
0001
0100
,
0010
0000
1000
0000
,
0001
0000
1000
0001
,
0100
0000
0010
0000
,
1000
0000
0100
0010
,
0001
0000
1000
0000
,
0001
0000
0010
0001
,
0100
0000
0010
0000
,
1000
0000
1000
0100
,
1000
0000
0010
0000
,
0100
0010
1000
0000
,
0100
0000
0010
0001
,
0100
0000
0001
0000
,
1000
0000
0100
0010
,
0100
0000
0010
0000
,
0001
0100
1000
0100
,
0002
0000
2000
3003
,
0100
0000
0100
0010
,
0100
0000
0100
0010
,
0001
0000
1000
0100
,
1000
0000
0001
0010
,
0100
0000
1000
0010
,
0100
0000
0001
0100
,
0010
0000
1000
0001
,
0010
0000
0100
1000
,
0100
0000
0010
0000
,
0100
0000
0010
0000
,
0001
0000
1000
0000
,
0001
0000
0100
1000
,
0100
0000
0010
0000
,
1000
0000
0100
0001
,
0100
0000
1000
0000
,
0010
0100
0010
0100
,
0001
0000
1000
0000
,
0100
0000
0010
0000
,
0001
0000
1000
0000
,
0001
0000
0100
0000
,
0010
1000
0001
0100
,
0010
1000
0100
0010
,
0001
0100
0000
0100
,
0001
0000
0001
0000
,
1000
0000
0100
0000
,
0010
0000
0100
0000
,
1000
0000
0001
0000
,
0100
0000
0010
0000
,
0100
0001
0010
0001
,
1000
0100
1000
0010
,
0100
0010
0000
0010
,
0200
0000
0001
0300
,
0010
1000
0001
0100
,
0001
0000
1000
0100
,
1000
0000
0010
0100
,
0001
0000
0010
0100
,
0010
0000
0001
0000
,
1000
0000
0001
0000
,
0100
0100
0100
0020
,
0000
0000
0000
0030
0000
0000
0000
0000
;

//---------------dance-single - Copied from----------------
#NOTES:
     dance-single:
     Copied from:
     Beginner:
     1:
     0.093,0.146,0.000,0.037,0.000:
0000
0000
0000
0000
,
0000
0000
0000
0000
,
0000
0000
0000
0000
,
0000
0000
0000
0000
,
0000
0000
0000
0000
,
1000
0000
0000
0000
,
0000
0000
0000
0000
,
0001
0000
0000
0000
,
0010
0000
0000
0000
,
0100
0000
0000
0000
,
0010
0000
0000
0000
,
1000
0000
0000
0000
,
0001
0000
0000
0000
,
0100
0000
0000
0000
,
0010
0000
0000
0000
,
0010
0000
0000
0000
,
1000
0000
0000
0000
,
0001
0000
0000
0000
,
1000
0000
0000
0000
,
0100
0000
0000
0000
,
1000
0000
0000
0000
,
0010
0000
0000
0000
,
0100
0000
0000
0000
,
0001
0000
0000
0000
,
1000
0000
0000
0000
,
0010
0000
0000
0000
,
0001
0000
0000
0000
,
1000
0000
0000
0000
,
0100
0000
0000
0000
,
0010
0000
0000
0000
,
0001
0000
0000
0000
,
1000
0000
0000
0000
,
0100
0000
0000
0000
,
2000
0000
3000
0000
,
0100
0000
0000
0000
,
0002
0000
0003
0000
,
0100
0000
0000
0000
,
0020
0000
0030
0000
,
1000
0000
0000
0000
,
0020
0000
0030
0000
,
0001
0000
0000
0000
,
1000
0000
0001
0000
,
1000
0000
0001
0000
,
0100
0000
0001
0000
,
0100
0000
0001
0000
,
1000
0000
0000
0000
,
0010
0000
0000
0000
,
1000
0000
0000
0000
,
1000
0000
0000
0000
,
0001
0000
0100
0000
,
0001
0000
0100
0000
,
0001
0000
1000
0000
,
0001
0000
1000
0000
,
0010
0000
0000
0000
,
1000
0000
0000
0000
,
0100
0000
0000
0000
,
0010
0000
0000
0000
,
0001
0000
0000
0000
,
0100
0000
0000
0000
,
0010
0000
0000
0000
,
1000
0000
0000
0000
,
0100
0000
0000
0000
,
0010
0000
0000
0000
,
0001
0000
0000
1000
;

//---------------dance-single - Copied from----------------
#NOTES:
     dance-single:
     Copied from:
     Hard:
     6:
     0.408,0.414,0.028,0.101,0.000: // measure 1
0000
0000
0000
0000
,  // measure 2
0000
0000
0000
0000
,  // measure 3
0000
0000
0000
0000
,  // measure 4
0000
0000
0000
0000
,  // measure 5
0000
0000
0000
0000
,  // measure 6
0000
0000
0100
0000
0000
1000
0000
0000
,  // measure 7
0010
0000
0000
0100
0000
0000
0001
0000
,  // measure 8
0000
0000
0010
0000
0000
0001
0000
0000
,  // measure 9
0100
0000
0001
0000
1000
0010
1000
0000
,  // measure 10
1001
1000
0001
0100
,  // measure 11
0001
0000
1000
0001
0000
1000
0001
0000
,  // measure 12
0010
0001
0100
0010
,  // measure 13
0100
0000
0010
2000
0000
0000
3100
0000
,  // measure 14
0010
0001
0100
0001
,  // measure 15
1000
0000
0100
0010
0000
0001
0010
0000
,  // measure 16
0001
0000
0100
0010
0000
1000
0001
0000
,  // measure 17
0100
0000
0001
0000
1000
0000
0100
0020
,  // measure 18
0000
0030
0100
0000
1000
0000
0001
0000
,  // measure 19
0100
0000
0001
0000
0010
0001
0100
0000
,  // measure 20
0010
0000
1000
0000
0001
0000
1000
0001
,  // measure 21
1000
0000
0001
0000
0100
0010
1000
0100
,  // measure 22
0000
0010
0000
0100
0000
0010
0000
0001
,  // measure 23
0000
1000
0000
0001
2000
0100
3000
0010
,  // measure 24
0001
0000
0001
0000
0100
0000
0001
1000
,  // measure 25
0000
0001
0100
0000
0010
1000
0000
0100
,  // measure 26
0000
0010
0001
0000
1000
0001
0000
0100
,  // measure 27
0000
0001
0100
0000
0010
1000
0000
0100
,  // measure 28
0000
0100
0010
0000
0001
1000
0000
0001
,  // measure 29
0000
0100
0001
0000
0010
0100
1000
0100
,  // measure 30
0000
0010
0001
0000
1000
0001
0000
0100
,  // measure 31
0000
0100
0001
0000
1000
0001
0000
0100
,  // measure 32
0000
0010
1000
0000
0100
0010
0000
0100
,  // measure 33
0000
0010
0001
0000
1000
0001
0100
1000
,  // measure 34
0100
0000
0010
1000
0000
0001
0100
0000
,  // measure 35
0001
0000
1000
0001
0100
0000
0001
0000
,  // measure 36
1000
0000
0010
0000
1000
0001
1000
0000
,  // measure 37
0100
0000
1000
0001
1000
0000
0001
0000
,  // measure 38
0010
0000
0001
0000
1000
0001
1000
0000
,  // measure 39
0001
0000
0100
0001
0010
0000
0100
0000
,  // measure 40
1000
0010
1000
0001
,  // measure 41
0010
0001
0010
0001
1000
0000
1001
0000
,  // measure 42
0100
0000
0010
1000
0000
0001
0100
0001
,  // measure 43
0000
1000
0100
1000
0000
0010
0100
0010
,  // measure 44
0000
0001
0100
0001
0000
0010
0001
0010
,  // measure 45
0000
1000
0010
1000
0000
0100
1000
0100
,  // measure 46
0010
0000
0001
0100
0000
0010
1000
0000
,  // measure 47
0100
1000
0000
0010
0100
0000
0001
0010
,  // measure 48
0001
0000
0100
0001
0000
1000
0100
1000
,  // measure 49
0020
0000
0230
0000
0302
0000
0103
0001
,  // measure 50
0000
0100
0001
1000
0000
0100
1000
0010
,  // measure 51
0000
0100
0001
0010
0000
0100
0010
0100
,  // measure 52
0000
1000
0001
0100
0000
1000
0001
0010
,  // measure 53
0000
0100
1000
0010
0000
0100
0001
1000
,  // measure 54
0001
0100
1000
0100
0001
0000
0010
0000
,  // measure 55
0001
0100
0010
0001
0100
0000
1000
0000
,  // measure 56
0010
1000
0100
0010
0100
0000
1000
0000
,  // measure 57
0002
0203
0320
1030
,  // measure 58
1100
0001
0100
1000
,  // measure 59
0100
0000
0010
0000
1000
0000
0001
0001
,  // measure 60
1000
0100
0010
0001
,  // measure 61
0100
0000
0001
0000
1000
0000
0010
0010
,  // measure 62
0100
0000
0001
1000
0001
0000
0100
0001
,  // measure 63
0010
0000
0100
1000
0010
0000
0100
0000
,  // measure 64
0001
1000
1000
0001
1000
0001
0002
0020
,  // measure 65
0000
0000
0000
0033
0000
0000
0000
0000
;

//---------------dance-single - Copied from----------------
#NOTES:
     dance-single:
     Copied from:
     Medium:
     4:
     0.285,0.325,0.083,0.110,0.000: // measure 1
0000
0000
0000
0000
,  // measure 2
0000
0000
0000
0000
,  // measure 3
0000
0000
0000
0000
,  // measure 4
0000
0000
0000
0000
,  // measure 5
0000
0000
0000
0000
,  // measure 6
0000
0000
0001
0000
0000
1000
0000
0000
,  // measure 7
0001
0000
0000
0100
0000
0000
0001
0000
,  // measure 8
0000
0000
1000
0000
0000
0100
0000
0000
,  // measure 9
1000
0010
0100
0001
,  // measure 10
0011
0001
1000
0001
,  // measure 11
0100
0000
0000
0010
0000
0000
1000
0000
,  // measure 12
0100
1000
0010
0100
,  // measure 13
0001
0000
0000
1000
0000
0000
0100
0000
,  // measure 14
1001
0010
0001
0010
,  // measure 15
0100
0000
0000
1000
0000
0000
0010
0000
,  // measure 16
0100
0000
0000
0001
0000
0000
0010
0000
,  // measure 17
0001
0000
0000
0001
0000
0000
1000
0000
,  // measure 18
0100
0010
1000
0001
,  // measure 19
1000
0100
0010
0100
,  // measure 20
1000
0001
0010
0100
,  // measure 21
0001
0000
0100
0000
0001
1000
0000
0100
,  // measure 22
0000
0010
0100
0010
,  // measure 23
0001
0000
1000
0000
0001
0100
0000
0001
,  // measure 24
0000
1000
0100
1000
,  // measure 25
0010
0000
0100
0000
0010
0000
0000
0010
,  // measure 26
0000
0000
1000
0000
0100
0000
0000
1001
,  // measure 27
0000
0000
0100
0000
0001
0000
0000
0001
,  // measure 28
0000
0000
0100
0000
0010
0000
0000
0110
,  // measure 29
0000
1000
0100
0001
,  // measure 30
0100
0000
1000
0000
0010
0000
0000
0001
,  // measure 31
0000
0000
1000
0000
0100
0000
0000
0110
,  // measure 32
0000
0000
0010
0000
0001
0000
0000
0001
,  // measure 33
0000
0100
0010
1000
,  // measure 34
0001
0000
1000
0000
,  // measure 35
0100
1000
0010
0000
,  // measure 36
0100
0010
0001
0010
,  // measure 37
0100
0010
1000
0001
,  // measure 38
0100
0000
0001
1000
,  // measure 39
0001
0000
1000
0100
,  // measure 40
0010
0100
1000
0001
,  // measure 41
0010
0000
0100
0000
0010
0001
0010
0002
,  // measure 42
0000
0000
0000
1003
0000
0000
0000
2000
,  // measure 43
0000
0000
0000
3010
0000
0000
0000
0200
,  // measure 44
0000
0000
0000
0301
0000
0000
0000
0020
,  // measure 45
0000
0000
0000
1030
0000
0000
0000
0000
,  // measure 46
0100
0001
1000
0001
,  // measure 47
0010
0100
1000
0001
,  // measure 48
0100
0020
1030
0200
,  // measure 49
0310
0000
0001
0000
1000
0000
0001
0020
,  // measure 50
0000
0000
0000
0031
0000
0000
0000
0200
,  // measure 51
0000
0000
0000
0310
0000
0000
0000
2000
,  // measure 52
0000
0000
0000
3100
0000
0000
0000
0020
,  // measure 53
0000
0000
0000
0130
0000
0000
0010
0000
,  // measure 54
1000
0001
0100
1000
,  // measure 55
0100
0001
0010
0100
,  // measure 56
1000
1001
0001
1001
,  // measure 57
0020
0100
0130
0000
,  // measure 58
0001
0100
0001
1000
,  // measure 59
0100
0010
0100
1000
,  // measure 60
0001
1000
0010
0100
,  // measure 61
0001
0000
1000
0000
0100
0000
0010
0001
,  // measure 62
0000
0000
0000
1001
0000
0000
0000
1000
,  // measure 63
0000
0000
0000
0110
0000
0000
0000
0000
,  // measure 64
0001
0000
1000
0000
0001
0000
0100
0020
,  // measure 65
0000
0000
0000
0030
0000
0000
0000
0000
;

//---------------dance-single - Copied from----------------
#NOTES:
     dance-single:
     Copied from:
     Challenge:
     7:
     0.543,0.503,0.193,0.165,0.000:
0000
0000
0000
0000
,
0000
0000
0000
0000
,
0000
0000
0000
0000
,
0000
0000
0000
0000
,
0020
0000
0000
0000
1000
0000
0031
0100
,
0100
0000
0010
1000
0000
0001
0100
0000
,
0010
1000
0000
0100
0010
0000
0001
0100
,
0001
1000
0100
0000
0010
0100
0000
0001
,
0100
0000
1000
0000
0100
0010
0100
0001
,
1000
0000
0100
0010
0001
0000
1000
0000
,
0001
0100
1000
0100
0010
0100
0001
0000
,
1000
0000
0001
0100
0010
0000
1000
0000
,
0001
1000
0100
0010
0100
1000
0001
0000
,
0100
0000
0001
1000
0010
0000
0100
0000
,
1000
0100
0010
0100
0010
0001
0100
0000
,
0001
0000
1000
0100
0000
0100
0010
0000
,
0001
0000
0100
0000
1000
0000
0100
0001
,
0000
1000
0100
0000
0010
0100
0010
0001
,
0000
1000
0100
0000
0001
1000
0001
0100
,
0000
0010
1000
0000
0010
0100
0001
2000
,
0000
0100
3100
0000
0010
0100
0010
0001
,
0000
1000
0001
0100
0001
1000
0010
0100
,
0001
0010
0100
0000
1000
0100
1000
0010
,
0000
0100
0001
0000
1000
0010
0100
0001
,
0000
0001
0010
0000
0100
1000
0000
0010
,
0000
0100
0001
1000
0001
0010
0000
0110
,
0000
1000
0001
1000
0100
0010
0000
1001
,
0000
0100
0010
0001
0010
0100
0000
0110
,
0000
1000
0001
1000
0001
0100
0000
1001
,
0000
0100
0010
0001
1000
0001
0000
1001
,
0000
0100
0010
0001
1000
0100
0000
0110
,
0000
0100
1000
0001
0010
0100
0000
1100
,
0000
0010
1000
0001
1000
0100
0000
0001
,
1001
0000
0010
0000
0100
0001
1000
0000
,
0100
0010
0100
0010
1000
0100
0010
0000
,
0001
0000
0100
0000
0001
1000
0001
0000
,
0010
0001
0010
0001
0100
0010
0001
0000
,
0100
0000
0001
0000
1000
0001
0010
0000
,
0100
0010
1000
0010
0100
0001
0010
0000
,
0001
0100
0001
0100
0001
1000
0010
1000
,
0010
1000
0100
0010
0100
0010
0001
1001
,
0000
0001
0100
0020
0000
0130
0010
2000
,
0000
3100
0010
0002
0000
0103
0010
0200
,
0000
0301
0100
0002
0000
0013
0100
0020
,
0000
0130
0001
2000
0000
3100
0010
0001
,
0100
0001
1000
0100
1000
0100
0010
0100
,
0001
0100
1000
0010
0100
0001
0010
0100
,
1000
0001
1001
0000
0010
0100
0110
0000
,
0001
0100
1000
0100
0001
0010
0100
0110
,
0000
1000
0100
0002
0000
0103
0010
2000
,
0000
3010
0100
0020
0000
1030
0100
0200
,
0000
0310
0001
0200
0000
0301
1000
0020
,
0000
1030
0001
2000
0000
3100
0010
0001
,
0100
0001
1000
0100
1000
0010
0100
0001
,
0010
1000
0010
0001
0100
0010
1000
0100
,
0010
0001
0011
0000
0001
1000
1100
0000
,
0100
0001
1000
0100
0010
0100
0001
1000
,
1001
0000
0100
0010
0001
0000
0100
0010
,
1000
0000
0001
0100
1000
0100
0001
0000
,
1001
0000
0010
1000
0100
0000
0010
0001
,
0100
0000
0010
1000
0010
0001
0010
0110
,
0000
0001
1000
1001
0000
0100
0010
0011
,
0000
0010
0100
1100
0000
1000
0100
0001
,
0100
0100
0010
1000
0001
1000
0100
2002
,
0000
0000
0000
3003
0000
0000
0000
0000
;
