#TITLE:Debtty Daddy;
#SUBTITLE:;
#ARTIST:sampling masters AYA;
#TITLETRANSLIT:;
#SUBTITLETRANSLIT:;
#ARTISTTRANSLIT:;
#GENRE:;
#CREDIT:;
#MENUCOLOR:;
#NEWMETERSYSTEM:NO;
#BANNER:Debtty Daddy-bn.png;
#BACKGROUND:Debtty Daddy-bg.png;
#LYRICSPATH:;
#CDTITLE:MixMania 4 CD Title.png;
#MUSIC:Debtty Daddy.mp3;
#OFFSET:-0.360;
#SAMPLESTART:49.880;
#SAMPLELENGTH:12.000;
#SELECTABLE:YES;
#LISTSORT:;
#BPMS:0.000=155.000;
#STOPS:;
#BGCHANGES:;
#ATTACKS:;

//---------------dance-single - ----------------
#NOTES:
     dance-single:
     :
     Easy:
     4:
     0.314,0.396,0.022,0.213,0.000:
0000
0000
0000
0000
,
0000
0000
0000
0000
,
0000
0000
0000
0000
,
0000
0000
0000
0000
,
0000
0000
0000
0000
,
0000
0000
0000
0000
,
0000
0000
0000
0000
,
0000
0000
0000
0000
,
1000
1000
0100
0010
,
0001
1000
0001
0100
,
0010
1000
0001
0100
,
0001
1000
0100
1000
,
0010
0100
0010
1000
,
0100
0010
0001
1000
,
0001
0010
0100
0010
,
0001
1000
0001
0100
,
0001
1000
0000
1000
,
0000
0010
0000
0010
,
0100
0001
0000
0001
,
0000
1000
0000
1000
,
1100
0010
0100
0001
,
1000
0001
0010
0002
,
0100
0100
0010
0013
,
1000
0100
1000
0100
,
0010
0100
0010
0001
,
1000
0010
0100
0000
,
0001
1000
0001
1000
,
0010
0001
0010
1000
,
0100
1000
0010
0100
,
0001
0010
0010
0100
,
1000
0010
0100
0001
,
0010
0010
0100
1000
,
0001
0100
0000
0100
,
0000
0100
0000
0010
,
1000
0001
0000
0001
,
0000
0001
0000
1000
,
0100
0010
0000
0010
,
0000
0010
0000
0010
,
0001
1000
0000
1000
,
0000
1000
0000
1000
,
0100
0010
0001
1000
,
0100
0010
0002
0103
,
0010
1000
0001
0010
,
0100
1000
0002
0013
,
0100
1000
0001
1000
,
0100
0010
1000
0010
,
0100
0001
1000
0001
,
0100
0010
1000
0100
,
1000
0100
0010
0001
,
0010
0001
0100
0001
,
0001
0010
0100
1000
,
0010
1000
0100
1000
,
0200
0310
0002
1003
,
0020
1030
0200
0310
,
0002
1003
0020
0031
,
0200
0310
2000
3100
,
0010
0100
0010
0001
,
1000
0010
0100
1000
,
0010
0100
0001
1000
,
0100
0010
0001
0000
,
1001
0010
0010
0001
,
0100
0001
1000
0020
,
0100
0100
1000
1030
,
0001
1000
0001
0100
,
0002
0010
0103
0000
,
2000
0100
3010
0000
,
0002
1000
0013
0000
,
2000
0001
3010
0000
,
0110
0010
1000
0100
,
0010
0001
2000
3200
,
0310
0001
1000
0001
,
0100
0001
0020
0032
,
0103
0010
1000
0001
,
1000
0010
0200
0320
,
1030
0100
0010
0001
,
2000
3001
2000
3010
,
0100
0001
0010
0001
,
2000
3200
0320
0032
,
0103
1000
0000
1000
,
0000
0001
0000
0001
,
1000
0010
0000
0010
,
0000
0100
0000
0100
,
0020
0000
0000
0030
;

//---------------dance-single - Copied from----------------
#NOTES:
     dance-single:
     Copied from:
     Beginner:
     1:
     0.107,0.151,0.044,0.081,0.000:
0000
0000
0000
0000
,
0000
0000
0000
0000
,
0000
0000
0000
0000
,
0000
0000
0000
0000
,
0020
0000
0000
0000
,
0000
0000
0000
0000
,
0030
0000
0000
0000
,
0000
0000
0000
0000
,
0010
0000
0000
0000
,
1000
0000
0000
0000
,
0100
0000
0000
0000
,
1000
0000
0000
0000
,
0001
0000
0000
0000
,
0001
0000
0000
0000
,
0010
0000
0000
0000
,
0100
0000
0000
0000
,
2000
0000
0000
0000
,
3000
0000
0000
0000
,
0002
0000
0000
0000
,
0003
0000
0000
0000
,
0100
0000
0000
0000
,
0100
0000
0000
0010
,
0010
0000
0010
0000
,
0010
0000
0010
0000
,
1000
0000
0000
0000
,
0100
0000
0000
0000
,
0010
0000
0001
0000
,
0010
0000
0000
0000
,
0001
0000
1000
0000
,
0001
0000
0000
0000
,
0100
0000
0010
0000
,
0100
0000
0000
0000
,
2002
0000
0000
0000
,
0000
0000
0000
3003
,
0000
0000
0000
0000
,
0000
0000
0000
0000
,
0220
0000
0000
0000
,
0000
0000
0000
0330
,
0000
0000
0000
0000
,
0000
0000
0000
0000
,
0001
0000
0001
0000
,
0001
0000
0000
0000
,
1000
0000
1000
0000
,
1000
0000
0000
0000
,
0010
0000
0100
0000
,
0010
0000
0100
0000
,
0001
0000
1000
0000
,
0001
0000
1000
0000
,
0002
0000
0003
0000
,
0200
0000
0300
0000
,
0020
0000
0030
0000
,
2000
0000
3000
0000
,
0100
0000
0000
0000
,
0010
0000
0000
0000
,
0100
0000
0000
0000
,
0001
0000
0000
0000
,
1000
0000
1000
0000
,
0001
0000
0001
0000
,
0100
0000
0100
0000
,
0010
0000
0000
0000
,
1001
0000
0000
0000
,
0001
0000
0000
0100
,
0100
0000
0000
0000
,
0010
0000
0000
0000
,
1000
0000
0000
0000
,
0100
0000
0000
0010
,
0010
0000
0000
0000
,
0001
0000
0000
0000
,
1001
0000
0000
0000
,
0010
0000
0000
0000
,
0100
0000
0000
0000
,
0010
0000
0010
0000
,
0010
0000
0000
0000
,
1000
0000
0000
0000
,
0001
0000
0000
0000
,
0100
0000
0100
0000
,
0100
0000
0000
0000
,
0001
0000
0001
0000
,
1001
0000
0000
0000
,
0000
0000
0000
0000
,
0000
0000
0000
0000
,
0000
0000
0000
0000
,
1001
0000
0000
0000
;

//---------------dance-single - Copied from----------------
#NOTES:
     dance-single:
     Copied from:
     Medium:
     5:
     0.357,0.486,0.118,0.132,0.000:
0000
0000
0000
0000
,
0000
0000
0000
0000
,
0000
0000
0000
0000
,
0000
0000
0000
0000
,
0000
0000
0000
0000
,
0000
0000
0000
0000
,
0000
0000
0000
0000
,
1000
0001
1000
0001
,
1001
0000
0000
0010
0000
0000
0100
0000
,
1001
0000
0000
0010
0000
0000
0001
0000
,
0101
0000
0000
1000
0000
0000
0100
0000
,
0110
0000
0000
0010
0000
0000
0001
0000
,
0101
1000
0100
1000
,
0010
0100
0001
0010
,
0100
1000
0010
0100
,
0020
0000
0230
0000
,
0301
1000
0001
1000
,
0001
0100
0001
1001
,
0010
1000
0100
0010
,
0001
1000
0001
1010
,
0100
0100
0010
0001
,
1000
0000
0001
0000
0100
0001
0010
0001
,
0020
0230
2300
3020
,
0230
0302
0023
0031
,
0100
0000
0001
0000
1000
0000
0010
1000
,
0100
0100
0011
0001
,
1000
0000
0001
0000
0100
0001
0010
0100
,
1000
0100
1000
0000
,
0010
0000
0010
1000
0100
0000
0100
0000
,
1000
0000
0010
0100
0001
0000
1000
0000
,
0010
0000
0001
0010
0001
0000
0100
0000
,
0010
1000
0001
0100
,
0020
1000
0000
1000
,
0000
0100
0030
0110
,
0200
0010
0000
0001
,
0000
0010
0300
1001
,
0002
0100
0000
0010
,
0000
0100
0003
1001
,
2000
0100
0000
0010
,
0000
0100
0000
3001
,
0001
0100
0010
1000
,
0100
0000
1000
0000
0010
0100
0001
0010
,
0100
0010
1000
0001
,
0100
0000
0010
0000
1000
0001
1000
0000
,
0010
0000
0100
0001
0000
0010
0000
0000
,
0001
0000
0100
0010
0000
1000
0000
0000
,
0001
0000
1000
0100
0000
1000
0000
0000
,
0010
0000
0100
0001
0000
0100
0000
0000
,
0010
0000
1000
0001
1000
0000
0100
0000
,
0010
0000
0001
1000
0001
0000
0100
0000
,
0010
0000
1000
0001
1000
0000
0100
0000
,
0010
1000
0100
0010
,
0001
0100
0010
1000
,
0001
0000
0100
0000
0010
1000
0100
0000
,
0010
0001
1000
0100
,
0010
0000
0001
0000
1000
0100
1000
0000
,
1001
0000
0010
0000
0001
0100
0010
1000
,
0100
0000
1000
0000
0010
0100
0001
1000
,
0100
0000
1000
0000
0010
0100
0010
1000
,
0100
0010
0001
0000
,
1001
0000
0001
0100
,
1000
0000
0100
0000
0100
0010
0100
0010
,
0100
0000
0010
0000
0001
0000
1000
0001
,
0100
0010
1000
0000
,
1001
0000
0010
0001
,
1000
0010
0100
0010
1000
0000
0100
0000
,
0010
0001
0100
0001
,
1000
0000
0001
0000
1000
0001
1000
0000
,
0110
0001
0100
1000
,
0100
0000
0001
0000
0010
0000
0001
0100
,
0010
1000
0100
0001
,
0100
0000
1000
0000
0100
0000
0001
0010
,
0100
1000
0100
0010
,
0100
0000
1000
0000
0100
0000
0010
0001
,
0100
0001
0100
1000
,
0100
0000
0001
0000
0100
0000
1000
0010
,
0100
0001
0010
0001
,
0200
0000
0320
0000
1030
0100
0200
0000
,
0310
0001
0000
1000
,
0000
0000
0001
0000
0000
0000
1000
0100
,
0010
0001
0000
0100
,
0000
0001
0000
1000
,
0220
0000
0330
0000
;

//---------------dance-single - Copied from----------------
#NOTES:
     dance-single:
     Copied from:
     Hard:
     8:
     0.537,0.548,0.280,0.110,0.096:
0000
0000
0000
0000
,
0000
0000
0000
0000
,
0000
0000
0000
0000
,
0000
0000
0000
0000
,
0000
0000
0000
0000
,
0000
0000
0000
0000
,
0000
0000
0000
0000
,
0001
0100
0010
1000
0001
0100
0010
1000
,
0010
0000
0000
0100
0000
0000
0001
0000
0000
0000
1000
0000
0100
0000
0010
0000
,
0100
0000
0000
0001
0000
0000
1000
0000
0000
0000
0010
0000
0100
0000
0010
0000
,
1000
0000
0000
0001
0000
0000
1000
0000
0000
0000
0100
0000
0010
0000
0001
0000
,
1000
0000
0000
0010
0000
0000
0100
0000
0000
0000
0010
0000
1000
0000
0001
0000
,
0101
0000
0000
1000
0000
0000
1100
0000
0000
0000
1000
0000
0010
0000
0100
0000
,
1001
0000
0000
0010
0000
0000
0110
0000
0000
0000
0010
0000
1000
0000
0001
0000
,
0011
0000
0000
0100
0000
0000
1100
0000
0000
0000
1000
0000
0100
0000
0010
0000
,
1001
0000
0000
0010
0000
0000
1001
0000
0000
0000
0010
0000
0001
0000
0100
0000
,
0010
1000
0010
0100
0010
1000
0010
0001
,
0010
1000
0010
0100
0010
1000
0010
0000
,
0001
0010
0001
0100
0001
0010
0001
1000
,
0001
0010
0001
0100
0001
0010
0001
0000
,
1001
0000
0010
0100
0001
0000
0100
0010
,
1000
0000
0000
0000
0100
0000
0010
0000
1000
0000
0001
1000
0001
1000
0001
0000
,
0100
0010
1000
0100
,
0010
0001
0100
0000
0010
1000
0100
0000
,
0010
0000
0100
0000
0001
1000
0001
0100
,
0002
0000
1000
1003
0100
0000
0110
0000
,
1000
0100
1000
0010
0100
0001
0010
0001
,
0200
0000
0320
1000
0130
0000
1001
0000
,
0010
0001
0100
0010
1000
0100
1000
0000
,
0100
1000
0010
0100
0001
0010
0001
0000
,
0010
0001
0100
0010
1000
0100
1000
0000
,
0100
1000
0010
0100
0001
0010
0001
0000
,
0100
1001
0100
1001
,
0100
0000
0000
0000
1001
0000
0000
0000
0010
0000
0000
0001
0000
0000
0100
0000
,
0010
1001
0010
1001
,
0010
0000
0000
0000
1001
0000
0000
0000
0010
0000
0000
1000
0000
0000
0001
0000
,
0010
1100
0010
0101
,
0010
0000
0000
0000
1100
0000
0000
0000
0010
0000
0000
0001
0000
0000
0010
0000
,
0100
1010
0100
0011
,
0100
1010
0100
0011
,
0010
0100
0001
0000
0100
0010
1000
0000
,
0100
0010
1000
0100
0010
0001
0100
0000
,
0010
0001
0100
0000
0010
1000
0100
0000
,
0010
0100
0010
1000
0100
0010
0001
0000
,
0100
0000
0001
0010
0001
0200
0010
0300
,
1000
0000
0010
0100
0010
1000
0100
0000
,
0010
0000
0001
0100
0001
0020
0001
0030
,
0100
0000
0010
1000
0001
0200
0001
0300
,
0010
0000
0001
1000
0001
0100
0001
0000
,
0010
0100
1000
0100
0010
0100
0001
0000
,
1000
0010
0100
0001
0100
1000
0100
0000
,
0020
0230
0320
0130
,
0010
1000
0100
0000
0010
0001
0100
0000
,
0001
1000
0001
0000
0100
0001
0010
0000
,
0100
0010
1000
0000
0001
0100
1000
0000
,
0010
0100
1000
0000
0010
0100
0001
0000
,
0010
0000
0001
0100
0010
1000
0100
0000
,
0010
0000
1000
0000
0100
0010
0001
0000
,
0100
0000
0001
0010
0100
1000
0100
0000
,
0010
0000
1000
0000
0100
0001
0010
0000
,
0101
0000
1100
0000
0010
0100
0001
0000
,
1000
0000
0100
0000
0010
0000
0000
0000
0100
0000
1000
0001
1000
0001
1000
0000
,
0100
0110
0010
1001
,
0100
0110
0010
1001
,
1000
0000
0000
0000
0001
0000
0100
0000
0001
0000
0000
0010
0001
0000
0100
0000
,
0010
0000
0000
0000
1000
0000
0001
0000
0100
0000
0000
0010
1000
0000
0100
0000
,
0010
0000
0000
0000
0100
0000
0001
0000
0010
0000
0000
0010
0100
0000
0010
0000
,
1000
0000
0000
0000
0100
0000
0010
0000
0001
0000
0000
1000
0001
0000
1000
0000
,
0101
0000
0000
1000
0000
0000
0100
0000
1000
0000
0100
0000
0010
0000
0100
0000
,
0000
0010
0001
1000
0001
0100
0100
0010
,
1000
0000
0000
0100
0000
0000
0010
0000
0001
0000
1000
0000
1000
0000
0001
0000
,
0000
0100
0001
0010
0001
0010
0100
1000
,
0100
0000
0000
0001
0000
0000
0100
0000
1000
0000
0001
0000
0100
0000
0010
0000
,
0000
0100
0010
0010
1000
0001
0100
0010
,
1000
1000
0001
0001
0100
0010
1000
0100
,
0010
0000
0001
0000
1000
0000
0001
0000
0001
0100
0001
0100
0001
0000
0000
0000
,
0010
0010
0100
0100
1000
1000
0001
0001
,
0020
0032
0203
0320
,
1030
1100
0001
0101
,
1000
0000
0000
0000
1100
0000
0000
0000
0010
0000
0000
0100
0000
0000
0010
0000
,
0100
0101
0010
0110
,
1000
0000
0000
0000
1001
0000
0000
0000
0010
0000
0000
0100
0000
0000
0010
0000
,
2002
0000
0000
3003
;

//---------------dance-single - Copied from ----------------
#NOTES:
     dance-single:
     Copied from:
     Challenge:
     8:
     0.628,0.639,0.471,0.294,0.236: // measure 1
0000
0000
0000
0000
,  // measure 2
0000
0000
0000
0000
,  // measure 3
0000
0000
0000
0000
,  // measure 4
0000
0000
0000
0000
,  // measure 5
0000
0000
0000
0000
,  // measure 6
0000
0000
0000
0000
,  // measure 7
0000
0000
0000
0000
,  // measure 8
1000
0001
1000
0001
1000
0001
0100
0010
,  // measure 9
0110
0000
0000
0001
0000
0000
1001
0000
0000
0000
0100
0000
0001
0000
0010
0000
,  // measure 10
0110
0000
0000
1000
0000
0000
1100
0000
0000
0000
0010
0000
0100
0000
0001
0000
,  // measure 11
1100
0000
0000
0001
0000
0000
0101
0000
0000
0000
0010
0000
0001
0000
0100
0000
,  // measure 12
0110
0000
0000
0010
0000
0000
1001
0000
0000
0000
0001
0000
0100
0000
0010
0000
,  // measure 13
1100
0000
0000
0010
0000
0000
0101
0000
0000
0000
0010
0000
0001
0000
0100
0000
,  // measure 14
0011
0000
0000
0100
0000
0000
1010
0000
0000
0000
0100
0000
0001
0000
1000
0000
,  // measure 15
0011
0000
0000
0100
0000
0000
1100
0000
0000
0000
0100
0000
0010
0000
1000
0000
,  // measure 16
1010
0000
0000
0100
0000
0000
0110
0000
0000
0000
0010
0000
0100
0000
0001
0000
,  // measure 17
1000
0001
0100
0001
1000
0010
0100
0100
,  // measure 18
0010
1000
0100
0010
0001
0100
0001
0000
,  // measure 19
1000
0001
0100
0001
0010
0001
0100
0100
,  // measure 20
0010
1000
0100
0010
0001
0100
0010
0000
,  // measure 21
1001
0000
0100
0010
0100
0000
0100
0010
,  // measure 22
0100
0000
0000
0000
0100
0000
0010
0000
0100
0000
0001
1000
0001
1000
0001
1000
,  // measure 23
0010
0110
0010
0110
,  // measure 24
1000
0100
1000
0010
1000
0001
1000
0000
,  // measure 25
0100
0000
1001
0000
0100
1000
0010
0001
,  // measure 26
0010
1000
0100
0010
0002
0000
0103
0000
,  // measure 27
0020
0000
2030
0000
3001
0100
0010
1000
,  // measure 28
0100
0010
0001
0100
0001
1000
1010
0000
,  // measure 29
1001
0000
0000
1000
0100
0000
0010
0000
0002
0000
0000
0000
1003
0000
0010
0000
,  // measure 30
0100
0000
0000
0010
1000
0000
0010
0000
0200
0000
0000
0000
0310
0000
1000
0000
,  // measure 31
0001
0000
0000
0100
0001
0000
0010
0000
0002
0000
0000
0000
1003
0000
0010
0000
,  // measure 32
1000
0000
0000
1000
0100
0000
0010
0000
0200
0000
0000
0000
1300
0000
0001
0000
,  // measure 33
0011
1001
0010
1001
,  // measure 34
0100
0000
0000
0000
1001
0000
0000
0000
0010
0000
0000
0002
0000
0000
0203
0000
,  // measure 35
0310
1001
0100
1001
,  // measure 36
0010
0000
0000
0000
1001
0000
0000
0000
0100
0000
0000
2000
0000
0000
3200
0000
,  // measure 37
0310
1100
0010
0101
,  // measure 38
0010
0000
0000
0000
1100
0000
0000
0000
0010
0000
0000
0002
0000
0000
2003
0000
,  // measure 39
3100
1010
0100
0011
,  // measure 40
0100
0000
0000
0000
1010
0000
0000
0000
0100
0000
0000
0002
0000
0000
2003
0000
,  // measure 41
3010
0100
0001
0100
1000
0100
0010
0100
,  // measure 42
0001
0010
0100
1000
0100
0010
0100
0010
,  // measure 43
0001
0000
0100
0000
0010
0000
1000
0000
0001
0000
0100
0000
0010
0100
0010
0100
,  // measure 44
0010
1000
0001
0100
0010
1000
0100
0010
,  // measure 45
0101
0000
0001
2000
0100
3200
0000
0310
,  // measure 46
1001
0000
0010
0002
0010
0203
0000
0301
,  // measure 47
0110
0000
1000
0200
0001
0320
0000
0130
,  // measure 48
1001
0000
0001
2000
0010
3002
0000
1003
,  // measure 49
0110
0000
1000
0001
0100
0210
0010
0300
,  // measure 50
1001
0000
0010
0001
0100
0120
0100
0030
,  // measure 51
1001
0000
1000
0100
0010
0021
0001
0030
,  // measure 52
1001
0000
0001
0010
0100
1200
1000
0300
,  // measure 53
1000
0000
0100
0000
1000
0010
0000
0100
0000
0001
0000
0000
0001
0100
0000
0010
,  // measure 54
0000
1000
0000
0000
1000
0100
0000
0010
0000
0100
0000
0000
0010
0001
0000
1000
,  // measure 55
0000
0001
0000
0000
0010
0001
0000
1000
0000
0001
0000
0000
1000
0100
0000
1000
,  // measure 56
0000
0001
0000
0000
0100
0001
0000
0001
0000
0100
0000
0000
0100
0010
0000
0000
,  // measure 57
1001
0000
0100
0000
0001
1000
0100
0010
,  // measure 58
1001
0000
0010
0000
0001
0100
0010
1000
,  // measure 59
1001
0000
0100
0000
1000
0100
0010
0001
,  // measure 60
1001
0000
0010
0000
0001
0100
0010
1000
,  // measure 61
0200
0000
1300
0010
0100
0000
0001
0000
,  // measure 62
0010
0000
0000
0000
0001
0000
0000
0000
0100
0000
0010
1000
0010
1000
0010
1000
,  // measure 63
0100
0000
0110
0000
0001
0000
1001
0010
,  // measure 64
0100
0000
0110
1000
0001
0000
1001
0000
,  // measure 65
0010
0000
0000
0010
1000
0000
0100
0000
0020
0000
0000
0000
0031
0000
1000
0000
,  // measure 66
0001
0000
0000
0001
0100
0000
0010
0000
0200
0000
0010
0000
0310
0000
0010
0000
,  // measure 67
0100
0000
0000
0100
0010
0000
0100
0000
2000
0000
0000
0000
3001
0000
0100
0000
,  // measure 68
0010
0000
0000
1000
0001
0000
1000
0000
0110
0000
0000
0100
0001
0000
0001
0000
,  // measure 69
1000
0000
0000
0100
0000
0000
0010
0000
0001
0000
1000
0000
0001
0000
0001
0000
,  // measure 70
0000
0000
1000
0000
0001
0000
0100
0000
0010
0100
0010
0100
0010
0000
1000
0000
,  // measure 71
0001
0000
0000
0001
0000
0000
1000
0000
0010
0000
0100
0000
0010
0000
1000
0000
,  // measure 72
0000
0000
0100
0000
0010
0000
0001
0000
1000
0001
1000
0001
1000
0000
0000
0000
,  // measure 73
0110
0000
0000
0001
0000
0000
0001
0000
1000
0000
0001
0000
0010
0000
0100
0000
,  // measure 74
0000
0000
1000
0000
0100
0000
0010
0000
0001
0100
0001
0100
0001
0000
0010
0000
,  // measure 75
0001
1000
0001
0100
0010
1000
1000
0100
,  // measure 76
0010
0000
0100
0000
1000
0000
0001
0000
1000
0001
1000
0001
1000
0000
0000
0000
,  // measure 77
0001
0010
0001
1000
0100
1000
0001
1000
,  // measure 78
2000
0100
3200
0010
0320
0001
0032
0100
,  // measure 79
0103
1001
0100
1001
,  // measure 80
0010
0000
0000
0000
1001
0000
0000
0000
0100
0000
0000
2000
0000
0000
3200
0000
,  // measure 81
0310
1001
0100
1001
,  // measure 82
0010
0000
0000
0000
1001
0000
0000
0000
0100
0000
0000
0002
0000
0000
1003
0000
,  // measure 83
0220
0000
0000
0330
;
