#TITLE:Cheer Train;
#SUBTITLE:;
#ARTIST:Fuzita Blender;
#TITLETRANSLIT:;
#SUBTITLETRANSLIT:;
#ARTISTTRANSLIT:;
#GENRE:;
#CREDIT:;
#MENUCOLOR:;
#NEWMETERSYSTEM:NO;
#BANNER:Cheer Train-bn.png;
#BACKGROUND:Cheer Train-bg.png;
#LYRICSPATH:;
#CDTITLE:MixMania 4 CD Title.png;
#MUSIC:Cheer Train.mp3;
#OFFSET:-0.400;
#SAMPLESTART:32.340;
#SAMPLELENGTH:12.000;
#SELECTABLE:YES;
#LISTSORT:;
#BPMS:0.000=120.000;
#STOPS:;
#BGCHANGES:;
#ATTACKS:;

//---------------dance-single - ----------------
#NOTES:
     dance-single:
     :
     Easy:
     3:
     0.218,0.233,0.063,0.054,0.000:
0000
0000
0000
0000
,
0000
0000
0000
0000
,
0000
0000
0000
0000
,
0000
0000
0000
0000
,
0010
0100
0010
0100
,
0010
0100
0010
0100
,
0001
1000
0001
1000
,
0010
0010
0100
0000
,
1000
0001
0010
0010
,
0001
0100
0010
0000
,
1000
0100
1000
0010
,
0100
0001
1000
0000
,
0100
0010
0001
1000
,
0100
0010
0001
0000
,
0010
0001
0100
0001
,
1000
0100
0100
0000
,
1001
0010
0001
0000
,
0100
0000
0010
0000
,
0010
0010
1000
0000
,
0010
0000
1000
0000
,
0001
1000
0001
0000
,
0100
0000
0001
0000
,
0010
1000
0100
0000
,
0010
0000
0001
0001
,
1000
0000
0100
0000
,
0010
0000
0001
0200
,
0310
0000
0010
0000
,
1000
0000
0001
0000
,
1001
0010
0001
0010
,
0001
0010
0001
0010
,
0001
1000
0001
1000
,
0001
0100
0010
0000
,
0100
1001
0100
0010
,
0001
0100
0100
0100
,
0010
1001
0100
0010
,
1000
0001
0001
0001
,
1000
1001
0100
0010
,
0001
1000
1000
1000
,
0010
1001
0001
0010
,
0100
0020
0000
0030
,
0100
1000
0010
0200
,
0300
0010
0010
0100
,
0010
1000
0100
0020
,
0030
0001
0100
0001
,
0010
0010
0001
2000
,
3000
0010
0010
1000
,
0100
1000
0010
0200
,
0300
0001
1000
0001
,
0010
0000
0001
0000
,
0100
0000
0010
1000
,
0100
0000
0010
0000
,
0001
0000
1000
0001
,
1001
0000
0000
0000
;

//---------------dance-single - Copied from----------------
#NOTES:
     dance-single:
     Copied from:
     Beginner:
     1:
     0.100,0.117,0.000,0.018,0.000:
0000
0000
0000
0000
,
0000
0000
0000
0000
,
0000
0000
0000
0000
,
0000
0000
0000
0000
,
1000
0000
0001
0000
,
1000
0000
0001
0000
,
1000
0000
0001
0000
,
1000
0000
0000
0000
,
0010
0000
0000
0000
,
0010
0000
0000
0000
,
1000
0000
0000
0000
,
1000
0000
0000
0000
,
0001
0000
0000
0000
,
0001
0000
0000
0000
,
0100
0000
0000
0000
,
0100
0000
0000
0000
,
0010
0000
0010
0000
,
0100
0000
0000
0000
,
1000
0000
1000
0000
,
0001
0000
0000
0000
,
0010
0000
0010
0000
,
0001
0000
0000
0000
,
0100
0000
0100
0000
,
0010
0000
0000
0000
,
0100
0000
0000
0000
,
0000
0000
0000
0000
,
0020
0000
0000
0000
,
0000
0030
0000
0000
,
1000
0000
1000
0000
,
1000
0000
1000
0000
,
0001
0000
0001
0000
,
0001
0000
0000
0000
,
0010
0010
0000
0000
,
0100
0000
0001
0000
,
1000
1000
0000
0000
,
0100
0000
0100
0000
,
0010
0010
0000
0000
,
0001
0000
1000
0000
,
0100
0100
0000
0000
,
0000
0020
0030
0000
,
0010
0000
0010
0000
,
0000
0100
0000
0100
,
0100
0000
0001
0000
,
0000
1000
0000
1000
,
1000
0000
0100
0000
,
0000
0010
0000
0010
,
0010
0000
0001
0000
,
0000
0100
0000
0100
,
0100
0000
0100
0000
,
0100
0000
0010
0000
,
0100
0000
0100
0000
,
0100
0000
0010
0000
,
0001
0000
0000
0000
;

//---------------dance-single - Copied from----------------
#NOTES:
     dance-single:
     Copied from:
     Medium:
     5:
     0.323,0.327,0.162,0.117,0.009:
0000
0000
0000
0000
,
0000
0000
0000
0000
,
0000
0000
0000
0000
,
0000
0000
0000
0000
,
1000
1000
0100
0100
,
0010
0010
0002
0203
,
0310
0010
1000
1000
,
0001
0001
0100
0000
0010
1000
0001
0000
,
0110
0001
1000
0100
,
0010
0000
0001
0000
0100
0010
0100
0000
,
0010
1000
0001
0100
,
0010
0000
1000
0000
0001
1000
0100
0000
,
0010
0001
1000
0001
,
0100
0000
0010
0000
0100
0001
0100
0000
,
0010
1000
0010
0100
,
0001
0001
1000
0000
0100
1000
0010
0000
,
0110
1001
0001
2000
,
3100
0000
0000
0000
0010
0100
0010
0000
,
1100
0011
0010
0200
,
0310
0000
0000
0000
0001
1000
0010
0000
,
1001
0110
0010
2000
,
3001
0000
0000
0000
1000
0001
1000
0000
,
1010
0101
1000
0002
,
0103
0000
0000
0000
0010
0100
0010
0100
,
0001
0100
0010
1000
,
0001
0100
0010
2000
,
3100
0010
0001
1000
,
0100
0010
0001
0200
,
0310
1000
0010
0100
,
0001
1000
0100
0020
,
0031
0100
0010
1000
,
0001
1000
0001
0000
0100
0100
0010
0100
,
0110
1001
0100
0001
,
1000
0010
0100
0000
0001
1000
0001
0000
,
0110
1001
0100
1000
,
1000
0100
0100
0000
0010
0001
0001
0000
,
0110
1001
0010
0001
,
0100
0010
1000
0000
0001
0100
0010
0000
,
0110
1001
1000
0100
,
1000
0000
0010
0100
0010
0100
0000
0000
,
0010
0000
1000
0001
0100
0000
0020
0000
,
0130
0000
0001
1000
0001
0000
0100
0000
,
0010
0000
1000
0100
0010
0000
0200
0000
,
1300
0000
0001
0100
0001
0000
0010
0000
,
1000
0000
0001
0100
0001
0000
0020
0000
,
0031
0000
1000
0010
0100
0000
0010
0000
,
1000
0000
0001
0100
0010
0000
2000
0000
,
3100
0000
0010
0100
0010
0000
0001
0000
,
0001
0100
0010
1000
,
0001
0000
0100
0000
0010
0000
1000
0010
,
1000
0010
0100
0001
,
1000
0000
0000
0000
0010
0000
0000
0000
0100
0000
0000
0100
0000
0010
0000
0000
,
0110
0000
0000
0000
;

//---------------dance-single - Copied from----------------
#NOTES:
     dance-single:
     Copied from:
     Hard:
     7:
     0.400,0.397,0.081,0.045,0.247:
0000
0000
0000
0000
,
0000
0000
0000
0000
,
0000
0000
0000
0000
,
0000
0000
0000
0000
,
0010
1000
0100
0010
0001
1000
0001
0100
,
0001
0000
0010
0000
0100
0000
1000
0000
0010
0000
0000
0100
0000
0000
0100
0000
,
0010
1000
0001
0100
0010
1000
0001
0001
,
0010
0000
0001
0000
0100
0000
0000
0000
0001
1000
0000
0100
0000
0010
0100
0000
,
0010
0000
0000
1000
0000
0000
0100
0000
0000
0010
0000
0000
0001
0000
0000
0100
,
0000
0000
0010
0000
0000
1000
0000
0000
0001
0000
0000
0100
0000
0000
0010
0000
,
0000
1000
0000
0000
0100
0000
0000
0010
0000
0000
0001
0000
0000
1000
0000
0000
,
0001
0000
0000
0100
0000
0000
0010
0000
0000
1000
0000
0000
0100
0000
0000
0000
,
0100
0000
0000
0010
0000
0000
0001
0000
0000
1000
0000
0000
0010
0000
0000
0100
,
0000
0000
0001
0000
0000
1000
0000
0000
0100
0000
0000
0010
0000
0000
0000
0000
,
0100
0000
0000
0001
0000
0000
1000
0000
0000
0100
0000
0000
0010
0000
0000
0001
,
0000
0000
0100
0000
0000
0010
0000
0000
0010
0100
0000
0010
0000
1000
0001
0000
,
0100
0000
0000
0010
0000
0000
1000
0000
0001
0000
1000
0000
0100
0000
0000
0000
,
0010
0000
0001
0000
1000
0001
0010
0001
,
0100
0000
0000
0010
0000
0000
1000
0000
0001
0000
0100
0000
0010
0000
0000
0000
,
0001
0000
1000
0000
0100
1000
0010
0100
,
0010
0000
0000
1000
0000
0000
0001
0000
0010
0000
0001
0000
0100
0000
0000
0000
,
0010
0000
1000
0000
0010
0100
0001
0010
,
0100
0000
0000
1000
0000
0000
0100
0000
0010
0000
0100
0000
0001
0000
0000
0000
,
0100
0000
0000
0000
0010
0000
0000
0000
1000
0001
0000
0010
0000
0001
0100
0000
,
0010
1000
0100
0010
,
0001
0000
0100
0000
0001
1000
0020
0000
,
0130
0000
0000
0010
0000
0000
1000
0000
0100
0000
0000
0000
0010
0000
0000
0000
,
0001
0100
0001
1000
,
1000
0000
0000
0100
0000
0000
0010
0000
0000
0001
0000
0000
1000
0000
0000
0100
,
0000
0000
0010
0000
0000
0001
0000
0000
1000
0000
0000
0100
0000
0000
0010
0000
,
0000
0001
0000
0000
1000
0000
0000
0100
0000
0000
0010
0000
0000
0001
0000
0000
,
1000
0000
0001
0000
0100
0000
0000
0000
0010
0100
0000
0010
0000
1000
0100
0000
,
0010
0001
1001
0000
0100
0001
0010
0000
,
0100
1000
0010
0100
0010
1000
0010
0000
,
0100
0001
0011
0000
0001
0100
1000
0000
,
0100
0010
1000
0100
1000
0010
1000
0000
,
0100
0010
1001
0000
0100
0001
0010
0000
,
0100
0010
0001
1000
0001
0100
0001
0000
,
0100
0001
1001
0000
1000
0100
0010
0000
,
0001
0000
0100
0000
0001
1000
0001
1000
0001
1000
0000
0000
0000
0000
0000
0000
,
0110
0000
0000
0001
0000
0000
1000
0000
0010
0000
0000
0000
0200
0000
0000
0000
,
0310
1000
0100
0010
0001
0010
0100
0000
,
0110
0000
0000
1000
0000
0000
0010
0000
0100
0000
0000
0000
0020
0000
0000
0000
,
1030
0001
0100
0001
0010
0100
1000
0000
,
1001
0000
0000
1000
0000
0000
0100
0000
0100
0000
0000
0000
0002
0000
0000
0000
,
0103
1000
0100
0010
0001
0100
0001
0000
,
0101
0000
0000
1000
0000
0000
0001
0000
0100
0000
0000
0000
0002
0000
0000
0000
,
1003
0010
0100
0010
1000
0100
0010
0000
,
0001
0010
0001
0100
0010
1000
0001
0100
,
0010
0000
1000
0000
0100
0000
0010
0000
0001
0000
0000
1000
0000
0000
0001
0000
,
0100
0010
1000
0001
1000
1000
0100
0010
,
0100
0000
0010
0000
0001
0000
0100
0000
0001
0000
0000
0010
0000
0100
0000
0000
,
1100
0000
0000
0000
;

//---------------dance-single - Copied from----------------
#NOTES:
     dance-single:
     Copied from:
     Challenge:
     8:
     0.518,0.560,0.242,0.036,0.413: // measure 1
0000
0000
0000
0000
,  // measure 2
0000
0000
0000
0000
,  // measure 3
0000
0000
0000
0000
,  // measure 4
0000
0000
0000
0000
,  // measure 5
1000
0010
0100
0001
0010
0100
1000
0100
,  // measure 6
0001
0000
0100
0000
1000
0000
0100
0000
0010
0000
0000
0100
0000
0000
0001
0000
,  // measure 7
1001
0001
0100
0010
1000
0010
0100
0010
,  // measure 8
1000
0001
0100
0000
0001
0000
0000
0000
0001
0100
0000
0001
0000
1000
0001
0000
,  // measure 9
0100
0010
0000
0100
0010
0000
0100
0010
0000
0100
0010
0000
1000
0001
0000
1000
,  // measure 10
0001
0000
1000
0001
0000
1000
0001
0000
0100
0001
0000
0100
0001
0000
0100
0001
,  // measure 11
0000
0100
0001
0000
1000
0010
0000
1000
0010
0000
1000
0010
0000
1000
0010
0000
,  // measure 12
1000
0100
0000
1000
0100
0000
1000
0100
0000
1000
0100
0000
1000
0100
0000
0000
,  // measure 13
0100
0010
0000
0100
0010
0000
0100
0010
0000
0100
0010
0000
0100
0010
0000
0010
,  // measure 14
0001
0000
0010
0001
0000
0010
0001
0000
0010
0001
0000
0010
0001
1000
0000
0000
,  // measure 15
0000
1000
0100
0000
1000
0100
0000
1000
0100
0000
1000
0100
0000
1000
0100
0000
,  // measure 16
0010
0000
0100
0010
1000
0000
0100
0000
0010
0001
0000
1000
0000
0001
0100
0000
,  // measure 17
0010
0000
0000
1001
0000
0000
0100
0000
0010
0000
0100
0000
0020
0000
0000
0000
,  // measure 18
1030
0000
0000
0000
0001
0000
0000
0000
0100
0000
0000
0001
0000
0000
0010
0000
,  // measure 19
0001
0000
0000
0110
0000
0000
1000
0000
0010
0000
0100
0000
0002
0000
0000
0000
,  // measure 20
0013
0000
0000
0000
0100
0000
0000
0000
1000
0000
0000
1000
0000
0000
0100
0000
,  // measure 21
0010
0000
0000
1001
0000
0000
0100
0000
0010
0000
1000
0000
0200
0000
0000
0000
,  // measure 22
0310
0000
0000
0000
0001
0000
0000
0000
1000
0000
0000
0001
0000
0000
0010
0001
,  // measure 23
0000
0000
0000
1010
0000
0000
1000
0000
0100
0000
0010
0000
0002
0000
0000
0000
,  // measure 24
0103
0000
0000
0000
0010
0000
0000
0000
0100
0001
0000
0100
0000
0010
1000
0000
,  // measure 25
0100
1000
0100
0010
0001
0100
0010
1000
,  // measure 26
0001
0000
0100
0000
0001
0000
0010
0000
0001
0000
0000
0100
0000
0000
0010
0000
,  // measure 27
1000
0100
0010
0100
0001
1000
0010
0100
,  // measure 28
0001
0000
0001
0000
0100
0000
0010
0000
1000
0000
0000
0001
0000
0000
0100
0000
,  // measure 29
0010
1000
0000
0010
0100
0000
0001
0010
0000
0001
1000
0000
0100
1000
0000
0010
,  // measure 30
0100
0000
0001
0010
0000
0010
0100
0000
0010
1000
0000
0100
1000
0100
0000
0100
,  // measure 31
0010
0000
0010
0100
0000
1000
0100
0000
1000
0100
0000
0100
0010
0000
0010
0001
,  // measure 32
0100
0000
0100
0000
0110
0000
1000
0001
1000
0010
0000
0100
0000
0001
0010
0000
,  // measure 33
0110
0010
1001
0000
1000
0001
0010
0000
,  // measure 34
0001
0100
0010
1000
0100
0100
0010
0000
,  // measure 35
1001
0010
0011
0000
0100
0001
0010
0000
,  // measure 36
0100
0010
1000
0100
0010
0100
0010
0000
,  // measure 37
1100
0010
0101
0000
0010
0001
0100
0000
,  // measure 38
0010
1000
0100
0001
0100
1000
0010
0000
,  // measure 39
0110
1000
1100
0000
1000
0001
0100
0000
,  // measure 40
0001
0000
0010
0000
0001
1000
0001
1000
0001
1000
0000
0100
0000
1000
0010
0000
,  // measure 41
0110
0000
0000
1000
0000
0000
0001
0000
0100
0000
0001
0000
0011
0000
0000
0000
,  // measure 42
0100
0001
1000
0010
0100
0010
0110
0000
,  // measure 43
1001
0000
0000
0100
0000
0000
0001
0000
1000
0000
0100
0000
0011
0000
0000
0000
,  // measure 44
1000
0010
0100
0001
0100
0010
1001
0000
,  // measure 45
0110
0000
0000
0010
0000
0000
0100
0000
1000
0000
0100
0000
0110
0000
0000
0000
,  // measure 46
0001
0010
0001
0100
0010
1000
1001
0000
,  // measure 47
0101
0000
0000
0010
0000
0000
0001
0000
1000
0000
0010
0000
1001
0000
0000
0000
,  // measure 48
0100
0001
0010
0001
0100
0010
1100
0000
,  // measure 49
0100
0010
1000
0100
0010
0001
0100
0010
,  // measure 50
1000
0000
0001
0000
0010
0000
0001
0000
0100
0000
0000
0010
0000
0000
0100
0000
,  // measure 51
0010
1000
0100
0010
0001
1000
0001
0010
,  // measure 52
0001
0000
0100
0000
0010
0000
1000
0000
0001
0000
0000
1000
0000
0001
0000
0000
,  // measure 53
0101
0000
0000
0000
;
