#TITLE:CRYMSON;
#SUBTITLE:;
#ARTIST:RAM;
#TITLETRANSLIT:;
#SUBTITLETRANSLIT:;
#ARTISTTRANSLIT:;
#GENRE:;
#CREDIT:;
#MENUCOLOR:#990000;
#NEWMETERSYSTEM:NO;
#BANNER:CRYMSON-bn.png;
#BACKGROUND:CRYMSON-bg.png;
#LYRICSPATH:;
#CDTITLE:MixMania 4 CD Title.png;
#MUSIC:CRYMSON.mp3;
#OFFSET:-1.420;
#SAMPLESTART:10.380;
#SAMPLELENGTH:12.000;
#SELECTABLE:YES;
#LISTSORT:;
#BPMS:0.000=240.000;
#STOPS:;
#BGCHANGES:;
#ATTACKS:;

//---------------dance-single - ----------------
#NOTES:
     dance-single:
     :
     Easy:
     5:
     0.419,0.431,0.372,0.090,0.000:
0000
0000
0000
0000
,
0000
1001
0000
1001
,
0000
0001
1000
0100
,
0000
1001
0000
1001
,
0000
1000
0020
0030
,
0000
1001
0000
1001
,
0000
1000
0100
0001
,
0000
1001
0000
1001
,
0001
0100
0001
0100
,
0001
1000
0100
0000
,
0010
0100
0001
0000
,
0001
0010
1000
0100
,
0001
0010
0010
0000
,
0001
0100
0001
0000
,
1000
0100
1000
0000
,
0010
0100
0010
1000
,
0010
0010
0100
0000
,
1001
0000
0000
0001
,
0100
0001
1000
0000
,
1001
0000
1001
0000
,
1000
0100
0010
0001
,
1001
0000
1001
0000
,
0001
1000
0100
0000
,
2002
0000
0000
0000
,
0000
0000
0000
3003
,
1001
0000
1000
0000
,
0100
0100
0010
0000
,
0100
0000
1000
0000
,
0001
0100
0010
1000
,
0001
0000
0101
0000
,
1100
0000
0101
0000
,
0010
0000
0100
0000
,
2000
0000
0001
3000
,
0110
0000
0001
0000
,
1000
0100
1000
0010
,
0100
0000
0100
0000
,
0001
0100
0010
1000
,
0001
0001
0100
0000
,
1000
1000
0100
0000
,
0010
1000
0001
0000
,
0020
0000
0100
0030
,
1001
0000
0000
0100
,
0100
0000
0010
0000
,
0100
0000
0000
0001
,
0000
0000
1000
0000
,
1100
0000
0000
1000
,
0000
0001
0000
0100
,
0001
0000
0000
1000
,
0000
0100
0010
1000
,
0110
0000
0001
0000
,
1000
0100
0010
0000
,
0001
0100
0001
1000
,
0100
0100
0100
0000
,
0010
0000
0100
0000
,
0010
1000
0010
0000
,
0100
0000
0100
0001
,
0100
0001
0010
0000
,
1010
0000
0001
0000
,
0100
0000
0010
0000
,
0100
0010
0001
1000
,
0100
0000
1001
0000
,
0100
0001
0100
0000
,
1000
0100
1000
0000
,
0010
0100
0001
1000
,
0100
0100
1000
0000
,
0001
0000
0101
0000
,
1000
0100
1000
0000
,
1000
0000
1100
0000
,
1000
0010
0100
0001
,
1000
0001
0001
0000
,
0001
1000
1000
0000
,
0110
0000
1001
0000
,
0001
0100
1000
0000
,
2002
0000
3003
0000
,
1000
0000
0000
0001
0000
0000
0100
0000
;

//---------------dance-single - Copied from----------------
#NOTES:
     dance-single:
     Copied from:
     Beginner:
     2:
     0.190,0.335,0.064,0.102,0.000:
0000
0000
0000
0000
,
0000
1000
0000
1000
,
0000
0000
0001
0000
,
0000
0000
0010
0000
,
0010
0000
0000
0000
,
0000
0100
0000
0100
,
0000
0000
1001
0000
,
0000
0000
0010
0000
,
0220
0000
0330
0000
,
0001
0000
1000
0000
,
0001
0000
0000
0000
,
0100
0000
0000
0000
,
0100
0000
0000
0000
,
0010
0000
1000
0000
,
0010
0000
0000
0000
,
1000
0000
0000
0000
,
0100
0000
0000
0000
,
0002
0000
0000
0000
,
0000
0000
0003
0000
,
2000
0000
0000
0000
,
0000
0000
3000
0000
,
0010
0000
0000
0000
,
0010
0000
0100
0000
,
0010
0000
0000
0000
,
2000
0000
3000
0000
,
0001
0000
0000
0000
,
0100
0000
0010
0000
,
1000
0000
0000
0000
,
0001
0000
0001
0000
,
1000
0000
0000
0000
,
0100
0000
0000
0000
,
1000
0000
0000
0000
,
0200
0000
0300
0000
,
1001
0000
0100
0000
,
0000
0000
0010
0000
,
0100
0000
0001
0000
,
0000
0000
1000
0000
,
0010
0000
0100
0000
,
0000
0000
0001
0000
,
1000
0000
0100
0000
,
0002
0000
0003
0000
,
0100
0000
0000
0000
,
0100
0000
0100
0000
,
0010
0000
0000
0000
,
1000
0000
0000
0000
,
0001
0000
0000
0000
,
0001
0000
0000
0000
,
1000
0000
0000
0000
,
1000
0000
0000
0000
,
0110
0000
0010
0000
,
0010
0000
1000
0000
,
0100
0000
0000
0000
,
1000
0000
0001
0000
,
0010
0000
0000
0000
,
0010
0000
0000
0000
,
1000
0000
0000
0000
,
1000
0000
0000
0000
,
0001
0000
0100
0000
,
0001
0000
0100
0000
,
0001
0000
0000
0000
,
1000
0000
0000
0000
,
1000
0000
0100
0000
,
1000
0000
0100
0000
,
1000
0000
0000
0000
,
0010
0000
0000
0000
,
0100
0000
0000
0000
,
0001
0000
0000
0000
,
1000
0000
0000
0000
,
0100
0000
0000
0000
,
1000
0000
0000
0000
,
0001
0000
0000
0000
,
0010
0000
0000
0000
,
0001
0000
0000
0000
,
1001
0000
0000
0000
,
0020
0000
0000
0030
;

//---------------dance-single - Copied from----------------
#NOTES:
     dance-single:
     Copied from:
     Medium:
     7:
     0.542,0.528,0.243,0.064,0.000:
0000
0000
0000
0000
,
0100
1001
0001
0101
,
1000
0100
0020
0030
,
0100
1100
1000
0010
,
0001
0100
1000
0000
,
1000
1001
0100
0011
,
1100
0100
0002
0003
,
1000
0101
1000
0010
,
0100
0100
0001
1000
,
0110
1000
0100
0001
,
1000
0001
0100
0010
,
0010
0100
0001
0010
,
1000
0100
0010
0100
,
1000
0010
0100
0001
,
1000
0001
0100
0100
,
0010
1000
0001
0001
,
0011
0001
0101
0000
,
1000
0000
0100
0000
,
0010
0100
1000
0001
,
0100
0001
0001
0000
,
1000
0100
0010
0000
,
0100
1000
0001
0100
,
0010
0010
0100
0000
,
0001
1000
0100
0010
,
0002
0000
0103
0000
,
1001
0001
0100
1000
,
0100
0001
0010
0000
,
0100
1000
0100
0000
,
0010
0010
0100
1000
,
0100
0000
0100
0010
0000
0000
0100
0000
,
1000
0001
0100
0000
,
0001
1000
0100
0010
,
0002
0000
0000
1000
0000
0000
0103
0000
,
1001
0001
0100
1000
,
0100
0001
0010
0000
,
0100
1000
0100
0100
,
0010
0000
0100
1000
0100
0000
0000
0000
,
1000
0001
0100
0001
,
0001
1000
0001
0000
1000
0000
0000
0000
,
0100
0010
0100
1000
,
2000
0000
0000
0010
0000
0000
3001
0000
,
1001
0000
0001
0100
,
0000
0001
0000
0000
1000
0000
0100
0000
,
0100
0000
0000
0010
,
0000
0010
0000
0000
0100
0000
1000
0000
,
0001
0000
0001
1000
,
0000
0001
0000
1000
0100
0000
0010
0000
,
0100
0000
1000
0001
,
0100
0000
0000
0001
1000
0000
0110
0000
,
1001
0100
1000
0010
,
0100
0001
1000
0001
,
0001
0010
0100
0010
,
0001
1000
0100
1000
,
0010
0000
1000
0100
0000
0000
0010
0000
,
0000
0001
0000
0100
0001
0000
1000
0000
,
0101
0000
0000
0010
0000
0000
1000
0000
,
0000
0100
0000
0000
0010
0000
1000
0000
,
1100
1000
0100
0001
,
1000
0001
0100
0100
,
0001
0010
1000
0100
,
0001
0000
0010
0000
0001
1000
0001
0000
,
1000
0100
0010
0100
,
1000
0100
0010
0010
,
0001
1000
0001
0100
,
1000
0100
0001
1000
,
0011
0001
1000
1000
,
0001
0010
1000
0100
,
1000
0001
0001
0100
,
0010
1000
0100
0010
,
0001
1000
0010
0100
,
0100
0010
1000
0100
,
0010
0001
1000
0001
,
0010
0001
0100
0010
,
1001
0001
0100
0000
,
0001
1000
0000
0001
0000
0100
0010
1000
;

//---------------dance-single - Copied from----------------
#NOTES:
     dance-single:
     Copied from:
     Hard:
     9:
     0.685,0.767,0.436,0.077,0.000: // measure 1
0000
0000
0000
0000
,  // measure 2
1000
1100
0001
0101
,  // measure 3
0011
1100
0022
0033
,  // measure 4
1000
0011
0010
1001
,  // measure 5
0110
1000
0100
0001
,  // measure 6
0010
1001
0100
1001
,  // measure 7
0110
1010
2200
3300
,  // measure 8
1000
0100
1000
0100
,  // measure 9
0010
0001
0010
0001
0100
0001
1000
0000
,  // measure 10
0110
1000
0100
0010
,  // measure 11
0001
0000
1000
0000
0001
0100
0001
0000
,  // measure 12
0010
0100
1000
0010
,  // measure 13
0100
0001
0100
1000
0100
0000
0100
0000
,  // measure 14
0010
1000
0100
0010
,  // measure 15
0001
0000
0010
0000
0100
1000
0100
0000
,  // measure 16
0010
0100
0001
1000
,  // measure 17
0010
0100
0010
1000
0010
0100
0001
0000
,  // measure 18
1001
0010
0100
1000
,  // measure 19
0001
0100
0000
0001
1000
0000
0100
0000
,  // measure 20
0010
0100
1000
0100
,  // measure 21
0010
0100
0010
0000
1000
0001
1000
0000
,  // measure 22
0001
0100
0001
1000
,  // measure 23
0100
0010
0000
0010
0100
0000
1000
0000
,  // measure 24
0001
0100
0001
0010
,  // measure 25
0110
0000
0000
1001
0000
0000
0110
0000
,  // measure 26
0001
0100
1000
0100
,  // measure 27
0001
1000
0001
0000
,  // measure 28
1000
0010
0001
0100
,  // measure 29
1000
0000
0001
0000
0100
0001
0100
0000
,  // measure 30
1000
0000
0001
0000
0010
0000
0100
1000
,  // measure 31
0000
1000
0010
0000
0100
0000
0001
0000
,  // measure 32
1000
0010
0100
0001
,  // measure 33
1001
0000
0000
1001
0000
0000
0110
0000
,  // measure 34
0001
0100
1000
0100
,  // measure 35
0100
0010
1000
0000
,  // measure 36
0100
1000
0100
1000
,  // measure 37
0010
1000
0010
1000
0100
0000
0100
0000
,  // measure 38
0010
1000
0100
0010
,  // measure 39
0100
0001
0100
0000
,  // measure 40
0001
0100
0001
0010
,  // measure 41
0011
0000
0000
0110
0000
0000
1100
0000
,  // measure 42
1001
0001
0100
0001
,  // measure 43
0000
1000
0000
0000
0100
0000
1000
0000
,  // measure 44
0010
0010
0100
0010
,  // measure 45
1000
0001
0100
0010
1000
0000
0000
0000
,  // measure 46
0100
1000
0110
0001
,  // measure 47
0000
0100
0000
0001
1000
0000
1000
0000
,  // measure 48
0100
0000
1000
0010
,  // measure 49
0010
0000
0000
1000
0100
0000
0101
0000
,  // measure 50
1001
0010
0100
0001
,  // measure 51
1000
0000
0100
0000
0010
0001
0100
0000
,  // measure 52
0001
1000
0010
0001
,  // measure 53
1000
0000
0001
0000
0100
0001
0100
0001
,  // measure 54
0010
0000
1000
0100
0000
1000
0010
0000
,  // measure 55
0100
0001
0100
0001
1000
0000
0100
0000
,  // measure 56
1000
0010
1000
0001
1000
0100
0010
0000
,  // measure 57
0010
0100
0001
0010
0100
0000
1100
0000
,  // measure 58
0101
1000
0010
0100
,  // measure 59
0001
0010
0100
1000
0010
0000
0100
0000
,  // measure 60
0001
1000
0010
0100
,  // measure 61
0001
0000
1000
0000
1000
0100
0000
0100
,  // measure 62
0010
0001
1000
0001
,  // measure 63
0100
0010
1000
0001
1000
0000
0001
0000
,  // measure 64
0100
0000
0010
1000
0000
0010
0100
0000
,  // measure 65
0001
0010
0000
0100
0010
1000
0010
0100
,  // measure 66
0001
0100
0001
1000
,  // measure 67
0100
0000
0010
0100
0000
0100
1000
0000
,  // measure 68
0010
0100
0001
0100
0001
0000
1000
0000
,  // measure 69
0010
0100
0010
1000
0001
0000
0100
0000
,  // measure 70
0001
0000
1000
0100
0000
0100
0010
0000
,  // measure 71
0001
1000
0001
0100
,  // measure 72
0011
0000
0000
1000
0000
0000
0001
0000
,  // measure 73
0100
0010
0100
0001
1000
0010
1000
0000
,  // measure 74
0110
0010
2002
3003
,  // measure 75
1000
0001
0000
0110
0000
0001
0100
1000
;

//---------------dance-single - Copied from ----------------
#NOTES:
     dance-single:
     Copied from:
     Challenge:
     10:
     0.847,0.815,0.512,0.051,0.000: // measure 1
0000
0000
0000
0000
,  // measure 2
0001
1100
0011
1100
,  // measure 3
0001
0100
0110
0001
,  // measure 4
1000
0110
0101
1100
,  // measure 5
0001
0000
0100
0001
0100
1000
0100
0000
,  // measure 6
0010
1100
0010
0101
,  // measure 7
0001
0010
1100
0100
,  // measure 8
2000
3200
0320
0032
,  // measure 9
0103
0001
0100
0001
1000
0100
0001
0100
,  // measure 10
1000
0100
0010
0001
1000
0100
1000
0001
,  // measure 11
0100
0001
0010
0100
0010
0001
1000
0010
,  // measure 12
0100
0001
1000
0010
0100
0001
0010
0100
,  // measure 13
1000
0010
0100
0001
1000
0010
0001
0010
,  // measure 14
1000
0000
0101
0000
0010
0100
1000
0000
,  // measure 15
0110
1100
0011
1000
,  // measure 16
0001
0010
0100
0010
1000
0010
0001
0100
,  // measure 17
0010
1000
0001
0100
0001
0100
1000
0100
,  // measure 18
0010
0010
1000
0001
,  // measure 19
0100
0001
0100
0001
1000
0000
0100
0000
,  // measure 20
1000
0010
0100
0010
,  // measure 21
1000
1000
1100
1100
,  // measure 22
0010
0000
0001
0100
0001
0000
1000
0000
,  // measure 23
0100
1000
0100
0000
1010
0000
0101
0000
,  // measure 24
1000
0000
0001
0000
0100
0000
0001
1000
,  // measure 25
0001
0000
0100
0010
1000
0000
0001
1000
,  // measure 26
0100
0010
0001
0100
,  // measure 27
0001
1000
0001
1000
0001
0000
0100
0000
,  // measure 28
0001
0010
0100
1000
,  // measure 29
0010
0100
0001
0010
0100
1000
0010
0000
,  // measure 30
0100
0000
1000
0100
1000
0000
0010
0000
,  // measure 31
0100
0001
0100
0010
1000
0000
0001
0100
,  // measure 32
0010
1100
1000
1000
,  // measure 33
0101
0000
0000
1010
0000
0000
0101
0000
,  // measure 34
1001
0000
0010
0000
0100
0000
0001
1000
,  // measure 35
0100
0010
0001
0000
0100
0000
0001
0000
,  // measure 36
0100
0000
0010
0100
0010
0000
1000
0001
,  // measure 37
1000
0001
0100
0001
0010
0000
0001
0000
,  // measure 38
0100
0011
0100
1000
,  // measure 39
0100
0010
0100
0010
0001
0000
1000
0000
,  // measure 40
0100
0000
1000
0010
1000
0000
0010
0000
,  // measure 41
0101
0000
0000
1100
0000
0000
1010
0000
,  // measure 42
0011
0001
1000
0001
,  // measure 43
0100
0001
0000
0010
1000
0000
0100
0000
,  // measure 44
0010
0000
0100
1000
0100
0000
0001
0100
,  // measure 45
0001
0010
0001
1000
0100
0000
1000
0000
,  // measure 46
0010
0000
0100
0001
1000
0000
0110
0000
,  // measure 47
0010
1000
0000
0100
0010
0000
0001
0000
,  // measure 48
1100
0010
0100
0001
,  // measure 49
1000
0001
0000
0010
0001
0000
1010
0000
,  // measure 50
0101
0100
0010
1000
,  // measure 51
0001
0100
0001
0010
0100
0000
1000
0000
,  // measure 52
0100
0000
0010
0100
0001
0000
1000
0000
,  // measure 53
0010
0100
0010
1000
0100
0000
0010
0000
,  // measure 54
0100
0000
1000
0100
0000
0010
0001
0000
,  // measure 55
0100
0001
1000
0100
0010
0000
0100
0000
,  // measure 56
1000
0000
0001
0100
0000
0100
0001
0000
,  // measure 57
0010
0001
0010
0001
1000
0100
1000
0000
,  // measure 58
0010
0100
0001
1000
0100
0010
0001
0100
,  // measure 59
0010
1000
0001
0100
0010
0100
0001
1000
,  // measure 60
0100
0010
0100
0010
0001
1000
0100
1000
,  // measure 61
0001
0010
0001
0100
0010
0100
0001
1000
,  // measure 62
0010
1100
0010
1100
,  // measure 63
0010
0100
0001
0000
0010
0100
1000
0000
,  // measure 64
0001
0100
0001
1000
0100
1000
0010
0000
,  // measure 65
0100
0010
0100
0000
1001
0000
0110
0000
,  // measure 66
0010
0100
0001
1000
0010
1000
0100
1000
,  // measure 67
0001
0010
0100
1000
0001
0100
0001
0010
,  // measure 68
0100
0010
0001
1000
0100
0001
0100
1000
,  // measure 69
0010
0100
0001
1000
0100
0010
0001
1000
,  // measure 70
0010
0000
0110
0000
0010
1000
0001
0000
,  // measure 71
0100
0001
0010
0100
1000
0000
0001
0000
,  // measure 72
0100
0001
0100
0000
0010
1000
0010
0000
,  // measure 73
1000
0000
0001
0100
1000
0100
0001
0000
,  // measure 74
1100
0101
1100
0001
,  // measure 75
0010
0100
0001
1000
0010
0100
0010
0100
;
