#TITLE:Burning Up for You;
#SUBTITLE:;
#ARTIST:SARA;
#TITLETRANSLIT:;
#SUBTITLETRANSLIT:;
#ARTISTTRANSLIT:;
#GENRE:;
#CREDIT:;
#MENUCOLOR:;
#NEWMETERSYSTEM:NO;
#BANNER:Burning Up for You-bn.png;
#BACKGROUND:Burning Up for You-bg.png;
#LYRICSPATH:;
#CDTITLE:MixMania 4 CD Title.png;
#MUSIC:Burning Up for You.mp3;
#OFFSET:-1.140;
#SAMPLESTART:68.560;
#SAMPLELENGTH:11.980;
#SELECTABLE:YES;
#LISTSORT:;
#BPMS:0.000=155.700;
#STOPS:;
#BGCHANGES:;
#ATTACKS:;

//---------------dance-single - ----------------
#NOTES:
     dance-single:
     :
     Easy:
     3:
     0.266,0.327,0.079,0.070,0.000:
0000
0000
0000
0000
,
0000
0000
0000
0000
,
0000
0000
0000
0000
,
0000
0000
0000
0000
,
0001
0100
1000
0100
,
0001
0100
1000
0100
,
0001
0010
1000
0010
,
0002
0000
0200
0303
,
1001
0000
0000
1000
,
0100
0001
0010
0000
,
1001
0000
0000
0001
,
0100
1000
0010
0000
,
0010
0000
0000
0001
0000
0000
0100
0000
,
0000
0000
0010
1000
,
0100
0000
0000
1000
0000
0000
0001
0000
,
0000
0000
0000
0010
,
0001
0000
0000
0100
0000
0000
0010
0000
,
0000
0000
1000
1000
,
0100
0000
0000
1000
0000
0000
0010
0000
,
0200
0000
0000
0010
0000
0010
0300
0000
,
1001
0001
0100
1000
,
0100
0001
0010
0100
,
1000
0001
0100
0010
,
1000
0100
0010
1000
,
0001
0100
0010
0100
,
0001
1000
0100
0010
,
0100
0010
0001
1000
,
0001
0000
1000
0000
,
1001
0000
0001
0100
,
0010
0000
1000
0010
,
0100
0000
0001
1000
,
0001
0000
0010
0001
,
1000
0000
0100
1000
,
0100
0000
0010
0100
,
0010
0000
0001
0100
,
0002
0000
2000
3003
,
0010
0100
0001
0000
,
1000
0100
1000
0000
,
0010
0100
0010
0000
,
1000
0100
0001
0000
,
0010
0001
0100
0000
,
0010
0100
0010
0000
,
1000
0001
1000
0000
,
0020
0000
0000
0130
,
1001
0100
0001
1000
,
0001
0100
1000
0100
,
1001
0010
0001
1000
,
0100
0010
0100
1000
,
0001
0000
0000
0100
0000
0000
1000
0000
,
0100
0000
0000
0010
0000
0000
1000
0000
,
0100
0010
0001
1000
,
0001
0000
1001
0000
,
1001
0100
0010
0001
,
1000
0001
0100
0001
,
1001
0100
1000
0001
,
0100
0010
1000
0001
,
0100
0000
0000
0001
0000
0000
1000
0000
,
0100
0000
0000
0010
0000
0000
0100
0000
,
1000
0000
0000
0001
0000
0000
0100
0000
,
0002
0000
2003
0000
,
3100
0000
0000
0010
0000
0000
0001
0000
,
0000
0000
1000
0001
,
1000
0000
0000
0010
0000
0000
0100
0000
,
0000
0000
0000
0100
,
0010
0000
0000
0100
0000
0000
0001
0000
,
0000
0000
1000
0001
,
0100
0000
0000
1000
0000
0000
0100
0000
,
1000
0000
0000
0001
0000
0000
1000
0000
,
0100
0000
0000
0000
;

//---------------dance-single - Copied from----------------
#NOTES:
     dance-single:
     Copied from:
     Beginner:
     1:
     0.109,0.149,0.017,0.061,0.000:
0000
0000
0000
0000
,
0000
0000
0000
0000
,
0000
0000
0000
0000
,
0000
0000
0000
0000
,
0001
0000
0001
0000
,
1000
0000
1000
0000
,
0001
0000
0001
0000
,
0200
0000
0300
0000
,
0100
0000
0000
0000
,
0000
0000
0000
0000
,
0010
0000
0000
0000
,
0000
0000
0000
0000
,
1000
0000
0000
1000
,
0000
0000
0010
0000
,
0001
0000
0000
0001
,
0000
0000
0000
0000
,
0100
0000
0000
0010
,
0000
0000
0000
0000
,
0100
0000
0000
0001
,
0002
0000
0003
0000
,
1000
0000
0000
0100
,
0000
0000
0010
0000
,
0100
0000
0000
0010
,
0000
0000
0000
0100
,
0100
0000
0000
0010
,
0000
0000
0001
0000
,
0001
0000
0000
1000
,
1000
0000
0000
0100
,
0100
0000
0000
0000
,
0010
0000
0000
0000
,
0100
0000
0000
0000
,
1000
0000
0000
0000
,
0002
0000
0003
0000
,
1000
0000
0000
0000
,
0100
0000
0000
0000
,
2000
0000
3000
0000
,
0010
0000
0000
0000
,
0100
0000
0000
0000
,
0001
0000
0000
0000
,
1000
0000
0000
0000
,
0100
0000
0000
0000
,
0010
0000
0000
0000
,
0100
0000
0000
0000
,
0002
0000
0003
0000
,
1001
0000
0000
0000
,
0010
0000
0000
0000
,
0100
0000
0000
0000
,
1000
0000
0000
0000
,
0010
0000
0000
0000
,
0100
0000
0000
0000
,
0001
0000
0000
0000
,
2000
0000
3000
0000
,
1001
0000
0000
0000
,
0100
0000
0000
0000
,
0010
0000
0000
0000
,
0001
0000
0000
0000
,
1000
0000
0000
0000
,
0010
0000
0000
0000
,
0100
0000
0000
0000
,
0002
0000
0003
0000
,
0100
0000
0000
0100
,
0000
0000
0010
0000
,
1000
0000
0000
1000
,
0000
0000
0000
0001
,
0001
0000
0000
0010
,
0000
0000
0100
0000
,
0010
0000
0000
0001
,
0001
0000
0000
1000
,
1000
0000
0000
0000
;

//---------------dance-single - Copied from----------------
#NOTES:
     dance-single:
     Copied from:
     Medium:
     6:
     0.405,0.416,0.131,0.017,0.000:
0000
0000
0000
0000
,
0000
0000
0000
0000
,
0000
0000
0000
0000
,
0000
0000
0000
0000
,
0010
0000
1000
0100
0001
0000
0010
0000
,
1000
0000
0001
0100
1000
0000
0001
0000
,
0100
0000
1000
0100
0001
0000
0010
0000
,
1000
0000
0001
0000
1000
0000
0001
1000
,
1001
0000
0100
0000
0010
0000
0001
0100
,
0000
0010
0000
1000
0000
0000
0100
0000
,
1100
0000
0100
0000
0010
0000
0001
1000
,
0000
0100
0000
1000
0000
0000
0000
0000
,
1001
0000
0000
0010
0000
0000
0001
0000
,
0100
0000
0001
0000
1000
0100
1000
0010
,
0100
0000
0000
0010
0000
0000
1000
0000
,
0100
0000
0010
0000
0001
0000
1000
0001
,
1000
0000
0000
0001
0000
0000
0100
0000
,
0010
1000
0001
0010
,
0100
0000
0000
0010
0000
0000
0001
0000
,
1000
0001
0000
0001
0000
0100
0010
1000
,
1100
0000
1000
0001
0000
0001
0100
0000
,
0010
0000
1000
0000
0001
1000
0100
0010
,
0001
0000
0001
0010
0000
0100
1000
0000
,
0001
0000
1000
0000
0001
0000
0100
0010
,
0100
0000
0100
0010
0000
1000
0010
0000
,
0100
0000
0001
0000
1000
0001
1000
0000
,
1001
0000
0001
0001
0000
0010
0100
0000
,
1100
0000
1000
0001
0000
0001
0100
0010
,
0100
0000
1000
0001
0100
0000
0010
0000
,
1000
0000
0100
0010
0001
0000
1000
0000
,
0001
0000
0100
0010
1000
0000
0001
0000
,
1000
0000
0100
0010
0001
1000
0001
0000
,
0001
1000
0100
0010
0100
0000
0010
0000
,
0001
0000
1000
0001
0000
0100
0001
0000
,
0010
0000
0001
0100
0000
0010
1000
0000
,
1001
0100
0010
0100
,
1001
0000
0001
0100
0000
0010
1000
0000
,
0100
0000
1000
0000
0010
0001
0100
1000
,
0010
0000
0100
0000
0001
0000
1000
0100
,
0010
0000
0001
0010
0000
0100
0000
0010
,
0001
0000
1000
0000
0001
0000
1000
0100
,
0010
0000
0100
1000
0000
0001
0000
0100
,
0001
1000
0100
1000
,
0010
0100
0001
0100
0000
0010
0100
0010
,
1001
0000
0100
0000
1000
0000
0001
1000
,
0000
1000
0000
0100
0000
0010
0001
0000
,
1000
0000
0100
0000
1000
0000
0010
0001
,
0000
0001
0000
0010
1000
0000
0100
0000
,
0010
0000
0000
0100
0000
0010
0001
0000
,
1000
0000
0000
0001
0000
0100
0010
0000
,
1000
0000
0001
1000
0000
0000
0100
0000
,
0000
1001
0000
0110
0000
1001
0000
0001
,
0110
0000
0010
0000
1000
0000
0100
1000
,
0000
0010
0000
0100
0000
0001
0000
0010
,
0001
0000
1000
0000
0001
0000
1000
0100
,
0000
0010
0000
0001
1000
0000
0100
0001
,
0010
0000
0001
0010
0000
0100
1000
0000
,
0010
0000
1000
0100
0000
0010
0001
0000
,
0100
0000
0001
0100
0000
0010
1000
0000
,
0002
0100
2000
3003
,
0110
0000
0001
0100
0000
0010
1000
0000
,
0100
0000
1000
0000
0010
1000
0100
0010
,
0001
0000
0100
0001
0000
0010
0001
0000
,
0100
0000
0001
0000
1000
0000
0010
1000
,
0100
0000
1000
0100
0000
0100
0010
0000
,
0001
0000
1000
0000
0001
0100
1000
0000
,
0100
0000
0010
1000
0000
0100
0010
0000
,
0001
1000
0000
0001
0000
1000
0001
1000
,
0110
0000
0000
0000
;

//---------------dance-single - Copied from----------------
#NOTES:
     dance-single:
     Copied from:
     Hard:
     7:
     0.479,0.476,0.122,0.000,0.000:
0000
0000
0000
0000
,
0000
0000
0000
0000
,
0000
0000
0000
0000
,
0000
0000
0000
0000
,
0001
0010
0100
1000
0001
0000
0010
0000
,
1000
0100
0010
0001
1000
0000
0100
0000
,
0010
0100
1000
0001
0010
0000
0100
0000
,
0010
0001
1000
0001
0100
0001
1000
0010
,
0100
0000
0100
0000
0010
0000
1000
0100
,
0000
0010
0000
0001
0000
0000
0100
0000
,
0001
0000
1000
0000
0001
0000
0010
0100
,
0000
1000
0000
0001
0000
0000
0100
0000
,
1001
0000
0010
0100
0000
0010
1000
0000
,
0100
0000
1000
0000
0010
0100
0001
0010
,
0100
0000
0100
1000
0000
1000
0010
0000
,
0100
0000
0001
0000
1000
0000
0001
1000
,
0001
0000
0100
0001
0000
0010
0001
0000
,
0100
0001
1000
0010
,
0100
0000
0010
1000
0000
0100
1000
0000
,
0001
1000
0000
1001
0000
0110
0010
1000
,
0100
0000
0100
0010
0000
0010
0001
0000
,
1000
0000
0001
0000
0100
0001
1000
0100
,
1000
0000
0010
0100
0000
0001
1000
0000
,
0100
0000
0010
0000
0001
0000
1000
0001
,
0100
0000
0010
1000
0000
0100
0001
0000
,
0010
0000
0001
0000
0100
0010
1000
0100
,
0010
0000
0001
0010
0000
0010
0100
0000
,
0010
0000
0100
1000
0000
1000
0100
0000
,
1001
0000
0100
0010
0001
1000
0001
0000
,
0100
0000
0010
1000
0001
0100
0001
0000
,
1000
0000
0100
1000
0010
0100
0001
0000
,
1000
0000
0001
0010
0001
0100
0010
0000
,
1000
0100
0010
0001
0000
0010
0100
1000
,
0010
0000
0100
0001
0000
0001
1000
0010
,
0100
0000
0010
1000
0000
0100
0010
0001
,
1000
0001
0000
1001
0000
0010
0100
0010
,
1000
0000
0100
0010
0000
0001
1000
0000
,
0001
0000
0100
0001
0010
0100
1000
0010
,
0100
0000
0001
0000
1000
0000
0001
0010
,
0001
0000
0100
0010
0000
1000
0000
0001
,
0100
0000
0010
0000
1000
0000
0001
0100
,
1000
0000
0100
0010
0000
1000
0000
0100
,
0010
0001
0100
0001
,
1000
0010
0010
0010
0000
1000
0100
0001
,
1001
0010
1000
0100
0010
0001
0100
0001
,
0000
1000
0001
0100
0000
0010
1000
0000
,
0010
0100
1000
0001
0100
0010
0100
0001
,
0000
1000
0100
0010
0000
0100
0010
0001
,
1000
0000
0001
0100
0000
0010
0100
0010
,
1000
0000
1000
0100
0000
0100
0010
0001
,
0100
0000
0001
1000
0000
0001
0100
0000
,
0010
0110
0000
1001
0000
0110
0010
0001
,
0100
0010
1000
0100
0010
0001
0100
0001
,
0000
1000
0100
1000
0000
0010
0100
0010
,
0001
0100
0010
1000
0100
0010
0001
0100
,
0000
0001
0100
1000
0000
0100
0010
0000
,
1000
0100
0010
0001
0000
0100
0001
0000
,
0001
1000
0100
0010
0000
0010
1000
0000
,
1000
0001
0010
0100
0000
0100
0001
0000
,
0001
1000
0100
1000
0001
0100
0001
1000
,
0101
0000
0100
0010
0000
1000
0001
0000
,
0001
0010
0100
0000
1000
0001
0010
0001
,
0100
0010
1000
0100
0000
0010
0001
0000
,
0100
0001
1000
0000
0001
1000
0010
0100
,
0010
0000
1000
0100
0000
0010
0001
0000
,
0100
0001
1000
0000
0001
0100
0010
1000
,
0100
0000
0010
0001
0000
0100
0001
0000
,
0100
0110
0000
1001
0000
1010
0010
0100
,
1001
0000
0000
0000
;

//---------------dance-single - Copied from ----------------
#NOTES:
     dance-single:
     Copied from:
     Challenge:
     8:
     0.573,0.535,0.201,0.000,0.000: // measure 1
0000
0000
0000
0000
,  // measure 2
0000
0000
0000
0000
,  // measure 3
0000
0000
0000
0000
,  // measure 4
0000
0000
0000
0000
,  // measure 5
0100
0010
0001
0010
0100
0010
0001
0010
,  // measure 6
0100
0010
0001
0010
0100
0010
0001
0010
,  // measure 7
1000
0100
0010
0100
1000
0100
0010
0100
,  // measure 8
1000
0001
0010
0100
1000
0001
0010
0100
,  // measure 9
1001
0100
0001
1000
0010
0100
0001
1000
,  // measure 10
0000
1000
0100
0010
0000
0010
0001
0100
,  // measure 11
0001
1000
0010
0100
0001
0010
0100
1000
,  // measure 12
0000
0100
1000
0010
0000
0100
0001
0000
,  // measure 13
1001
0001
0010
0001
0000
0100
0001
0000
,  // measure 14
1000
0010
0100
0001
0010
0100
1000
0010
,  // measure 15
0100
0001
1000
0100
0000
0100
1000
0000
,  // measure 16
0010
0100
0001
1000
0010
1000
0001
1000
,  // measure 17
0001
0000
0100
0001
0010
0001
0100
0000
,  // measure 18
0010
1000
0001
0000
0100
0001
0010
0100
,  // measure 19
1000
0000
0010
1000
0100
0010
0001
0000
,  // measure 20
0100
0011
0000
0110
0000
1100
0010
0100
,  // measure 21
1001
0010
0100
1000
0010
0100
0001
1000
,  // measure 22
0100
0001
0100
1000
0010
0100
0001
0010
,  // measure 23
0100
1000
0010
0100
0001
1000
0100
0001
,  // measure 24
0100
1000
0010
0100
0001
1000
0001
0001
,  // measure 25
0010
0001
0100
0010
1000
0001
0100
1000
,  // measure 26
0100
0001
0100
0010
1000
0100
0010
0001
,  // measure 27
0100
0001
1000
0100
0001
0100
1000
0010
,  // measure 28
0100
1001
0000
1001
0000
0010
0010
1000
,  // measure 29
0110
1000
0100
0010
0000
0010
0001
0100
,  // measure 30
0001
1000
0100
0010
0000
0010
0100
0001
,  // measure 31
1000
0001
0010
0001
0000
0100
0001
1000
,  // measure 32
0010
0100
0001
0010
0000
0010
0100
1000
,  // measure 33
0010
0100
0001
1000
0000
0001
1000
0010
,  // measure 34
0100
0000
0001
1000
0000
0100
0010
0001
,  // measure 35
1000
0000
0001
0100
0010
1000
0100
0010
,  // measure 36
0001
0100
0000
0101
0000
1000
0100
0010
,  // measure 37
0100
0010
0001
1000
0001
0100
0010
0000
,  // measure 38
1000
0000
0001
0100
1000
0100
0010
1000
,  // measure 39
0100
0000
0010
0000
0001
0100
0001
0010
,  // measure 40
0001
0000
0001
0100
0000
0100
0010
1000
,  // measure 41
0100
0000
0010
0001
0100
0000
0010
1000
,  // measure 42
0100
0010
0001
1000
0001
0100
0010
1000
,  // measure 43
0100
1000
0010
0100
,  // measure 44
0001
1000
0100
1001
0000
0001
0001
0010
,  // measure 45
1001
0100
0010
1000
0100
0010
0001
0100
,  // measure 46
0001
0100
0001
0100
0000
0010
1000
0100
,  // measure 47
0010
0001
0100
0010
0100
0001
0100
1000
,  // measure 48
0100
1000
0100
1000
0000
0100
0010
0100
,  // measure 49
0001
0000
1000
0001
0100
0010
1000
0100
,  // measure 50
0010
0000
0010
0001
0100
0010
1000
0100
,  // measure 51
0010
0000
0100
0010
0001
0000
0100
0000
,  // measure 52
0001
1001
0000
1001
0000
0010
0100
0001
,  // measure 53
0011
0000
0001
0100
0010
1000
0100
0010
,  // measure 54
0100
0010
0100
0010
0000
0000
0001
0100
,  // measure 55
1000
0100
0010
0001
1000
0001
0010
0100
,  // measure 56
0010
0100
0010
0100
0000
0000
1000
0000
,  // measure 57
1001
0001
0100
0010
0000
1000
0100
0000
,  // measure 58
1100
0100
0010
0001
0000
0100
0001
0000
,  // measure 59
1001
0010
0100
0010
0000
0100
0010
0000
,  // measure 60
0110
0001
0100
1000
0100
0001
0010
0001
,  // measure 61
0101
0000
0001
1000
0100
1000
0001
0000
,  // measure 62
0010
0000
0001
0000
0100
0001
0010
0100
,  // measure 63
1000
0100
0010
0001
0100
0010
1000
0000
,  // measure 64
0001
0000
0100
0000
0010
1000
0100
0010
,  // measure 65
0100
0010
0001
0100
0001
1000
0100
0000
,  // measure 66
0010
0000
0100
0000
0001
0010
0001
1000
,  // measure 67
0100
0000
1000
0100
0000
0100
0010
0000
,  // measure 68
0010
0011
0000
1001
0000
0001
0100
1000
,  // measure 69
1100
0000
0000
0000
;
