#TITLE:BLUE MIRAGE;
#SUBTITLE:;
#ARTIST:DJ CHUCKY;
#TITLETRANSLIT:;
#SUBTITLETRANSLIT:;
#ARTISTTRANSLIT:;
#GENRE:;
#CREDIT:;
#MENUCOLOR:#000099;
#NEWMETERSYSTEM:NO;
#BANNER:BLUE MIRAGE-bn.png;
#BACKGROUND:BLUE MIRAGE-bg.png;
#LYRICSPATH:;
#CDTITLE:MixMania 4 CD Title.png;
#MUSIC:BLUE MIRAGE.mp3;
#OFFSET:-3.240;
#SAMPLESTART:45.580;
#SAMPLELENGTH:12.000;
#SELECTABLE:YES;
#LISTSORT:;
#BPMS:0.000=170.000;
#STOPS:;
#BGCHANGES:;
#ATTACKS:;

//---------------dance-single - ----------------
#NOTES:
     dance-single:
     :
     Easy:
     6:
     0.396,0.458,0.084,0.075,0.239:
0000
0000
0000
0000
,
0000
0000
0000
0000
,
0000
0000
0000
0000
,
0000
0000
0000
0000
,
0001
0001
0100
0100
,
0001
0001
0010
0010
,
0100
0100
1000
1000
,
0020
0000
0000
0130
,
1001
0100
0001
1000
,
0010
0100
0001
1000
,
0100
0010
0100
0001
,
0100
1000
0010
0100
,
0001
0010
0001
1000
,
0001
0100
1000
0100
,
0001
0100
1000
0100
,
0010
1000
0100
0010
,
0001
0000
0000
0000
1000
0000
0000
0001
0000
0000
1000
0000
0000
0001
0000
0000
,
0000
0000
0000
0000
,
0100
0000
0000
0000
0010
0000
0000
0100
0000
0000
0010
0000
0000
0100
0000
0000
,
0000
0000
0000
0000
,
0010
0000
0000
0000
1000
0000
0000
0010
0000
0000
1000
0000
0000
0001
0000
0000
,
0001
0000
0000
0000
0100
0000
0000
0001
0000
0000
0100
0000
0000
0001
0000
0000
,
1000
0000
0000
0000
0100
0000
0000
0010
0000
0000
0100
0000
0000
0010
0000
0000
,
0100
0000
0000
0000
1000
0000
0000
0100
0000
0000
1000
0000
0000
0100
0000
0000
,
0010
0010
0100
0100
,
1000
1000
0001
0001
,
0010
0100
1000
0001
,
0010
0100
1000
0001
,
0220
0000
0000
0330
,
0001
0000
0001
0000
1000
0100
0001
0000
,
1001
1000
0001
0100
,
0001
0000
0000
0010
0000
0000
0100
0000
0000
1000
0000
0100
,
0010
0100
1000
0001
,
0010
0000
0000
0001
0000
0000
0100
0000
0000
0010
0000
0100
,
0010
0100
0001
1000
,
0001
0000
0000
0010
0000
0000
0100
0000
0000
0010
0000
0001
,
1000
0001
0100
0010
,
1000
0100
1000
1000
,
1100
1000
0010
0100
,
0001
0000
0000
1000
0000
0000
0001
0000
0000
0010
0000
0001
,
1000
0100
0010
0100
,
0010
0000
0000
0001
0000
0000
1000
0000
0000
0100
0000
0100
,
1000
1000
0010
0100
,
0001
0000
0000
1000
0000
0000
0001
0000
0000
0010
0000
0001
,
0010
0001
0100
0010
,
2000
0001
0002
3003
,
1001
0010
0100
0001
,
1000
0000
0000
0100
0000
0000
0010
0000
0000
0100
0000
1000
,
0010
0100
0001
1000
,
0001
0000
0000
0010
0000
0000
0100
0000
0010
0001
0000
0010
,
0001
0100
0001
1000
,
0010
0000
0000
0100
0000
0000
0001
0000
0000
1000
0000
0001
,
0100
0010
1000
0001
,
0100
0000
0000
0100
0000
0000
0010
0000
0100
0010
0000
0100
,
0010
1000
0100
0010
,
0100
0000
0000
0010
0000
0000
0001
0000
0000
1000
0000
0001
,
0100
0010
1000
0001
,
0100
0000
0000
0001
0000
0000
1000
0000
0010
0100
0000
0010
,
1000
0100
1000
0010
,
0100
0000
0000
0010
0000
0000
1000
0000
0000
0100
0000
0010
,
0100
0010
0001
1000
,
0100
0100
0010
0001
,
0101
0000
0000
0001
0000
1000
0000
0000
0001
0000
0000
0000
,
0100
0000
0000
0010
0000
0100
0000
0000
0100
0000
0000
0000
,
0010
0000
0000
1000
0000
0100
0000
0000
0010
0000
0000
0000
,
0001
0000
0000
0100
0000
0001
0000
0000
0001
1000
0000
0000
,
0100
0000
0000
1000
0000
0010
0000
0000
0010
0000
0000
0000
,
1000
0000
0000
0100
0000
0010
0000
0000
0010
0000
0000
0000
,
0100
0000
0000
1000
0000
0001
0000
0000
0001
0100
0000
0000
,
1001
1001
0220
0330
,
0010
0000
0000
1000
0000
1000
0000
0000
0010
1000
0000
0000
,
0100
0000
0000
1000
0000
0001
0000
0000
0001
0010
0000
0000
,
0100
0000
0000
0010
0000
0001
0000
0000
0001
1000
0000
0000
,
0100
0000
0000
0010
0000
0100
0010
0000
1000
0000
0010
0000
,
1000
0000
0000
0100
0000
1000
0000
0000
0001
0010
0000
0000
,
0001
0000
0000
0100
0000
0001
0000
0000
1000
0100
0000
0000
,
0010
0000
0000
0100
0000
0100
1000
0000
1000
0001
0000
0000
,
0220
0000
0000
0000
,
0330
0000
0000
0000
;

//---------------dance-single - Copied from----------------
#NOTES:
     dance-single:
     Copied from:
     Beginner:
     2:
     0.170,0.196,0.034,0.075,0.000:
0000
0000
0000
0000
,
0000
0000
0000
0000
,
0000
0000
0000
0000
,
0000
0000
0000
0000
,
0100
0000
0000
0000
,
0100
0000
0000
0000
,
0010
0000
0000
0000
,
0001
0000
0000
0000
,
0000
1000
0000
1000
,
0000
0001
0000
0001
,
0000
0010
0000
0010
,
0000
0100
0000
0100
,
0000
1000
0000
1000
,
0000
0010
0000
0010
,
0000
0100
0000
0100
,
0000
0001
0000
0001
,
0002
0000
0000
0000
,
0003
0000
0000
0000
,
2000
0000
0000
0000
,
3000
0000
0000
0000
,
0020
0000
0030
0000
,
0200
0000
0300
0000
,
0002
0000
0003
0000
,
0020
0000
0030
0000
,
0100
0000
1000
0000
,
0100
0000
0010
0000
,
0001
0000
1000
0000
,
0010
0000
0100
0000
,
1001
0000
0000
0000
,
0100
0000
0000
0000
,
0010
0000
0010
0000
,
0100
0000
0010
0000
,
1000
0000
0001
0000
,
0010
0000
0100
0000
,
1000
0000
0010
0000
,
0100
0000
0001
0000
,
0001
0000
0010
0000
,
0100
0000
1000
0000
,
1000
0000
0010
0000
,
0100
0000
0001
0000
,
0010
0000
0001
0000
,
0001
0000
0100
0000
,
0010
0000
1000
0000
,
0100
0000
0010
0000
,
0001
0000
0100
0000
,
0010
0000
0010
0000
,
1001
0000
0100
0000
,
1000
0000
0001
0000
,
0010
0000
0100
0000
,
0010
0000
0010
0000
,
0001
0000
1000
0000
,
0100
0000
1000
0000
,
0010
0000
1000
0000
,
0100
0000
0010
0000
,
0100
0000
1000
0000
,
0001
0000
0010
0000
,
0001
0000
1000
0000
,
0010
0000
0100
0000
,
0001
0000
0010
0000
,
0100
0000
0010
0000
,
0001
0000
1000
0000
,
0200
0000
0300
0000
,
1100
0000
0100
0000
,
0010
0000
0001
0000
,
0100
0000
0001
0000
,
1000
0000
0001
0000
,
0010
0000
0001
0000
,
0100
0000
0001
0000
,
0010
0000
0100
0000
,
2000
0000
3000
0000
,
0011
0000
0001
0000
,
1000
0000
0100
0000
,
0010
0000
0100
0000
,
1000
0000
1000
0000
,
0010
0000
0100
0000
,
0001
0000
1000
0000
,
0100
0000
0010
0000
,
0002
0000
0000
0000
,
0003
0000
0000
0000
;

//---------------dance-single - Copied from----------------
#NOTES:
     dance-single:
     Copied from:
     Medium:
     7:
     0.443,0.588,0.151,0.042,0.293:
0000
0000
0000
0000
,
0000
0000
0000
0000
,
0000
0000
0000
0000
,
0000
0000
0000
0000
,
0010
0100
0001
1000
,
0001
0010
0100
1000
,
0001
0100
0001
1000
,
0020
1000
0100
1030
,
1001
0000
0100
0000
1000
0100
0010
0000
,
0100
0000
1000
0000
0001
0010
0100
0000
,
0001
0000
0100
0000
0010
0100
1000
0000
,
0100
0000
1000
0000
0100
0010
0001
0000
,
0100
0000
0001
0000
1000
0001
0100
0000
,
0001
0000
0010
0000
0100
1000
0001
0000
,
0100
0000
0010
0000
1000
0010
0100
0000
,
0001
0000
1000
0000
0001
0010
0100
1000
,
0001
0000
0000
0000
0001
0000
0000
1000
0000
0000
0001
0000
0000
0200
0000
0000
,
0000
0000
0300
0000
,
1000
0000
0000
0000
1000
0000
0000
0100
0000
0000
0010
0000
0000
0002
0000
0000
,
0000
0000
0003
0000
,
1000
0000
0000
0000
0001
0000
0000
0010
0000
0000
0001
0000
0000
0100
0000
0000
,
0010
0000
0000
0000
0010
0000
0000
1000
0000
0000
0001
0000
0000
0100
0000
0000
,
0001
0000
0000
0000
0100
0000
0000
1000
0000
0000
0100
0000
0000
0010
0000
0000
,
0001
0000
0000
0000
0100
0000
0000
0010
0000
0000
1000
0000
0000
0001
0000
0000
,
0001
0011
0101
1100
,
1010
1100
0011
0101
,
1100
0110
1001
1010
,
0001
0010
0100
1000
0001
0010
0001
1000
,
1100
0000
0000
0000
,
0010
0100
0010
0100
0010
0100
0001
0000
,
1001
0100
0001
1000
,
0100
0000
0000
0010
0000
0000
0100
0000
0000
1000
0000
0001
,
0010
0100
1000
0100
,
0010
0000
0000
0100
0000
0000
0010
0000
0001
1000
0000
0100
,
1000
0010
0100
0001
,
1000
0000
0000
0100
0000
0000
0010
0000
0000
0100
0000
1000
,
0010
0100
0001
0010
,
0100
0000
0000
0010
0000
0000
0001
0000
0100
0001
1000
0100
,
0010
0100
1000
0001
,
0010
0000
0000
0100
0000
0000
0010
0000
0000
0100
0000
0010
,
0001
1000
0010
0100
,
0001
0000
0000
1000
0000
0000
0001
0000
0100
0001
0000
1000
,
0100
0010
0100
0010
,
0001
0000
0000
1000
0000
0000
0100
0000
0000
0010
0000
0100
,
0010
0001
0100
0001
,
0001
0000
0000
0010
0000
0010
0100
0000
0000
1000
0000
0000
,
0101
0001
1000
0100
,
0010
0000
0000
0100
0000
0000
1000
0000
0000
0010
0000
0100
,
0001
1000
0100
0010
,
0001
0000
0000
1000
0000
0000
0001
0000
0100
0010
0000
1000
,
0100
1000
0010
0100
,
0001
0000
0000
0010
0000
0000
0001
0000
0000
1000
0000
0001
,
0010
0001
0100
0010
,
1000
0000
0000
0001
0000
0000
0100
0000
0001
1000
0100
0010
,
0100
1000
0010
0100
,
0001
0000
0000
1000
0000
0000
0001
0000
0000
0010
0000
0010
,
0001
0100
0001
1000
,
0100
0000
0000
1000
0000
0000
0010
0000
0100
0010
0000
0001
,
0100
0010
1000
1000
,
0100
0000
0000
1000
0000
0000
0001
0000
0000
0010
0000
0010
,
0001
0100
0001
1000
,
0020
0100
1000
0130
,
1001
0000
0000
0100
0000
0001
0000
0000
1000
0100
0000
0000
,
0010
0000
0000
0100
0000
1000
0000
0000
1000
0001
0000
0000
,
0100
0000
0000
0001
0000
0010
0000
0000
0010
0001
0000
0000
,
0100
0000
0000
0001
0000
0010
0000
0000
0010
0100
0000
0100
,
1000
0000
0000
1000
0000
0100
0000
0000
0100
1000
0000
0000
,
0010
0000
0000
0100
0000
0001
0000
0000
1000
0001
0000
0000
,
0100
0000
0000
0001
0000
0010
0000
0000
0010
0100
0000
0000
,
1000
0000
0100
0000
0010
0000
0001
0000
0010
0000
0100
0000
,
1001
0000
0000
0010
0000
0100
0000
0000
0010
0100
0000
0000
,
1000
0000
0000
0001
0000
0100
0000
0000
0010
0100
0000
0000
,
0001
0000
0000
1000
0000
0010
0000
0000
0100
0010
0000
0000
,
0100
0000
0000
0010
0000
0100
0010
0000
1000
0000
0100
0000
,
0110
0000
0000
0010
0000
0001
0000
0000
1000
0100
0000
0000
,
0010
0000
0000
0100
0000
0010
0000
0000
0001
0100
0000
0000
,
0010
0000
0000
1000
0000
0100
0010
0000
0010
0001
0000
0001
,
2000
0000
0000
0000
,
3000
0000
0000
0000
;

//---------------dance-single - Copied from----------------
#NOTES:
     dance-single:
     Copied from:
     Hard:
     9:
     0.658,0.686,0.779,0.050,0.482:
0000
0000
0000
0000
,
0000
0000
0000
0000
,
0000
0000
0000
0000
,
0000
0000
0000
0000
,
0001
0010
0001
0000
0100
0001
1000
0000
,
0100
1000
0010
0100
0001
1000
0001
0000
,
0010
0100
0010
0000
1000
0100
1000
0000
,
0001
0010
0100
1000
0100
0010
0100
1000
,
0001
0100
0001
0000
1000
0100
1000
0000
,
0010
0100
0001
0010
0100
0000
1001
0000
,
0100
1000
0010
0000
0100
0001
0010
0000
,
0001
1000
0001
0010
0001
0100
0100
0000
,
0010
1000
0100
0000
0010
0100
0010
0000
,
0001
1000
0100
0010
0001
0000
1100
0000
,
0010
0100
0010
0000
0001
0010
0001
0000
,
0100
0010
1000
0100
0010
0001
1000
0000
,
0010
0000
1000
0000
0010
0100
0000
0010
0100
0000
0001
0010
0000
0001
0020
0000
,
0000
0000
0030
0000
,
0010
0000
0001
0000
1000
0100
0000
1000
0100
0000
0010
0100
0000
0010
0200
0000
,
0000
0000
0300
0000
,
0010
0000
1000
0000
0001
0100
0000
0001
0100
0000
0010
1000
0000
0010
1000
0000
,
0100
0000
0010
0000
0001
0010
0000
0001
0010
0000
0100
1000
0000
0100
1000
0000
,
0100
0000
0010
0000
0001
1000
0000
0001
1000
0000
0010
0100
0000
0010
0100
0000
,
1000
0000
0001
0000
1000
0010
0000
1000
0010
0000
0100
0001
0000
0100
0001
0000
,
0010
0100
1000
0001
0100
1000
0100
0010
,
1000
0100
0010
0001
0010
0100
0010
0001
,
0100
0010
1000
0001
0100
0001
0010
0001
,
1000
0100
0010
0100
1000
0010
0100
0001
,
1010
0000
0000
0000
,
0010
1000
0010
1000
0001
0100
0011
0000
,
1001
0110
0011
1100
,
0101
0000
0000
0011
0000
0000
0101
0000
0000
0100
0000
1000
,
0010
0101
0011
1100
,
0101
0000
0000
0011
0000
0000
1100
0000
0100
0010
0000
0010
,
0001
1100
0101
0011
,
0110
0000
0000
1001
0000
0000
0110
0000
0000
0001
0000
1000
,
0100
1010
1100
1001
,
0011
0000
0000
0101
0000
0000
0011
0000
0001
0010
0100
1000
,
0010
0110
0101
1010
,
1100
0000
0000
1001
0000
0000
0110
0000
0000
0011
0000
1000
,
0010
0110
1010
0101
,
0011
0000
0000
1001
0000
0000
1010
0000
1000
0100
0000
0001
,
0100
0101
1010
0101
,
1100
0000
0000
1010
0000
0000
0011
0000
0000
0101
0000
1000
,
0010
1001
0011
1001
,
0100
0010
0000
1000
0000
0001
0100
0001
1000
0001
0010
0100
,
1000
0000
0100
0010
0000
0000
0001
0000
0100
0001
0000
0000
,
1000
0000
0100
1000
0000
0010
0100
0000
0000
0001
0000
0010
,
0001
0000
0100
0010
0000
0000
1000
0000
0100
1000
0000
0000
,
0010
0000
0100
0010
0000
0100
0001
0000
0000
1000
0000
0010
,
0100
0000
0001
0010
0000
0000
0100
0000
1000
0100
0000
0000
,
0100
0000
0010
0100
0000
0001
0010
0000
0000
0100
0000
1000
,
0001
0000
0010
0001
0000
0000
0100
0000
0010
0100
0000
0000
,
0010
0000
0100
0010
0000
0010
0001
0000
0000
0001
1000
0001
,
1000
1100
0110
1001
,
0011
1001
0110
1010
,
0101
1010
0011
1100
,
0010
0000
0100
0001
0000
1000
0010
0000
0100
0001
0010
0100
,
1000
0011
0110
1010
,
1001
0000
0000
0011
0000
0000
0110
0000
0000
1001
0000
0100
,
0010
0110
0011
1100
,
2002
0000
0000
3003
,
0011
0000
0000
0100
0000
1000
0010
0100
0001
0010
0000
0000
,
0110
0000
0000
0100
0000
0010
0001
0100
0010
1000
0000
0000
,
0110
0000
0000
0100
0000
0001
1000
0100
1000
0100
0000
0000
,
0011
0000
0000
0100
0000
0001
0100
0000
0001
0100
0010
1000
,
0100
0000
0000
1000
0000
0100
0001
0100
1000
0010
0000
0000
,
0110
0000
0000
0001
0000
1000
0001
0010
0100
0010
0000
0000
,
0011
0000
0000
1000
0000
0001
0100
0010
0100
1000
0000
0000
,
1001
0000
0010
0000
0100
0000
0011
0000
1100
0000
0110
0000
,
1001
0000
0000
1000
0000
0100
0010
0100
1000
0001
0000
0000
,
0101
0000
0000
1000
0000
0100
1000
0010
0100
0001
0000
0000
,
0011
0000
0000
1000
0000
0100
0010
0001
1000
0100
0000
0000
,
1010
0000
0000
0100
0000
0010
1000
0000
0001
0000
0110
0000
,
1001
0000
0000
0100
0000
0010
1000
0010
0100
0001
0000
0000
,
0110
0000
0000
0100
0000
0010
0100
1000
0100
0010
0000
0000
,
1001
0000
0000
0100
0000
0010
0100
0010
0001
1000
0000
0000
,
0022
0000
0000
0000
,
0033
0000
0000
0000
;

//---------------dance-single - Copied from----------------
#NOTES:
     dance-single:
     Copied from:
     Challenge:
     9:
     0.722,0.686,0.888,0.050,0.570: // measure 1
0000
0000
0000
0000
,  // measure 2
0000
0000
0000
0000
,  // measure 3
0000
0000
0000
0000
,  // measure 4
0000
0000
0000
0000
,  // measure 5
0010
0100
0001
1000
0100
0010
0100
1000
,  // measure 6
0001
0100
0001
0100
0010
1000
0100
0010
,  // measure 7
0001
0100
0001
0010
1000
0010
0001
0100
,  // measure 8
0020
1000
0230
0000
0301
0100
1000
0100
,  // measure 9
0001
0100
0010
1000
0001
0010
0001
1000
,  // measure 10
0100
1000
0010
0100
0010
1000
0100
0010
,  // measure 11
0001
0100
0001
1000
0010
0100
0010
0100
,  // measure 12
0001
0010
0100
0010
1000
0100
0010
1000
,  // measure 13
0001
0010
0100
1000
0010
0100
0001
1000
,  // measure 14
0001
0010
0001
0100
0001
0100
1000
0100
,  // measure 15
0001
0100
0010
0100
0001
1000
0100
0010
,  // measure 16
0001
0100
1000
0100
0001
0010
0100
1000
,  // measure 17
0001
0000
0100
0000
0001
0010
0000
0100
1000
0000
0010
0100
0000
0001
2000
0000
,  // measure 18
0000
0000
0000
3000
,  // measure 19
0100
0000
0010
0000
0100
0001
0000
0100
1000
0000
0010
0100
0000
0001
0020
0000
,  // measure 20
0000
0000
0000
0030
,  // measure 21
0001
0000
0100
0000
0010
0100
0000
0001
0010
0000
1000
0100
0000
0010
0100
0000
,  // measure 22
0010
0000
0001
0000
1000
0010
0000
0100
0001
0000
0010
0001
0000
0010
0100
0000
,  // measure 23
1000
0000
0001
0000
0010
0001
0000
0010
0100
0000
1000
0100
0000
0010
0100
0000
,  // measure 24
1000
0000
0010
0000
0001
0100
0000
0010
0100
0000
0010
1000
0000
0100
1000
0000
,  // measure 25
0100
0010
0001
1000
0010
0100
0001
0010
,  // measure 26
1000
0100
0010
1000
0001
0010
0100
1000
,  // measure 27
0001
0100
0001
1000
0100
1000
0010
0100
,  // measure 28
0010
1000
0010
1000
0010
0100
0001
0010
,  // measure 29
1001
0000
0000
0000
,  // measure 30
1000
0000
0100
0010
0000
1000
0001
0000
0100
0010
0000
0100
0001
0000
0000
0000
,  // measure 31
1001
0110
0101
1010
,  // measure 32
0011
0000
0000
1010
0000
0000
0101
0000
0000
0011
0000
0001
,  // measure 33
0100
1001
1100
0011
,  // measure 34
1100
0000
0000
0011
0000
1000
0100
0000
0100
0010
0001
1000
,  // measure 35
0001
0110
1100
0011
,  // measure 36
0101
0000
0000
1010
0000
0000
0101
0000
0000
0110
0000
0010
,  // measure 37
1000
0011
1100
0011
,  // measure 38
1100
0000
1000
0010
0000
0100
0001
1000
0001
0100
0010
0100
,  // measure 39
0001
0011
1010
1100
,  // measure 40
0101
0000
0000
1001
0000
0000
0110
0000
0000
1010
0000
0001
,  // measure 41
0100
0110
1100
0110
,  // measure 42
0101
0000
0000
1100
0000
1000
0100
0000
0100
0010
0100
1000
,  // measure 43
0001
0101
0110
1010
,  // measure 44
0011
0000
0000
1001
0000
0000
0110
0000
0000
0011
0000
0010
,  // measure 45
0100
1100
0110
0101
,  // measure 46
0001
1000
0000
0100
0000
0001
0100
0000
1000
0100
0010
0001
,  // measure 47
1000
1001
0101
1001
,  // measure 48
0110
0000
0000
1100
0000
0000
1001
0000
0000
1010
0000
0100
,  // measure 49
0010
0011
1100
0011
,  // measure 50
1001
0000
0000
0110
0000
0000
0011
0000
0001
0010
0000
0010
,  // measure 51
0100
1010
0101
0011
,  // measure 52
1010
0000
0000
0110
0000
0000
1010
0000
0000
0101
0000
1000
,  // measure 53
0100
0110
0101
1010
,  // measure 54
0101
0000
1000
0100
0000
0100
0010
0000
0001
0010
0100
1000
,  // measure 55
0001
0110
0011
1001
,  // measure 56
0110
0000
0000
1010
0000
0000
0101
0000
0000
0110
0000
0001
,  // measure 57
0010
1010
0110
0101
,  // measure 58
1001
0000
0000
0110
0000
0000
0011
0000
0010
0100
0000
1000
,  // measure 59
0100
1010
0101
1001
,  // measure 60
0011
0000
0000
1100
0000
0000
1001
0000
0000
0110
0000
0001
,  // measure 61
0100
0000
0000
1010
0000
0000
0011
0000
0001
1000
0000
0001
,  // measure 62
0100
0000
0010
0100
0000
0000
0100
0000
0010
0100
0000
0000
,  // measure 63
1010
0000
1000
0100
0000
0010
0100
0000
0001
0010
0100
1000
,  // measure 64
0010
0000
0100
0001
0000
0010
0100
0000
1000
0001
0010
0001
,  // measure 65
1000
0000
0100
1000
0000
0100
0001
0000
0010
0100
0001
0010
,  // measure 66
0001
0000
1000
0001
0000
0100
0001
0000
1000
0100
0000
0000
,  // measure 67
0110
0000
0001
0100
0000
0010
1000
0000
1000
0010
1000
0001
,  // measure 68
0010
0000
0100
0001
0000
0010
1000
0000
0010
0100
0001
1000
,  // measure 69
0010
0000
1000
0100
0000
0001
0010
0000
0100
1000
0000
0000
,  // measure 70
0011
0000
0110
0000
1100
0000
0101
0000
1010
0000
0101
0000
,  // measure 71
1001
0000
0100
0010
0000
0100
1000
0000
0001
0010
0001
0100
,  // measure 72
0001
0000
0010
1000
0000
0100
0010
0000
1000
0001
1000
0010
,  // measure 73
0100
0000
0001
0010
0000
1000
0100
0000
0010
0001
1000
0100
,  // measure 74
0010
0000
1000
0001
0000
0010
1000
0000
0101
0000
1001
0000
,  // measure 75
0110
0000
1000
0100
0000
0100
0010
0000
0001
0100
0001
0010
,  // measure 76
0100
0000
0010
0001
0000
0100
0010
0000
0100
1000
0010
1000
,  // measure 77
0010
0000
0010
0100
0000
0100
1000
0100
0010
0001
0000
0000
,  // measure 78
2002
0000
0000
0000
,  // measure 79
3003
0000
0000
0000
;
