#TITLE:ALL I NEED YOUR LOVE;
#SUBTITLE:;
#ARTIST:GUHROOVY fw. M-PROJECT;
#TITLETRANSLIT:;
#SUBTITLETRANSLIT:;
#ARTISTTRANSLIT:;
#GENRE:;
#CREDIT:;
#MENUCOLOR:;
#NEWMETERSYSTEM:NO;
#BANNER:ALL I NEED YOUR LOVE-bn.png;
#BACKGROUND:ALL I NEED YOUR LOVE-bg.png;
#LYRICSPATH:;
#CDTITLE:MixMania 4 CD Title.png;
#MUSIC:ALL I NEED YOUR LOVE.mp3;
#OFFSET:-2.020;
#SAMPLESTART:98.000;
#SAMPLELENGTH:12.000;
#SELECTABLE:YES;
#LISTSORT:;
#BPMS:0.000=145.000;
#STOPS:;
#BGCHANGES:;
#ATTACKS:;

//---------------dance-single - ----------------
#NOTES:
     dance-single:
     :
     Easy:
     4:
     0.328,0.339,0.091,0.166,0.000: // measure 1
0000
0000
0000
0000
,  // measure 2
0000
0000
0000
0000
,  // measure 3
1000
0100
0001
0100
,  // measure 4
1000
0100
0001
0000
,  // measure 5
0001
0010
1000
0010
,  // measure 6
0001
0010
1000
0000
,  // measure 7
0100
0010
0001
0010
,  // measure 8
0100
0010
0001
0000
,  // measure 9
0010
0100
1000
0100
,  // measure 10
0010
0010
0100
1001
,  // measure 11
0020
0130
0020
1030
,  // measure 12
0200
0310
0010
1000
,  // measure 13
0002
0103
0020
1030
,  // measure 14
0100
1000
0100
0010
,  // measure 15
0002
0103
2000
3100
,  // measure 16
0010
0100
0001
1000
,  // measure 17
0200
1300
0020
0031
,  // measure 18
0010
0001
1000
0000
,  // measure 19
1000
0010
0100
0001
,  // measure 20
0010
0100
1000
0010
,  // measure 21
0100
0001
1000
0100
,  // measure 22
1000
0010
0010
0100
,  // measure 23
0001
0010
1000
0010
,  // measure 24
0001
0100
0010
1000
,  // measure 25
0100
0010
0001
1000
,  // measure 26
0002
0100
0103
1001
,  // measure 27
0100
1000
0010
0100
,  // measure 28
0001
1000
0001
0000
,  // measure 29
1000
0100
0010
0100
,  // measure 30
1000
0010
0100
0000
,  // measure 31
0010
1000
0001
0100
,  // measure 32
0001
0010
0100
0000
,  // measure 33
0010
0100
0010
1000
,  // measure 34
0001
0010
0100
1000
,  // measure 35
1001
0001
1000
0100
,  // measure 36
0010
0100
0010
0100
,  // measure 37
1000
0001
0010
0001
,  // measure 38
0100
0010
0100
0010
,  // measure 39
1000
0001
0100
1000
,  // measure 40
0100
0001
0010
0100
,  // measure 41
1000
0010
0100
0100
,  // measure 42
0001
1000
0100
0010
,  // measure 43
0120
0000
0100
0000
,  // measure 44
0100
0000
0100
0030
,  // measure 45
2001
0000
0010
0000
,  // measure 46
0001
0010
3010
0000
,  // measure 47
0001
0100
0001
0100
,  // measure 48
0010
0100
0010
0100
,  // measure 49
1000
0100
1000
0100
,  // measure 50
0020
0000
0200
0330
,  // measure 51
1001
0001
1000
0100
,  // measure 52
0010
0100
1000
0001
,  // measure 53
0010
0100
0010
0001
,  // measure 54
2000
0100
3002
0100
,  // measure 55
0013
0100
1000
0010
,  // measure 56
0100
0001
1000
0100
,  // measure 57
0010
0001
0100
0010
,  // measure 58
0002
0100
2003
0100
,  // measure 59
3010
0100
0010
1001
,  // measure 60
0000
1000
0100
0010
,  // measure 61
0001
0100
2010
0100
,  // measure 62
3100
0010
0100
0000
,  // measure 63
0001
0010
0100
1001
,  // measure 64
0000
1000
0100
0010
,  // measure 65
0001
0100
0012
0100
,  // measure 66
0103
0010
1000
0000
,  // measure 67
1000
0100
0001
0100
,  // measure 68
1000
0010
0001
0001
,  // measure 69
0101
0000
0000
0000
;

//---------------dance-single - Copied from----------------
#NOTES:
     dance-single:
     Copied from:
     Beginner:
     1:
     0.093,0.141,0.000,0.050,0.000:
0000
0000
0000
0000
,
0000
0000
0000
0000
,
0100
0000
0000
0000
,
1000
0000
0000
0000
,
1000
0000
0000
0000
,
0001
0000
0000
0000
,
0010
0000
0000
0000
,
0100
0000
0000
0000
,
0010
0000
0000
0000
,
0001
0000
0000
0000
,
1000
0000
0000
0000
,
0000
0000
0000
0000
,
0001
0000
0000
0000
,
0100
0000
0000
0000
,
0010
0000
0000
0000
,
0000
0000
0000
0000
,
0100
0000
0000
0000
,
0002
0000
0003
0000
,
1000
0000
0000
0000
,
0100
0000
0000
0000
,
0010
0000
0000
0000
,
0001
0000
0000
0000
,
1000
0000
0000
0000
,
0001
0000
0000
0000
,
0100
0000
0000
0000
,
0010
0000
0000
0000
,
0100
0000
0000
0000
,
0010
0000
0000
0000
,
1000
0000
0000
0000
,
0001
0000
0000
0000
,
0010
0000
0000
0000
,
0100
0000
0000
0000
,
1000
0000
0000
0000
,
0001
0000
0000
0000
,
0100
0000
0000
0000
,
0100
0000
0000
0000
,
0001
0000
0000
0000
,
1000
0000
0000
0000
,
0001
0000
0000
0000
,
0001
0000
0000
0000
,
0010
0000
0000
0000
,
0100
0000
0000
0000
,
0020
0000
0000
0000
,
0000
0000
0000
0000
,
0000
0000
0030
0000
,
0001
0000
1000
0000
,
0002
0000
0003
0000
,
2000
0000
3000
0000
,
0020
0000
0030
0000
,
0200
0000
0300
0000
,
0010
0000
0000
0000
,
1000
0000
0000
0000
,
0001
0000
0000
0000
,
0010
0000
0100
0000
,
0010
0000
0000
0000
,
0001
0000
0000
0000
,
1000
0000
0000
0000
,
0100
0000
1000
0000
,
0100
0000
1000
0000
,
0000
0000
0001
0000
,
0010
0000
0001
0000
,
0100
0000
0000
0000
,
0010
0000
1000
0000
,
0010
0000
0000
0000
,
0100
0000
0001
0000
,
0100
0000
0001
0000
,
0010
0000
0000
0000
,
0100
0000
0010
0000
,
0010
0000
0000
0000
;

//---------------dance-single - Copied from----------------
#NOTES:
     dance-single:
     Copied from:
     Medium:
     5:
     0.401,0.397,0.175,0.183,0.012: // measure 1
0000
0000
0000
0000
,  // measure 2
0000
0000
0000
0000
,  // measure 3
0010
1000
0001
0100
,  // measure 4
0010
0000
1000
0000
0001
0001
0100
0000
,  // measure 5
0010
0001
0010
1000
,  // measure 6
0100
0000
0000
0000
1000
0000
0000
0000
0010
0000
0000
0010
0000
0000
1000
0000
,  // measure 7
0100
0001
0100
0010
,  // measure 8
1000
1000
0100
0010
,  // measure 9
0100
0001
0100
1000
,  // measure 10
0010
0000
0100
0000
0001
1000
0001
0000
,  // measure 11
1001
1000
0010
0100
,  // measure 12
0001
0000
1000
0000
0010
0000
0010
0100
,  // measure 13
0001
1000
0100
0010
,  // measure 14
1000
0000
0000
0001
0000
0000
0100
0000
0000
0000
0001
0000
1000
0000
0001
0000
,  // measure 15
0100
0010
1000
0001
,  // measure 16
0100
0000
0001
0000
0010
0000
0001
0001
,  // measure 17
0010
0100
1000
0010
,  // measure 18
2002
0003
0100
3100
,  // measure 19
1010
1000
0001
0100
,  // measure 20
0001
0000
0010
0001
0010
0001
0100
0000
,  // measure 21
0010
1000
0001
0100
,  // measure 22
0001
0000
1000
0010
1000
0010
0100
0000
,  // measure 23
0010
1000
0100
0010
,  // measure 24
0100
0000
1000
0100
1000
0010
0100
0000
,  // measure 25
0001
1000
0001
0010
,  // measure 26
0102
0013
0201
1300
,  // measure 27
0100
0000
1000
0000
0010
1000
0100
0000
,  // measure 28
0010
0000
0100
0000
0010
0001
1000
0000
,  // measure 29
0001
0000
1000
0000
0100
1000
0010
0000
,  // measure 30
0100
0000
0010
0000
0001
1000
0001
0000
,  // measure 31
0010
0000
0001
0000
0100
0001
0010
0000
,  // measure 32
0100
0000
0010
0000
1000
0100
1000
0000
,  // measure 33
0010
0010
0100
0000
1000
1000
0001
0000
,  // measure 34
0101
0000
1100
0000
0010
0100
0010
0000
,  // measure 35
1000
0001
0100
0001
,  // measure 36
1000
0100
1000
0010
,  // measure 37
0100
0010
0001
1000
,  // measure 38
0100
0010
0001
1001
,  // measure 39
0010
0001
1000
0100
,  // measure 40
0010
0000
0100
0000
1000
1000
0001
0000
,  // measure 41
0010
0001
0100
0010
,  // measure 42
2000
3002
0013
0011
,  // measure 43
2001
0000
0100
0000
,  // measure 44
0100
0000
0100
3000
,  // measure 45
1002
0000
0100
0000
,  // measure 46
0103
0000
0000
0100
0000
0000
0010
0000
0100
0000
1000
0000
1001
0000
0000
0000
,  // measure 47
0100
0001
1000
0100
,  // measure 48
1000
0001
0010
0001
,  // measure 49
0100
0010
0100
0010
,  // measure 50
0002
0000
1003
1100
,  // measure 51
0010
0000
0100
0000
0001
1000
0001
0000
,  // measure 52
0010
0000
0001
0000
1000
0100
1000
0000
,  // measure 53
0010
0000
0100
0000
0001
0010
0001
0000
,  // measure 54
2000
3100
0020
0031
,  // measure 55
0100
0000
0010
0000
1000
0010
1000
0000
,  // measure 56
0100
0000
0010
0000
0001
0010
0001
0000
,  // measure 57
0100
0000
0010
0000
1000
0010
1000
0000
,  // measure 58
0002
0013
0200
1300
,  // measure 59
0010
0000
1001
1000
0100
0000
1001
0000
,  // measure 60
0010
0002
0000
0203
0000
0300
1000
0000
,  // measure 61
0001
0000
1001
0001
1000
0000
1100
0000
,  // measure 62
0010
0200
0000
0302
0000
0003
0010
0000
,  // measure 63
1000
0000
1100
1000
0010
0000
1001
0000
,  // measure 64
0100
0020
0000
2030
0000
3000
0001
0000
,  // measure 65
1000
0000
1001
0001
0010
0000
0110
0000
,  // measure 66
0001
2000
0000
3002
0000
0003
0100
0000
,  // measure 67
0010
1000
0001
0000
0100
0001
1000
0000
,  // measure 68
0010
0000
0100
0000
0001
0000
1000
1000
,  // measure 69
0200
0300
0000
0000
;

//---------------dance-single - Copied from----------------
#NOTES:
     dance-single:
     Copied from:
     Hard:
     8:
     0.539,0.510,0.175,0.091,0.100: // measure 1
0000
0000
0000
0000
,  // measure 2
0000
0000
0000
0000
,  // measure 3
0110
0000
0001
0100
1000
0000
0010
0000
,  // measure 4
1000
0000
0001
0100
1000
0000
0010
0000
,  // measure 5
0100
0000
0001
0100
1000
0000
0010
0000
,  // measure 6
0100
0000
0001
0000
1000
0000
0100
0000
0010
0000
0000
1000
0000
0000
0001
0000
,  // measure 7
0100
0010
1000
0000
0001
0100
0001
0000
,  // measure 8
1000
0100
1000
0000
0010
0001
0010
0000
,  // measure 9
0100
0001
1000
0100
1000
0010
0100
0001
,  // measure 10
0100
0000
0010
0000
1000
0001
1000
0000
,  // measure 11
1001
0000
0100
0010
0100
0000
0001
1000
,  // measure 12
0001
0000
0010
0010
0001
0001
0100
0010
,  // measure 13
1010
0000
0100
0100
0010
0000
0100
0001
,  // measure 14
2001
0000
0000
0100
0000
0000
3100
0000
0010
0000
0100
0000
0100
0000
0010
0000
,  // measure 15
0011
0000
1000
0001
0100
0000
0010
1000
,  // measure 16
0001
0000
0100
0100
0001
0001
0010
0010
,  // measure 17
0101
0000
0010
0010
1100
0000
0010
0010
,  // measure 18
0200
0000
0000
0000
0010
0000
0001
0300
,  // measure 19
0110
1000
0001
0000
0001
1000
0100
0000
,  // measure 20
0001
1000
0010
0100
0010
1000
0100
0010
,  // measure 21
0001
1000
0010
0000
0100
0001
1000
0000
,  // measure 22
0010
0001
0100
0010
1000
0001
0010
0100
,  // measure 23
0010
0001
1000
0000
0100
1000
0001
0000
,  // measure 24
0100
0010
0001
0010
0100
0010
0100
1000
,  // measure 25
0100
0010
1000
0000
0010
0100
0001
0000
,  // measure 26
1001
0000
0000
0010
0000
0000
0010
0000
0001
0000
1000
0000
0110
0000
0000
0000
,  // measure 27
1001
0000
1000
0001
0100
0000
0010
0000
,  // measure 28
0100
0001
1000
0100
1000
0100
0010
0000
,  // measure 29
0100
0000
0001
1000
0100
0000
0010
0000
,  // measure 30
0100
0001
0010
0001
0100
0010
1000
0000
,  // measure 31
0100
0000
0010
0001
1000
0000
0010
0000
,  // measure 32
0100
0001
1000
1000
0100
0010
0001
0000
,  // measure 33
0100
0000
0001
1000
0001
0000
0010
0000
,  // measure 34
0001
1000
0001
0010
0001
0100
0100
0000
,  // measure 35
1000
1000
0100
0000
0010
0001
1000
0000
,  // measure 36
0010
0010
0100
0100
0001
1000
0001
0000
,  // measure 37
0010
0001
1000
0010
0100
0000
0010
1000
,  // measure 38
0001
0010
0001
0100
0010
0000
0110
0000
,  // measure 39
1000
0100
0001
0100
1000
0010
0100
0000
,  // measure 40
0010
0100
0010
0100
0001
1000
0100
0000
,  // measure 41
0010
0001
1000
0001
0010
0010
0001
0000
,  // measure 42
0100
1000
0010
0100
0010
0010
0000
0000
,  // measure 43
1000
0000
0001
0000
1000
0000
0010
0000
0100
0000
0000
0001
0000
0000
1000
0000
,  // measure 44
0010
0000
0100
0000
0001
0000
1000
0000
0001
0000
0000
0001
0000
0000
0100
0000
,  // measure 45
0010
0000
1000
0000
0100
0000
0010
0000
0100
0000
0000
0100
0000
0000
1000
0000
,  // measure 46
0100
0000
0000
0110
0000
0000
0001
0000
1001
0000
0000
0100
0000
0000
0010
0000
,  // measure 47
0110
0000
0001
0000
1000
0000
0001
0000
0100
0000
0000
0100
0000
0000
0010
0000
,  // measure 48
1000
0000
0100
0000
0001
0000
0100
0000
0010
0000
0000
1000
0000
0000
0100
0000
,  // measure 49
0001
0000
0100
0000
0010
0000
1000
0000
0001
0000
0000
0100
0000
0000
0010
0000
,  // measure 50
1000
0000
0000
1001
0000
0000
0001
0000
0110
0000
0000
1000
0000
0000
0001
0000
,  // measure 51
1001
0000
0010
0000
0100
0000
0010
0000
1000
0000
0000
1000
0000
0000
0001
0000
,  // measure 52
0010
0000
0001
0000
0100
0000
0010
0000
0100
0000
0000
0010
0000
0000
1000
0000
,  // measure 53
0001
0000
1000
0000
0100
0000
0010
0000
0100
0000
0000
1000
0000
0000
0001
0000
,  // measure 54
1000
0000
0000
0100
0000
0000
0100
0000
0010
0000
0000
0001
0000
0000
0001
0000
,  // measure 55
0100
0000
0010
0000
1000
0000
0001
0000
0100
0000
0000
0010
0000
0000
1000
0000
,  // measure 56
0001
0000
0001
0000
0010
0000
0100
0000
1000
0000
0000
1000
0000
0000
0001
0000
,  // measure 57
0100
0000
1000
0000
0100
0000
0001
0000
0010
0000
0000
0001
0000
0000
1000
0000
,  // measure 58
0100
0000
0000
1000
0000
0000
0001
0000
0100
0000
0000
0001
0000
0000
1000
0000
,  // measure 59
0100
1000
0010
0100
0002
0010
0020
0000
,  // measure 60
0033
1000
0001
0100
0010
0000
1001
0000
,  // measure 61
0010
1000
0010
0100
0002
1000
1000
0200
,  // measure 62
0003
0000
0310
0000
1000
0000
0100
0000
0010
0000
0000
1000
0000
0000
0001
0000
,  // measure 63
0100
0010
0010
1000
0200
0010
0020
0000
,  // measure 64
0330
0010
0001
1000
0100
0000
1001
0000
,  // measure 65
0100
0100
0010
0001
2000
0010
0010
0002
,  // measure 66
3003
0001
1000
0100
0010
0000
0110
0000
,  // measure 67
0001
1000
0000
0001
0000
1000
0000
0001
,  // measure 68
0000
0001
1000
1000
0010
0010
0100
0100
,  // measure 69
0020
0030
0000
0000
;

//---------------dance-single - Copied from ----------------
#NOTES:
     dance-single:
     Copied from:
     Challenge:
     8:
     0.589,0.567,0.266,0.033,0.154: // measure 1
0000
0000
0000
0000
,  // measure 2
0000
0000
0000
0000
,  // measure 3
0001
1000
0010
0100
0001
1000
0001
0000
,  // measure 4
0100
0010
0001
0010
0100
1000
0100
0000
,  // measure 5
0010
1000
0001
0100
0001
0010
0001
0000
,  // measure 6
1000
0000
0001
0000
0100
0000
0010
0000
0110
0000
0000
0100
0000
0000
0010
0000
,  // measure 7
1000
0100
0001
0100
1000
0010
0100
0000
,  // measure 8
0010
1000
0010
0010
0100
0001
0010
0000
,  // measure 9
0001
0100
0001
1000
0010
1000
0100
0000
,  // measure 10
0010
0000
0001
0000
0000
1000
0000
0000
0001
0000
0000
0100
0010
0000
0100
0000
,  // measure 11
0001
1000
0000
1100
0000
0010
0000
0110
,  // measure 12
0000
0001
0010
0010
0001
0001
0100
0010
,  // measure 13
1000
0100
0000
1001
0000
0010
0000
1001
,  // measure 14
0010
0000
0000
0100
0000
0000
0010
0000
1000
0000
0001
0000
0100
0000
0010
0000
,  // measure 15
1000
0001
0000
0101
0000
1000
0000
1100
,  // measure 16
0000
0100
0010
0010
0001
0001
1000
0001
,  // measure 17
0010
0001
0000
0110
0000
1000
0000
1001
,  // measure 18
0200
0000
0001
0310
,  // measure 19
1100
0001
0010
0100
0000
1000
0100
0001
,  // measure 20
0000
0010
0001
0100
0001
0010
0100
1000
,  // measure 21
0000
0010
0100
0010
0000
1000
0100
1000
,  // measure 22
0000
0100
0001
1000
0001
0010
0001
0100
,  // measure 23
0000
0010
1000
0100
0000
0100
0010
0001
,  // measure 24
0000
0001
1000
0100
0010
0100
1000
0001
,  // measure 25
0000
0001
0100
0001
0000
1000
0100
1000
,  // measure 26
0010
0100
0000
0010
0100
0000
0010
1000
0100
0000
0010
0000
0020
0000
0000
0000
,  // measure 27
0031
1000
0001
0100
0010
1000
0100
0010
,  // measure 28
0001
0100
0001
0010
0001
0100
0100
0100
,  // measure 29
0010
1000
0100
0010
0001
1000
0100
0001
,  // measure 30
0100
1000
0010
0100
0100
0010
1000
0001
,  // measure 31
0010
0001
1000
0001
0100
0010
1000
0100
,  // measure 32
0010
0100
0010
0001
0100
0010
0100
0100
,  // measure 33
0010
1000
0001
0100
0001
1000
0010
1000
,  // measure 34
0010
0000
0000
1000
0000
0000
0001
0000
0100
0000
0010
0000
1001
0000
0000
0000
,  // measure 35
0100
0010
1000
0000
0001
0100
0010
0000
,  // measure 36
1000
0001
0100
0010
0010
1000
0001
0000
,  // measure 37
0100
0001
0010
0100
1000
0010
0100
0000
,  // measure 38
1010
0000
0101
0000
0010
0001
0100
0000
,  // measure 39
0010
1000
0001
0100
0010
1000
0100
0010
,  // measure 40
0001
0100
0010
1000
0001
0001
0100
0000
,  // measure 41
0010
1000
0001
0100
0010
1000
0010
0010
,  // measure 42
0100
0001
0010
0100
1000
1000
0000
0000
,  // measure 43
1000
0000
0100
0000
0010
0000
0001
0000
1000
0000
0000
0001
0000
0000
0100
0000
,  // measure 44
0010
0000
0010
0000
1000
0000
0001
0000
0100
0000
0000
0100
0000
0000
0010
0000
,  // measure 45
0001
0000
1000
0000
0001
0000
0100
0000
0010
0000
0000
0100
0000
0000
0010
0000
,  // measure 46
1000
0000
0000
1100
0000
0000
0001
0000
0101
0000
0000
0010
0000
0000
0100
0000
,  // measure 47
0010
0000
1000
0000
0010
0000
1000
0000
0100
0000
0000
0100
0000
0000
0010
0000
,  // measure 48
0001
0000
0100
0000
0001
0000
0100
0000
0010
0000
0000
0010
0000
0000
1000
0000
,  // measure 49
0100
0000
0010
0000
0100
0000
0010
0000
0001
0000
0000
1000
0000
0000
0010
0000
,  // measure 50
0100
0000
0000
0110
0000
0000
1001
0000
0100
0000
0000
1001
0000
0000
0110
0000
,  // measure 51
0100
0000
0001
0000
1000
0000
0001
0000
0100
0000
0010
1000
0000
0010
1000
0000
,  // measure 52
0100
0000
0010
0000
0001
0000
1000
0000
0001
0000
1000
0100
0000
1000
0100
0000
,  // measure 53
0010
0000
0001
0000
0100
0000
0001
0000
1000
0000
0010
0100
0000
0010
0100
0000
,  // measure 54
0001
0000
1000
0010
0000
1000
0010
0000
0100
0000
0001
0100
0000
0001
0100
0000
,  // measure 55
0010
0000
1000
0000
0001
0000
1000
0000
0100
0000
0010
0100
0000
0010
0100
0000
,  // measure 56
0010
0000
0001
0000
0100
0000
0010
0000
1000
0000
0001
1000
0000
0001
1000
0000
,  // measure 57
0010
0000
0100
0000
0001
0000
0010
0000
0001
0000
0010
0100
0000
0010
0100
0000
,  // measure 58
1000
0000
0000
1001
0000
0000
0100
0000
0001
0000
0000
1001
0000
0000
0100
0000
,  // measure 59
0010
0100
0010
1000
1100
0100
0110
0000
,  // measure 60
0010
0001
1000
0100
0010
0000
1001
0000
,  // measure 61
0010
0001
0100
0010
1000
0001
0100
0001
,  // measure 62
0000
0000
1000
0000
0001
0000
1000
0000
0010
0000
0000
0010
0000
0000
0010
0000
,  // measure 63
0100
0010
1000
0001
1100
0010
0101
0000
,  // measure 64
0000
0001
0100
1000
0100
0000
1001
0000
,  // measure 65
0100
0001
1000
0010
0100
0001
1000
1000
,  // measure 66
0000
0010
0100
1000
0001
0000
1001
0000
,  // measure 67
0110
1000
0000
0101
0000
1000
0000
1010
,  // measure 68
0000
0001
1000
1000
0001
0001
0100
0010
,  // measure 69
2002
3003
0000
0000
;
