#TITLE:tsukiyuki ni mau hana no youni;
#SUBTITLE:;
#ARTIST:Nekomata Master;
#TITLETRANSLIT:;
#SUBTITLETRANSLIT:;
#ARTISTTRANSLIT:;
#GENRE:;
#CREDIT:;
#MENUCOLOR:;
#NEWMETERSYSTEM:NO;
#BANNER:tsukiyuki ni mau hana no youni-bn.png;
#BACKGROUND:tsukiyuki ni mau hana no youni-bg.png;
#LYRICSPATH:;
#CDTITLE:MixMania III CD Title.png;
#MUSIC:tsukiyuki ni mau hana no youni.mp3;
#OFFSET:3.020;
#SAMPLESTART:30.780;
#SAMPLELENGTH:12.000;
#SELECTABLE:YES;
#LISTSORT:;
#BPMS:0.000=70.000,20.000=126.000;
#STOPS:;
#BGCHANGES:;
#ATTACKS:;

//---------------dance-single - ----------------
#NOTES:
     dance-single:
     :
     Easy:
     2:
     0.163,0.171,0.007,0.000,0.004:
0000
0000
0000
0000
,
0010
0000
0010
0100
,
0010
0000
0010
0010
,
0100
0000
0100
0010
,
0100
0000
0000
0000
0000
0000
0000
0000
0000
0000
0000
0000
0010
0000
0000
0000
0000
0000
0000
0010
0000
0000
0000
0000
,
0000
0000
0000
1000
,
0100
0000
0000
1000
,
0010
0000
0000
0100
,
0001
0000
0000
0000
,
0000
0010
0010
0000
,
0100
0000
0000
0001
,
1000
0000
0000
0100
,
1000
0000
0010
0000
,
0100
0000
0000
0001
,
1001
0000
0100
0000
,
0010
0000
0100
0100
,
0010
0000
1000
0000
,
0001
0000
0000
0010
,
1000
0000
0000
1000
,
0100
0000
0000
0010
,
0001
0000
0100
0000
,
0001
1000
0100
0000
,
0010
0000
1000
0000
,
0001
0000
0100
0000
,
0100
0000
0010
0000
,
1000
0001
0001
0000
,
0100
0000
0010
0000
,
1000
0000
0001
0000
,
0100
0000
0010
0000
,
1000
1000
0100
0000
,
1000
0000
0010
0000
,
0001
0000
0001
0100
,
0100
0000
0010
0000
,
1000
0001
1000
0000
,
0100
0000
0100
0000
,
0001
1000
0001
0000
,
0001
0000
0100
0000
,
0010
0100
0010
0000
,
1000
0000
0100
0000
,
1000
0000
0010
0000
,
0010
0000
0100
0100
,
0100
0000
0001
0001
,
0001
0000
1000
1000
,
1000
0000
0000
0000
,
0100
0000
0010
0010
,
0010
0000
0100
0100
,
0100
0000
0100
0000
,
0100
0000
0100
0000
,
1000
1000
0001
0000
,
0100
0000
0010
0000
,
1000
0000
0001
0000
,
0000
0000
0100
0000
,
0010
0010
1000
0000
,
0100
0001
0001
0000
,
1000
0001
1000
0000
,
0010
0000
0100
0000
,
0100
0000
0001
0000
,
1000
0000
0100
0000
,
0010
0000
0001
1000
,
0000
0000
1000
1000
,
0001
0000
1000
0000
,
0001
0100
0001
0000
,
1000
0100
1000
0000
,
0010
0000
0100
0100
,
0010
0000
0100
0000
,
0100
0000
0010
0000
,
0010
0000
0010
0010
0000
0000
0000
0000
;

//---------------dance-single - Copied from----------------
#NOTES:
     dance-single:
     Copied from:
     Beginner:
     1:
     0.088,0.122,0.000,0.000,0.000:
0000
0000
0000
0000
,
0000
0000
0000
0000
,
1000
0000
0001
0000
,
1000
0000
0010
0000
,
0100
0000
0010
0000
,
0000
0000
0000
0100
,
0100
0000
0000
0000
,
0001
0000
0000
0000
,
1000
0000
0000
0000
,
0000
0000
0000
0100
,
0100
0000
0000
0000
,
0010
0000
0000
0000
,
0100
0000
0000
0000
,
0001
0000
0000
0000
,
1000
0000
0000
0000
,
0100
0000
0000
0000
,
1000
0000
0000
0000
,
0000
0000
0000
0000
,
0010
0000
0000
0000
,
0100
0000
0000
0000
,
0001
0000
0000
0000
,
1000
0000
0000
0000
,
0010
0000
0010
0000
,
0010
0000
0010
0000
,
0100
0000
0100
0000
,
0000
0000
0001
0000
,
1000
0000
0100
0000
,
0000
0000
0000
0000
,
0010
0000
0010
0000
,
0000
0000
1000
0000
,
0100
0000
1000
0000
,
0000
0000
0000
0000
,
0001
0000
0001
0000
,
0000
0000
0100
0000
,
0010
0000
0100
0000
,
0000
0000
0000
0000
,
1000
0000
0001
0000
,
0000
0000
0001
0000
,
1000
0000
0001
0000
,
0000
0000
0000
0000
,
0010
0000
0100
0000
,
0010
0000
0000
0000
,
1000
0000
0001
0000
,
1000
0000
0000
0000
,
0001
0000
0100
0000
,
0001
0000
0000
0000
,
0100
0000
0100
0000
,
0100
0000
0100
0000
,
0000
0000
0010
0000
,
0000
1000
1000
0000
,
0000
0000
0100
0000
,
0000
0000
0010
0000
,
0000
0000
0001
0000
,
0000
0001
0001
0000
,
0000
0000
1000
0000
,
0000
0000
0100
0000
,
0000
0000
0010
0000
,
0000
0100
0100
0000
,
0000
0000
0010
0000
,
0000
0000
0001
0000
,
0000
0000
1000
0000
,
0000
0010
0010
0000
,
0000
0000
0100
0000
,
0000
0000
0010
0000
,
0000
0000
1000
0000
,
0100
0000
0010
0000
,
0001
0001
0000
0000
;

//---------------dance-single - Copied from----------------
#NOTES:
     dance-single:
     Copied from:
     Medium:
     5:
     0.338,0.341,0.162,0.000,0.004:
0000
0000
0000
0000
,
1001
0000
0001
1000
0001
0000
0100
0010
,
0100
0000
0010
1000
0010
0000
0010
0000
,
0110
0000
1000
0001
1000
0000
0100
1000
,
0010
0000
0000
0000
0000
0000
0100
0000
0000
0001
0000
0000
0010
0000
0000
0000
0000
0000
0000
0010
0000
0000
0000
0000
,
0000
0000
0000
1000
,
1001
0000
0001
0000
0010
0000
0001
0100
,
0010
0000
1000
0000
0100
0000
1000
0010
,
0100
0100
0000
0000
,
0010
1000
0100
0010
,
0001
0000
0100
0001
0010
0000
0100
0000
,
1000
0000
0010
1000
0100
0000
0010
0000
,
0100
0000
0010
0000
,
0001
1000
0001
1001
,
0110
0000
0010
0000
1000
0000
0100
0010
,
0001
0000
0100
0001
0010
0000
0100
1000
,
0010
1000
0100
0100
,
1000
0010
0100
0001
,
0010
0000
0001
0100
0010
0000
1000
0010
,
0100
0000
0001
1000
0001
0000
1000
0001
,
1000
1000
0100
0010
,
0001
0001
1000
0001
,
0101
0010
0110
1000
,
0101
0000
1000
0000
1010
0000
0100
0010
,
0100
0000
0100
0010
0100
0000
0010
0000
,
1000
0100
0010
0001
1000
0000
0001
0100
,
0001
0000
0010
1000
0100
0000
1000
0000
,
0010
0000
1000
0000
0001
0000
0100
0001
,
0010
0000
0100
1000
0010
0000
0100
0000
,
0010
0100
0010
1000
0100
0000
0010
0001
,
0100
0000
0010
1000
0100
0000
1000
0000
,
0001
0000
0100
0000
0010
0000
1000
0100
,
1000
0000
0010
0001
0010
0000
0001
0000
,
0100
0100
0010
1000
0100
0000
0001
1000
,
0100
0000
0100
1000
0010
0000
0000
0000
,
0100
0000
0001
0000
1000
0000
0010
1000
,
0100
0000
0010
0001
0100
0000
0001
0000
,
1000
0010
0100
0001
0010
0000
0100
0010
,
0100
0000
0001
1000
0001
0000
0100
0000
,
0001
0010
0100
1000
,
1001
0000
0011
0001
,
0101
1000
0100
1000
,
1010
0000
1100
1000
,
1001
0000
0000
0000
0010
0000
0100
0010
,
0110
0000
1001
0001
,
0101
0001
0010
0100
,
0010
0000
1000
0000
,
0001
0000
0010
0000
,
0100
0110
0010
1000
,
0100
0010
0001
1000
,
0001
0000
0100
0000
0010
1000
0100
0000
,
0010
0001
0100
0000
0010
0000
0100
0000
,
0010
0100
1000
0100
,
0010
0001
1000
0001
,
0100
0000
0001
0000
0010
0001
0100
0000
,
0010
1000
0100
0000
1000
0000
0001
0000
,
1000
0001
1000
0010
1000
0000
0100
0000
,
1000
0010
0100
0001
,
0010
0000
0100
0000
0010
0001
0010
0000
,
1000
0100
1000
0000
0010
0000
0100
0000
,
0010
0001
1000
0001
,
0100
0010
1000
0100
,
0010
0000
0001
0000
1000
0001
1000
0000
,
0010
0100
0010
0000
0001
0000
0100
0000
,
1000
1000
0010
0000
0110
0000
1000
0000
,
1001
0001
0011
0001
,
0100
0000
1000
0100
0000
0000
0000
0000
;

//---------------dance-single - Copied from----------------
#NOTES:
     dance-single:
     Copied from:
     Hard:
     7:
     0.428,0.415,0.220,0.022,0.272:
0000
0000
0000
0000
,
0110
0000
1000
0100
0010
0001
0100
0010
,
1000
0000
0001
1000
0001
0000
0010
0000
,
0100
0000
0000
0000
0010
0000
1000
0000
0001
0000
0000
0001
0100
0000
0010
0000
,
1000
0000
0000
0100
0000
0000
1000
0000
0000
0010
0000
0000
0100
0000
0000
0000
0000
0000
0000
0110
0000
0000
0000
0000
,
0000
0000
0000
1000
,
1001
0000
0000
0001
0100
0000
0000
1000
0100
0000
0000
0000
0010
0000
0000
0000
,
0100
0000
0000
0010
1000
0000
0000
0010
0001
0000
0000
0010
0100
0000
0000
0010
,
1000
0000
0000
0100
0010
0000
0000
0000
0001
0000
0000
0000
1000
0000
0000
0000
,
0100
0010
0100
0010
,
1000
0000
0000
0001
0100
0000
0000
1000
0100
0000
0000
0000
0010
0000
0000
0100
,
0010
0000
0000
0010
1000
0000
0000
0010
0001
0000
0000
0010
1000
0000
0000
0010
,
0100
0010
1000
0100
,
2002
3000
0100
0103
,
1001
0000
0000
0010
0001
0000
0000
0001
0100
0000
0000
0000
0010
0000
0000
0000
,
1000
0000
0000
0100
1000
0000
0000
1000
0010
0000
0000
0010
0100
0000
0000
0100
,
0001
0000
0000
0001
1000
0000
0000
0000
0100
0000
0000
0000
0010
0000
0000
0000
,
1000
0100
0010
0001
,
1001
0000
0000
0010
0001
0000
0000
0001
0100
0000
0000
0000
0010
0000
0000
1000
,
0010
0000
0000
1000
0100
0000
0000
0010
0100
0000
0000
0100
0001
0000
0000
0001
,
1000
0010
0100
0001
,
1000
0001
0100
0010
,
1001
0001
0100
0010
,
1000
0000
0100
0000
0100
0100
0110
0001
,
0001
0000
0010
0001
0001
0000
0001
0000
,
1000
0100
0010
0001
1000
0010
0100
0010
,
0010
0000
0100
0001
1000
0000
0001
0000
,
1000
0010
0100
0001
1000
0000
0010
0100
,
0100
0000
0010
0100
0100
0000
0001
0000
,
1000
0010
0100
0001
0001
1000
0100
0010
,
0001
0000
0100
0001
0010
0000
0100
0000
,
1000
0000
0000
1000
0010
0000
0000
0000
0100
0000
0000
0010
0100
0000
0001
0000
,
0010
0000
0100
0001
0010
0000
0100
0000
,
0010
1000
0100
0010
0001
1000
0100
0010
,
0100
0000
0010
0001
0100
0000
0010
1000
,
0001
0000
0000
0001
0100
0000
0000
0000
0010
0000
0000
0010
1000
0000
0100
0000
,
0100
0000
1000
0100
0100
0000
1001
0000
,
0100
0001
0010
0100
0010
0100
1000
0001
,
0100
0000
0010
0001
1000
0000
0100
0001
,
1000
0000
0000
0010
0100
0000
0000
0000
0100
0000
0000
0001
1000
0000
0000
0000
,
1001
0010
0110
0011
,
1000
0100
0010
0110
,
2001
3010
0011
0110
,
1100
0000
0010
0000
0100
0000
0001
1000
,
0101
0010
1100
0110
,
0001
1000
0100
0010
,
0101
0000
1100
0000
,
0101
0000
1100
0000
,
0010
0000
0000
0000
0110
0000
0000
0000
1001
0000
0000
0001
0100
0000
0000
0010
,
1000
0000
0000
0000
0100
0000
0000
1000
0100
0000
0000
0010
0100
0000
0000
0010
,
0001
0000
0000
0001
0100
0000
0000
0100
0010
0000
0000
1000
0100
0000
0000
0000
,
0001
0000
0000
1000
0100
0000
0000
0000
0010
0000
0000
0000
0100
0000
0000
0000
,
0001
0000
0000
0000
0100
0000
0000
0000
1100
0000
0000
0100
0010
0000
0000
0100
,
0010
0000
0000
0000
0001
0000
0000
0100
0001
0000
0000
0100
0010
0000
0000
0100
,
1000
0000
0000
0100
0010
0000
0000
0001
1000
0000
0000
0000
0010
0000
0000
0000
,
0100
0000
0000
0000
0110
0000
0000
0000
1000
0000
0000
0100
1000
0000
0000
0010
,
0100
0000
0000
0001
0010
0000
0000
0000
1001
0000
0000
0100
1000
0000
0000
0100
,
1000
0000
0000
0000
0010
0000
0000
0100
0010
0000
0000
0010
0001
0000
0000
0010
,
0100
0000
0000
0010
0100
0000
0000
0010
0001
0000
0000
1000
0010
0000
0000
0000
,
0010
0000
0000
0000
0100
0000
0000
0000
0001
0000
0000
0000
1000
0000
0000
0100
,
1000
0000
0000
0001
0100
0000
0000
0001
1000
0000
0000
0000
0100
0000
0000
0010
,
0100
0000
0000
0000
0010
0000
0000
0001
0100
0000
0000
1000
0100
0000
0000
0100
,
0010
0000
0000
0000
0001
0000
0000
1000
0100
0000
0000
0000
0010
0000
0000
0000
,
0100
0000
0001
0000
1000
0010
0100
0001
,
0010
0000
1000
0000
0010
0000
0001
0000
0100
0000
0010
0000
0000
1000
0000
0000
,
0100
0000
0010
0000
0000
0001
0000
0000
1000
0000
0001
0000
0000
0100
0000
0000
,
0001
0010
0100
1001
0000
0000
0000
0000
;

//---------------dance-single - Copied from----------------
#NOTES:
     dance-single:
     Copied from:
     Challenge:
     9:
     0.570,0.610,0.257,0.029,0.533: // measure 1
0000
0000
0000
0000
,  // measure 2
1001
0000
0001
0100
1000
0100
0001
0010
,  // measure 3
0110
0000
1000
0100
1100
0000
0110
0000
,  // measure 4
0011
0000
0000
0000
0000
0000
0000
0000
0001
0000
0000
0000
0100
0000
0000
0000
0010
0000
0000
0000
0000
0000
1000
0100
1000
0000
0000
0000
0100
0000
0000
0000
,  // measure 5
0010
0000
0000
0010
0000
0000
0001
0000
0000
0100
0000
0000
0001
0000
0000
1000
0000
0000
0000
1001
0000
0000
0000
0000
,  // measure 6
0000
0000
0000
0010
,  // measure 7
1001
0000
0000
1000
0100
0000
0000
0100
0010
0000
0000
0000
0001
0000
0000
0100
,  // measure 8
0001
0000
0000
0001
0010
0000
0000
0010
1000
0000
0000
1000
0100
0000
0000
0100
,  // measure 9
1000
0000
0000
0010
1000
0000
0000
0000
0100
0000
0000
0000
0010
0000
0000
0000
,  // measure 10
0001
0000
0000
0100
0001
0000
0000
0001
1000
0000
0000
1000
0010
0000
0000
0010
,  // measure 11
0100
0000
0000
0010
1000
0000
0000
0010
0100
0000
0000
0000
0010
0000
0000
0010
,  // measure 12
0001
0000
0000
0001
0100
0000
0000
0010
1000
0000
0000
1000
0100
0000
0000
0010
,  // measure 13
0100
0000
0010
1000
0100
0010
0010
0001
,  // measure 14
1001
0000
0000
0000
0001
0000
0000
0010
0001
0000
0001
0000
0100
0000
0010
0000
,  // measure 15
1010
0000
0000
1000
0010
0000
0000
1000
0100
0000
0000
0000
0010
0000
0000
0100
,  // measure 16
0010
0000
0000
0001
0100
0000
0000
0010
0001
0000
0000
0001
0100
0000
0000
0010
,  // measure 17
1000
0000
0000
0100
1000
0000
0000
0000
0010
0000
0001
0000
0100
0000
0000
0000
,  // measure 18
0010
1000
0001
0100
0001
0010
0100
0010
,  // measure 19
0011
0000
0000
0010
0100
0000
0000
0001
0100
0000
0000
0000
1000
0000
0000
0010
,  // measure 20
1000
0000
0000
0001
0100
0000
0000
0100
0001
0000
0000
0010
0001
0000
0000
1000
,  // measure 21
0100
0010
0001
0000
1000
0100
0010
0000
,  // measure 22
1000
1000
0001
0010
0001
0011
0011
0000
,  // measure 23
1001
0000
0100
0000
0000
0010
0000
0000
1001
0000
0010
0000
0000
0100
0000
0000
,  // measure 24
1001
0000
0100
0000
0000
0010
0000
0000
0011
0000
0001
0000
0100
0000
0001
0100
,  // measure 25
0001
0000
0100
0000
1000
0000
0100
1000
0100
0000
0010
0000
0010
0000
0100
0000
,  // measure 26
1000
0000
0100
0010
0001
0000
0100
0000
0010
0000
1000
0000
0010
0000
0100
0010
,  // measure 27
0100
0000
0010
0000
0010
0000
1000
0001
1000
0000
0001
0000
0001
0000
0000
0100
,  // measure 28
0001
0000
0000
0001
0010
0000
0000
0010
0100
0000
0000
0100
1000
0000
1000
0100
,  // measure 29
1000
0000
0010
0000
0100
0000
0100
0010
1000
0000
1000
0000
0100
0000
0010
0000
,  // measure 30
0001
0000
0001
1000
0100
0000
1000
0000
0010
0000
0100
0000
0100
0000
0010
0100
,  // measure 31
0001
0000
0100
0000
0010
0000
0001
0100
0010
0000
1000
0000
0010
0000
0100
0000
,  // measure 32
0001
0000
0000
0001
0100
0000
0000
0100
1000
0000
0000
1000
0100
0000
0010
0100
,  // measure 33
0010
0000
0001
0000
1000
0000
1000
0100
0010
0000
0001
0000
1000
0000
0001
0000
,  // measure 34
0010
0000
0001
0100
0001
0000
0010
0000
0100
0000
1000
0000
0001
0000
0100
0010
,  // measure 35
0100
0000
0010
0000
1000
0000
0010
0100
0010
0000
0100
0000
0010
0000
1000
0000
,  // measure 36
0001
0000
0000
0001
0100
0000
0000
1000
0100
0000
0000
0100
0001
0000
0001
0100
,  // measure 37
0010
0000
1000
0000
0100
0000
0010
0001
0100
0000
1000
0000
0100
0000
0010
0000
,  // measure 38
1000
0000
0100
0010
0100
0000
0010
0000
0010
0000
0001
1000
0001
0000
0001
0000
,  // measure 39
0100
0000
0010
0000
1000
0000
0100
0010
0100
0000
0010
0000
0001
0000
1000
0000
,  // measure 40
0100
0000
0000
0010
0100
0000
0000
1000
0100
0000
0000
0100
0010
0000
0000
0000
,  // measure 41
0011
0000
1000
0100
1000
0000
0001
0100
0001
0000
1000
0100
1000
0000
0010
0100
,  // measure 42
0010
0000
0001
0010
0001
0000
1000
0010
1000
0000
0001
0100
0001
0000
0000
0000
,  // measure 43
0110
0000
0000
0000
1000
0001
0000
0000
0110
0000
0000
0000
0101
0000
0000
0000
,  // measure 44
1100
0000
0000
0000
0010
0000
0000
0000
0100
0000
0100
0000
0010
0000
1000
0001
,  // measure 45
1000
0000
0010
0100
0010
0000
0001
1000
0001
0000
0100
0001
0100
0000
0010
1000
,  // measure 46
0010
0000
1000
0001
1000
0000
0001
0010
0001
0000
1000
0100
1000
0000
0100
0000
,  // measure 47
0120
0000
0000
0030
2001
0000
0000
3000
,  // measure 48
0102
0000
0000
0003
0210
0000
0000
0300
,  // measure 49
0110
0000
0000
0000
1001
0000
0000
0000
0101
0000
0000
1000
0100
0000
0000
0010
,  // measure 50
0100
0000
0000
0010
0001
0000
0000
0001
1000
0000
0000
0100
1000
0000
0000
0010
,  // measure 51
0100
0000
0000
0010
0001
0000
0000
0001
0100
0000
0000
0010
0001
0000
0000
0000
,  // measure 52
0001
0000
0000
1000
0100
0000
0000
0000
0010
0000
0100
0000
0001
0000
0100
0000
,  // measure 53
0010
0000
0010
0000
1000
0010
1000
0010
1000
0000
0000
0001
0100
0000
0000
1000
,  // measure 54
0100
0000
0000
0000
0010
0000
0000
1000
0010
0000
0000
0001
0010
0000
0000
0100
,  // measure 55
0010
0000
0000
0001
1000
0000
0000
0100
1000
0000
0000
0100
0010
0000
0000
0010
,  // measure 56
0001
0000
0000
0010
1000
0000
0000
0010
0100
0000
0000
0100
0010
0000
0000
0100
,  // measure 57
0001
0000
0000
1000
0100
0000
0010
0000
0110
0000
0000
0001
1000
0000
0000
0001
,  // measure 58
0100
0000
0000
0010
1000
0000
0000
0100
1000
0000
0000
0100
0010
0000
0000
0001
,  // measure 59
1000
0000
0000
0010
1000
0000
0000
0100
0010
0000
0000
0100
0001
0000
0000
0000
,  // measure 60
0001
0000
0000
1000
0010
0000
0000
0000
1000
0000
0100
0000
0010
0000
0001
0000
,  // measure 61
0001
0000
0100
0000
0010
0100
0010
0100
0010
0000
0000
1000
0100
0000
0000
0010
,  // measure 62
0100
0000
0000
0000
0001
0000
0000
1000
0001
0000
0000
0010
0001
0000
0000
0100
,  // measure 63
0010
0000
0000
0001
0100
0000
0000
0010
0001
0000
0000
0010
1000
0000
0000
0100
,  // measure 64
0010
0000
0000
0010
1000
0000
0000
0001
0100
0000
0000
0010
0001
0000
0000
0100
,  // measure 65
0010
0000
0000
0001
0100
0000
0010
0000
0110
0000
1000
0000
0000
0001
0000
0000
,  // measure 66
0110
0000
0001
0000
0000
1000
0000
0000
0110
0000
1000
0000
0000
0001
0000
0000
,  // measure 67
0110
0100
1001
0101
0000
0000
0000
0000
;
