#TITLE:earth-like planet;
#SUBTITLE:;
#ARTIST:ELEKTEL;
#TITLETRANSLIT:;
#SUBTITLETRANSLIT:;
#ARTISTTRANSLIT:;
#GENRE:;
#CREDIT:;
#MENUCOLOR:;
#NEWMETERSYSTEM:NO;
#BANNER:earth-like planet-bn.png;
#BACKGROUND:earth-like planet-bg.png;
#LYRICSPATH:;
#CDTITLE:MixMania III CD Title.png;
#MUSIC:earth-like planet.mp3;
#OFFSET:-0.800;
#SAMPLESTART:67.880;
#SAMPLELENGTH:12.000;
#SELECTABLE:YES;
#LISTSORT:;
#BPMS:0.000=150.000;
#STOPS:200.000=2.400
;
#BGCHANGES:;
#ATTACKS:;

//---------------dance-single - ----------------
#NOTES:
     dance-single:
     :
     Easy:
     4:
     0.303,0.348,0.077,0.137,0.000:
0000
0000
0000
0000
,
0000
0000
0000
0000
,
0000
0000
0000
0000
,
0000
0000
0000
0000
,
1000
0100
0001
0100
,
1000
0010
0001
0010
,
1000
0100
0001
0100
,
1000
0010
0001
0010
,
1000
0100
0010
0001
,
0100
0010
0010
0100
,
0001
0000
1000
0100
,
0001
0000
0001
0010
,
0001
0100
0001
0010
,
0100
0010
1000
0100
,
1000
0000
0100
0010
,
0010
0000
0001
0100
,
0001
0000
0010
0100
,
0010
0000
1000
0100
,
1000
0000
0100
0010
,
0100
0000
0001
0010
,
0001
0000
1000
0100
,
1000
0000
0010
0100
,
0010
0000
0100
0001
,
0010
0000
0100
0010
,
0200
0001
0310
0010
,
0002
0103
0010
0200
,
0310
1000
0200
1000
,
1300
0100
0020
0031
,
0002
0100
0103
0010
,
2000
3100
0020
0130
,
0020
1000
0100
0130
,
0200
0310
0001
1000
,
1001
0000
0010
0000
,
0100
0010
0100
0010
,
1100
0010
0100
0001
,
0010
0100
1000
0100
,
0010
0100
0001
0010
,
0001
0100
0010
1000
,
0000
0100
0010
0001
,
0100
0001
0010
0100
,
1000
0010
0100
0001
,
1000
1000
0100
0010
,
1001
0010
0100
0001
,
0011
0001
0100
2000
,
3200
0300
0100
0001
,
1001
0000
1000
0000
,
1001
0001
0100
0010
,
1010
0010
0100
0002
,
2003
3010
0100
0001
,
0110
0000
0010
0000
,
0000
0010
1000
0100
,
0010
0001
0100
0001
,
0020
0000
0100
0000
,
0100
0000
0100
0030
,
1000
0100
1000
0100
,
0010
0001
0010
0001
,
0200
0000
0010
0000
,
0010
0000
0001
0300
,
0010
1000
0001
0100
,
0001
0001
0010
0100
,
1000
0100
0010
0001
,
1000
0000
0001
0000
,
0010
0001
0100
0010
,
1000
0100
0010
0001
,
1000
0001
0100
0010
,
0100
0000
0100
0000
,
0010
0010
1000
0001
,
1000
0010
0010
0110
;

//---------------dance-single - Copied from----------------
#NOTES:
     dance-single:
     Copied from:
     Beginner:
     1:
     0.071,0.116,0.000,0.000,0.000:
0000
0000
0000
0000
,
0000
0000
0000
0000
,
0000
0000
0000
0000
,
0000
0000
0000
0000
,
0010
0000
0000
0000
,
0010
0000
0000
0000
,
0001
0000
0000
0000
,
1000
0000
0000
0000
,
0100
0000
0000
0000
,
0000
0000
0000
0000
,
0010
0000
0000
0000
,
0010
0000
0000
0000
,
0001
0000
0000
0000
,
0000
0000
0000
0000
,
1000
0000
0000
0000
,
1000
0000
0000
0000
,
0010
0000
0000
0000
,
0100
0000
0000
0000
,
0010
0000
0000
0000
,
0100
0000
0000
0000
,
0001
0000
0000
0000
,
1000
0000
0000
0000
,
0001
0000
0000
0000
,
1000
0000
0000
0000
,
0100
0000
0000
0000
,
0010
0000
0010
0000
,
0010
0000
0000
0000
,
0001
0000
0000
0000
,
1000
0000
0000
0000
,
0100
0000
0100
0000
,
0100
0000
0000
0000
,
0010
0000
0000
0000
,
0000
0000
0000
0000
,
0000
0000
0000
0000
,
0010
0000
0000
0000
,
1000
0000
0000
0000
,
0001
0000
0000
0000
,
0100
0000
0000
0000
,
0010
0000
0000
0000
,
0010
0000
0000
0000
,
1000
0000
0000
0000
,
0001
0000
0000
0000
,
0100
0000
0000
0000
,
0001
0000
0000
0000
,
1000
0000
0000
0000
,
0010
0000
0000
0000
,
0100
0000
0000
0000
,
0001
0000
0000
0000
,
1000
0000
0000
0000
,
0010
0000
0000
0000
,
0000
0000
0000
0000
,
0100
0000
0000
0000
,
0100
0000
0000
0000
,
0000
0000
0000
0000
,
0010
0000
0000
0000
,
1000
0000
0000
0000
,
0001
0000
0000
0000
,
0000
0000
0000
0000
,
1000
0000
0000
0000
,
0010
0000
0000
0000
,
0100
0000
0000
0000
,
0000
0000
0000
0000
,
0001
0000
0000
0000
,
0100
0000
0000
0000
,
0010
0000
0000
0000
,
0000
0000
0000
0000
,
0001
0000
0000
0000
,
0001
0000
0000
1000
;

//---------------dance-single - Copied from----------------
#NOTES:
     dance-single:
     Copied from:
     Medium:
     5:
     0.375,0.349,0.103,0.034,0.000:
0000
0000
0000
0000
,
0000
0000
0000
0000
,
0000
0000
0000
0000
,
0000
0000
0000
0000
,
1001
0000
0001
0000
0010
0000
0001
0100
,
0010
1000
0100
0010
,
0100
0000
0010
0000
0001
0000
1000
0001
,
1000
0000
0100
0000
1000
0010
1000
0010
,
0100
0000
0010
0000
0100
0001
0010
0000
,
0100
0000
1000
0000
0010
0000
0100
0010
,
0100
0000
0001
0000
0010
0000
0100
1000
,
0001
1000
0010
0000
0100
0000
0010
0000
,
0110
0000
0001
0000
1000
0000
0100
0010
,
0001
0000
0100
0000
0001
0000
1000
0010
,
1000
0100
0010
0100
,
0110
0001
0010
0100
,
0001
0000
0010
0000
0100
0000
1000
0100
,
1000
0000
0010
0000
0100
0000
0001
0010
,
0001
0000
0100
0000
0010
0000
1000
0100
,
1000
0001
2002
3003
,
0001
0000
0010
0000
0100
0000
1000
0100
,
1000
0000
0100
0000
0010
0000
0001
0010
,
0001
0000
0010
0000
0100
0000
1000
0100
,
1000
0000
0100
0000
0010
0000
0001
0010
,
0001
0000
0100
0000
0010
1000
0000
0100
,
0000
1000
0000
0001
0000
0100
0001
0000
,
0011
0000
0001
0000
1000
0001
0000
0100
,
0000
0100
0000
0010
0000
1000
0100
0000
,
1100
0000
1000
0000
0010
0100
0000
0100
,
0000
0001
0000
1000
0000
1000
0001
0000
,
0011
0000
0001
0000
1000
0010
0000
1000
,
0000
0100
0000
1000
0010
0000
1100
0000
,
1000
0100
0010
0001
,
1000
0000
0100
0000
0010
0000
0001
0010
,
0001
0100
0010
1000
,
0001
0100
0010
0010
,
1000
0100
1000
0001
,
0100
0001
1001
1001
,
0010
1000
0100
1000
,
0010
0100
0001
0001
,
0100
0010
1000
0100
,
0010
0000
0001
0000
0100
0000
0010
0010
,
1000
0000
0100
0000
1000
0000
0010
0100
,
0001
0000
1000
0000
0001
0000
1000
1000
,
0100
0000
1000
0000
0010
0100
0010
0100
,
0001
0000
1000
0000
1000
0000
0001
1000
,
0001
0000
1000
0000
0010
0000
0100
0010
,
1000
0000
0100
0000
0010
0000
0001
1000
,
0010
0000
0100
0000
0001
0010
0001
0100
,
0010
0000
1000
0000
0100
0000
0001
0100
,
0000
0010
1000
0100
,
0010
0000
0001
0000
1000
0000
0010
0100
,
0010
0100
0001
0010
,
0100
0000
0000
0100
0000
0000
0010
0000
,
1000
0100
0010
0001
,
0100
0000
0010
0000
1000
0000
0001
0100
,
0001
0010
0001
0100
,
0010
0000
0000
1000
0000
0000
0100
0000
,
0010
0000
0001
0000
1000
0100
1000
0000
,
0010
0000
0100
0000
0001
0000
0010
0001
,
0010
0100
0010
1000
,
0001
1000
1100
0000
,
0100
0000
0001
0000
0010
0000
0100
1000
,
0100
0010
1000
0001
,
0100
0000
0001
0000
0010
0001
0100
0010
,
1000
0001
0100
0001
,
0010
0000
0010
0000
0001
0100
0000
0001
,
0000
0010
0000
0010
0000
0000
2002
0000
,
3003
0000
0000
0000
;

//---------------dance-single - Copied from----------------
#NOTES:
     dance-single:
     Copied from:
     Hard:
     7:
     0.451,0.434,0.128,0.043,0.009:
0000
0000
0000
0000
,
0000
0000
0000
0000
,
0000
0000
0000
0000
,
0000
0000
0000
0000
,
0001
0000
0100
0000
0001
0010
0001
0100
,
0010
0000
1000
0000
0100
0000
1000
0010
,
0100
0000
0001
0000
1000
0000
0100
0010
,
0001
0100
0010
0000
1000
0001
1000
0001
,
0100
0000
0010
0000
0100
0000
0001
0100
,
1000
0000
0100
0000
0010
0000
0100
0001
,
0010
0000
0100
0000
1000
0000
0010
1000
,
0100
0010
0100
0000
0001
0000
0010
0000
,
0101
0000
1000
0000
0100
0010
1000
0100
,
0010
0000
0001
0000
0100
0000
0001
0010
,
0100
0000
0001
0000
1000
0000
0100
0010
,
0010
0000
0001
1000
0100
0000
0010
0000
,
0100
0001
0010
0100
1000
0100
0010
0100
,
0001
0000
0100
0000
0010
0000
1000
0001
,
0100
0000
0110
0000
1000
0000
0001
0100
,
0010
0000
1000
0000
0100
0001
0100
1000
,
0100
0000
0010
0000
0100
0001
0010
0100
,
1000
0100
0010
0100
0001
0000
1000
0100
,
0010
0000
0100
0000
0001
0010
0100
1000
,
0100
0000
0010
0000
1000
0001
1000
0001
,
0100
0000
0010
0000
0010
1000
0100
0010
,
0000
0010
0100
0001
0000
0001
1000
0000
,
1001
0000
1000
0000
0010
0100
0001
1000
,
0000
0001
1000
0100
0000
0010
0100
0000
,
0110
0000
1000
0000
0001
0100
0010
1000
,
0000
0100
1000
0010
0000
0100
0001
0000
,
0101
0000
0001
0000
0100
0010
1000
0001
,
0000
0001
0100
0001
0000
1000
0100
0000
,
1000
0000
0001
0000
0100
0001
0100
0000
,
1000
0100
1000
0000
0100
0010
0100
0010
,
0100
0000
0000
0000
0110
0000
0000
0000
1000
0000
0100
0000
0000
0001
0000
0000
,
0100
0000
0000
1000
0000
0000
0100
0000
0010
0000
0000
0000
1001
0000
0000
0000
,
0100
0000
0010
0100
0000
0001
1000
0001
,
0000
0100
0010
0100
0002
0000
2003
0000
,
3100
0000
1000
0001
0100
0010
1000
0100
,
0000
0010
0100
0010
0001
0000
1000
0000
,
0010
0000
0100
0001
0010
0100
1000
0100
,
0000
0010
0000
0110
0000
0100
0010
0100
,
1001
0000
0100
0000
0001
0000
0010
0001
,
0100
0000
0010
0000
1000
0000
0100
0010
,
1001
0000
0100
0000
0010
0100
0010
0100
,
1001
0000
0100
0000
0010
0000
1000
0100
,
1000
0000
0100
0000
0010
0000
0100
0001
,
0010
0000
0100
0000
0010
1000
0100
0010
,
0001
0000
0100
0000
0001
1000
0001
0000
,
0110
0000
1000
0000
0001
0100
0001
0010
,
0000
0100
0010
1000
,
0100
0000
0001
0000
0010
0000
0100
0010
,
0100
0001
0010
0100
,
1000
0100
1000
0010
0100
0010
0100
0000
,
0001
0010
0001
0100
,
0010
0000
1000
0000
0100
0000
0010
0001
,
0100
0010
0100
0001
,
0010
0001
0100
0010
0100
0000
0110
0000
,
1000
0000
0100
0000
0001
0100
1000
0100
,
0010
0100
0001
0010
,
0110
0000
0010
0000
1000
0000
0100
0010
,
0100
0000
0001
0010
0001
0000
0100
0010
,
0100
0000
0100
0000
0001
0010
0100
1000
,
0100
0010
0100
0000
0001
0000
1000
0100
,
1000
0000
0001
0100
0001
0000
0100
0000
,
0110
0000
0010
1000
0100
0010
0001
0000
,
0200
0000
0301
0000
0010
0002
0000
0103
,
0000
0010
1000
0020
0000
1030
0100
0000
;

//---------------dance-single - Copied from ----------------
#NOTES:
     dance-single:
     Copied from:
     Challenge:
     8:
     0.573,0.550,0.248,0.197,0.115: // measure 1
0000
0000
0000
0000
,  // measure 2
0000
0000
0000
0000
,  // measure 3
0000
0000
0000
0000
,  // measure 4
0000
0000
0000
0000
,  // measure 5
1000
0001
0100
0010
0100
0001
0010
0100
,  // measure 6
1000
0000
0100
0000
0010
0001
1000
0001
,  // measure 7
0100
0000
0010
1000
0100
0000
0010
0000
,  // measure 8
0110
0000
0001
1001
0000
0100
0001
0010
,  // measure 9
0100
0000
0100
0000
1000
0100
0010
0100
,  // measure 10
0001
0000
0100
0000
0001
0010
0100
1000
,  // measure 11
0100
0010
0000
0000
1000
0000
0001
0100
,  // measure 12
0010
0110
0000
0010
0100
0001
0010
0000
,  // measure 13
0001
0000
0100
0010
1000
0001
0100
0001
,  // measure 14
0001
0000
0010
0000
0001
0100
0010
1000
,  // measure 15
0100
0000
1000
0000
0010
0100
0010
0000
,  // measure 16
1001
0000
0100
0000
0010
1000
0100
0000
,  // measure 17
0010
0001
0100
0010
1000
0100
0010
0001
,  // measure 18
1000
0001
0100
0010
1000
0001
0100
0001
,  // measure 19
0010
0001
0100
0010
1000
0100
1000
0010
,  // measure 20
0100
1000
0100
0010
1000
0001
1000
0000
,  // measure 21
0010
0001
0100
0010
1000
0100
0010
0001
,  // measure 22
1000
0001
0100
0010
1000
0010
1000
0010
,  // measure 23
0001
0010
0100
0010
1000
0100
0010
0001
,  // measure 24
0100
0010
1000
0100
0010
0001
1000
0100
,  // measure 25
2001
0000
3100
0000
0010
0001
0100
0020
,  // measure 26
0000
0130
0010
2000
0000
3100
0110
0000
,  // measure 27
0012
0000
0103
0000
0010
1000
0001
0200
,  // measure 28
0000
0310
1000
0200
0000
0310
1001
0000
,  // measure 29
2010
0000
3100
0000
0010
0100
1000
0200
,  // measure 30
0000
0310
1000
0020
0000
1030
0110
0000
,  // measure 31
0101
0000
0010
0000
0001
0100
0010
2000
,  // measure 32
0000
3010
1000
0020
0000
0130
1001
0000
,  // measure 33
0010
0000
0000
0000
1000
0000
0000
0001
0100
0000
0010
0000
1000
0000
0000
0000
,  // measure 34
0010
0000
0000
0000
1000
0000
0000
0001
0100
0000
0010
0000
1000
0100
1000
0100
,  // measure 35
1000
0000
0000
0000
1001
0000
0000
0000
0100
0000
0100
0000
0000
0001
0000
0000
,  // measure 36
0010
0000
0000
0100
0000
0000
1000
0000
0002
0000
0000
0000
0203
0000
0000
0000
,  // measure 37
0310
1000
0100
0020
0000
0031
1000
0002
,  // measure 38
0000
0103
0010
1000
0200
0010
0020
0330
,  // measure 39
1001
0000
1000
1000
0100
0010
0001
0001
,  // measure 40
0000
0010
0001
0100
0010
0010
1010
0000
,  // measure 41
1001
0000
0010
0001
0100
0010
1000
0100
,  // measure 42
1000
0001
0100
0020
0000
0100
0130
0010
,  // measure 43
1001
0000
0000
0000
1000
0100
0000
0000
0001
0100
0000
0000
1000
0000
0100
0000
,  // measure 44
0020
0000
0100
0000
0001
0000
0130
0010
,  // measure 45
1001
0000
0100
0010
0100
0010
1000
0100
,  // measure 46
0110
0000
0001
0010
0001
0100
0001
0100
,  // measure 47
1001
0000
0000
0000
1000
0100
0000
0000
0001
0100
0000
0000
0010
0000
0001
0000
,  // measure 48
0011
0000
1001
0000
0100
0010
1000
0100
,  // measure 49
1100
0000
0010
0000
0100
0100
0010
0100
,  // measure 50
0001
0000
0000
0000
0010
0000
0000
0000
0001
0000
1000
0000
0001
0100
0001
0100
,  // measure 51
0000
0000
0010
0000
1000
0100
0010
0000
,  // measure 52
0100
0000
0001
0010
0001
0100
0010
0000
,  // measure 53
0110
0000
1000
0100
0100
0000
0010
0000
,  // measure 54
0100
0001
0010
0200
0000
1000
1300
0000
,  // measure 55
1010
0000
1000
0000
0001
0100
0010
0100
,  // measure 56
0001
0020
0100
0030
1000
0000
0001
0100
,  // measure 57
0110
0000
1000
0000
0001
1000
0100
0010
,  // measure 58
0110
0000
0100
0000
0001
1000
0100
1000
,  // measure 59
0010
0100
0000
0000
0010
0000
0100
0000
0010
1000
0000
0000
0100
0000
0010
0000
,  // measure 60
0001
1000
0000
0000
0010
0000
0100
0000
1000
0100
0000
0000
0010
0000
0100
0000
,  // measure 61
0010
0001
0000
0000
0100
0000
0001
0000
0100
0010
0000
0000
0100
0000
0001
0000
,  // measure 62
0010
0100
0000
0000
1000
0000
0001
0000
0100
0000
0010
0000
0110
0000
0100
0000
,  // measure 63
0010
0100
0000
0000
0100
0000
1000
0000
0100
0001
0000
0000
0010
0000
0100
0000
,  // measure 64
1000
0010
0000
0000
0100
0000
0010
0000
0001
0100
0000
0000
0010
0000
1000
0000
,  // measure 65
0100
0010
0000
0000
0001
0000
1000
0000
0001
0100
0000
0000
0010
0000
1000
0000
,  // measure 66
0010
0100
0000
0000
0001
0000
0100
0000
0001
0010
0000
0000
0100
0000
1000
0000
,  // measure 67
0200
0000
0310
0000
1000
0100
0001
0200
,  // measure 68
0000
0310
1000
0100
0001
1000
0110
0000
;
