#TITLE:WAR GAME;
#SUBTITLE:;
#ARTIST:ASLETICS;
#TITLETRANSLIT:;
#SUBTITLETRANSLIT:;
#ARTISTTRANSLIT:;
#GENRE:;
#CREDIT:;
#MENUCOLOR:;
#NEWMETERSYSTEM:NO;
#BANNER:WAR GAME-bn.png;
#BACKGROUND:WAR GAME-bg.png;
#LYRICSPATH:;
#CDTITLE:MixMania III CD Title.png;
#MUSIC:WAR GAME.mp3;
#OFFSET:-1.000;
#SAMPLESTART:31.960;
#SAMPLELENGTH:12.000;
#SELECTABLE:YES;
#LISTSORT:;
#BPMS:0.000=93.000;
#STOPS:;
#BGCHANGES:;
#ATTACKS:;

//---------------dance-single - ----------------
#NOTES:
     dance-single:
     :
     Easy:
     3:
     0.227,0.225,0.192,0.072,0.000:
0000
0000
0000
0000
,
0000
0000
0000
0000
,
0000
0000
0000
0000
,
0220
0000
0000
0330
,
1000
1000
1000
0100
,
0010
0010
0010
0001
,
1000
1000
1000
0010
,
0000
0100
0100
1001
,
0100
0100
0100
1000
,
0010
0010
0010
1000
,
0001
0001
0001
0010
,
1000
1000
1000
0100
,
0100
1001
0100
1001
,
1000
0010
0100
0001
,
0010
1001
0010
1001
,
0100
0010
0100
0010
,
1000
0000
0001
1000
,
0010
0000
0100
0010
,
1000
0000
0010
0010
,
0001
1000
0001
1000
,
0110
0010
0010
1000
,
0100
0100
0100
0010
,
0001
0001
0001
1000
,
0010
0010
0010
0110
,
1001
0100
1001
0100
,
1000
0100
0010
0001
,
1001
0010
1001
0010
,
0100
0010
0100
0010
,
1100
0001
1100
0001
,
0100
0001
1000
0010
,
0101
1000
0101
1000
,
0010
0100
0010
1000
,
0001
0001
0001
1000
,
0010
0010
0010
0100
,
1000
1000
1000
0010
,
0100
0100
0100
0010
,
0002
0100
0100
0103
,
2000
0010
0010
3010
,
0200
0001
0001
0301
,
2002
0000
0000
3003
,
1000
0101
1000
0101
,
1000
0010
0100
0001
,
0001
1100
0001
1100
,
0001
1000
0010
0100
,
0001
1010
0001
1010
,
0001
0100
1000
0100
,
2002
3003
0010
0100
;

//---------------dance-single - Copied from----------------
#NOTES:
     dance-single:
     Copied from:
     Beginner:
     1:
     0.103,0.150,0.216,0.032,0.000:
0000
0000
0000
0000
,
0000
0000
0000
0000
,
0000
0000
0000
0000
,
0000
0000
0000
0000
,
1000
0000
0000
0000
,
0100
0000
0000
0000
,
0010
0000
0000
0000
,
0000
0001
0000
0000
,
0100
0000
0000
0000
,
0010
0000
0000
0000
,
1000
0000
0000
0000
,
0001
0000
0000
0000
,
0110
0000
1001
0000
,
0110
0000
0000
0000
,
0110
0000
1001
0000
,
0110
0000
0000
0000
,
0002
0000
0003
0000
,
0200
0000
0300
0000
,
0020
0000
0030
0000
,
2000
0000
3000
0000
,
0100
0000
0000
0000
,
1000
0000
0000
0000
,
0001
0000
0000
0000
,
0010
0000
0000
0000
,
1001
0000
0110
0000
,
1001
0000
0000
0000
,
1001
0000
0110
0000
,
1001
0000
0000
0000
,
1100
0000
0011
0000
,
1100
0000
0000
0000
,
0101
0000
1010
0000
,
0101
0000
0000
0000
,
0010
0000
0000
0000
,
0001
0000
0000
0000
,
1000
0000
0000
0000
,
0100
0000
0000
0000
,
0000
0001
0001
0001
,
0000
1000
1000
1000
,
0000
0100
0100
0100
,
0000
0000
0000
0000
,
1001
0000
0011
0000
,
1001
0000
0000
0000
,
1010
0000
1001
0000
,
1010
0000
0000
0000
,
0110
0000
1001
0000
,
0110
0000
0000
0000
,
0010
0000
0010
0010
;

//---------------dance-single - Copied from----------------
#NOTES:
     dance-single:
     Copied from:
     Medium:
     5:
     0.325,0.319,0.240,0.024,0.000:
0000
0000
0000
0000
,
0000
0000
0000
0000
,
0000
0000
0000
0000
,
2002
0000
0000
3003
,
0010
0000
0100
0001
0000
0001
1000
0100
,
0100
0000
0010
0100
0000
0001
1000
0100
,
0010
0000
0001
0010
0000
0010
1000
0100
,
0000
0100
0010
0000
0100
0001
1001
0000
,
0010
0100
0010
0000
1000
0001
1000
0000
,
0001
0010
0001
0000
0100
0010
1000
0000
,
0001
0100
0001
0000
1000
0100
1000
0000
,
0010
0100
0010
0100
0001
1000
0001
1000
,
1100
0000
0001
1000
0101
0000
0010
0100
,
0110
0001
1000
0100
,
0010
0000
0010
1000
1100
0000
0010
0001
,
0101
0010
0000
0010
0000
0001
1000
0001
,
1000
0000
0100
0000
0010
0001
0100
0000
,
0010
0000
0010
0000
0001
1000
0001
0010
,
0001
0000
0100
0000
0010
1000
0100
0000
,
0000
1000
0001
1000
0000
0010
0010
0100
,
0001
0000
1000
0001
0000
1000
0010
1000
,
0100
0000
0010
0100
0000
0010
0001
0100
,
0001
0000
1000
0001
0000
1000
0100
1000
,
0010
0010
0100
0100
0010
1000
0001
1000
,
1001
0000
0010
0001
0011
0000
1000
0100
,
1100
0000
0001
0000
0100
0010
0100
0000
,
0001
0000
1000
0010
0110
0000
0001
0100
,
0110
0001
0000
1000
0000
0010
0010
0010
,
1001
0000
0100
0010
1001
0000
0010
0100
,
1001
0000
0100
0000
0010
1000
0001
0100
,
0010
0000
1000
0100
1001
0000
0001
0100
,
1001
0010
0000
0010
0000
0001
1000
0100
,
0010
0000
0010
0001
0000
0001
0100
0010
,
1000
0000
1000
0100
0000
0010
0100
0010
,
0001
0000
1000
0001
0000
0010
0001
0100
,
0010
0000
1000
0010
0000
0100
0001
0010
,
0100
1001
0110
1001
,
0100
1001
0110
1001
,
0010
1001
0110
1001
,
0020
0000
0000
0030
,
0001
0100
0001
0100
1000
0100
1000
0100
,
0010
0100
0010
0100
0010
0000
1001
0000
,
0001
0100
0001
0100
1000
0100
1000
0100
,
0010
0100
0000
0100
0000
1000
0001
1000
,
1100
0000
0001
0100
0101
0000
1000
0010
,
0110
0000
0001
1000
0100
0100
0010
0010
,
0001
0000
1000
0000
0001
1000
0001
0100
;

//---------------dance-single - Copied from----------------
#NOTES:
     dance-single:
     Copied from:
     Hard:
     8:
     0.407,0.357,0.120,0.056,0.152: // measure 1
0000
0000
0000
0000
,  // measure 2
0000
0000
0000
0000
,  // measure 3
0000
0000
0000
0000
,  // measure 4
2002
0000
0000
3003
,  // measure 5
0010
0100
0010
0010
0100
0010
1000
0100
,  // measure 6
1000
1000
0100
1000
1000
0100
0001
0100
,  // measure 7
0001
0001
0100
0001
0001
0100
0001
0010
,  // measure 8
0000
0100
0010
0100
0110
0010
1001
0000
,  // measure 9
0001
0001
0010
0001
0001
0010
0001
0100
,  // measure 10
0010
0010
1000
0010
0010
1000
0010
0010
,  // measure 11
1000
1000
0100
1000
1000
0100
1000
1000
,  // measure 12
0010
0000
0100
0000
0010
0000
0100
0000
0001
0000
1000
0000
0001
1000
0001
1000
,  // measure 13
0100
0000
0010
0100
0010
0000
0000
0000
1000
0000
0001
0100
0001
0000
0000
0000
,  // measure 14
0010
0000
0100
0010
0100
0000
0010
0000
1000
0000
0001
0000
0101
0000
0000
0000
,  // measure 15
1000
0000
0001
1000
0001
0000
0000
0000
0001
0000
1000
0001
1000
0000
0000
0000
,  // measure 16
1000
0000
0001
0000
1000
0000
0001
0000
0010
0000
0100
0000
0010
0100
0010
0100
,  // measure 17
0010
0001
1000
0100
0010
0001
1000
0000
,  // measure 18
0001
0100
0010
1000
0100
0001
0100
1000
,  // measure 19
0100
0010
0001
0100
1000
0001
0100
0010
,  // measure 20
1000
0000
0010
0000
0010
0000
0100
0000
0000
0000
0001
1000
0001
0000
0100
0000
,  // measure 21
0010
0010
0100
0010
0010
0100
0010
0010
,  // measure 22
1000
1000
0100
1000
0000
1100
1000
1000
,  // measure 23
0100
0100
0010
0100
0100
0010
0100
0100
,  // measure 24
0001
0000
0001
0000
1000
0000
0001
0000
0001
0000
1000
0000
0001
1000
0001
0100
,  // measure 25
0010
0000
0010
1000
0001
0000
0000
0000
0100
0000
0100
0001
1000
0000
0000
0000
,  // measure 26
0010
0000
1000
0100
1000
0000
0001
0000
0010
0000
0100
0000
1001
0000
0000
0000
,  // measure 27
0010
0000
0001
0100
0001
0000
0000
0000
0100
0000
1000
0010
1000
0000
0000
0000
,  // measure 28
1000
0000
0100
0000
1000
0000
0100
0000
0010
0000
0100
0000
0010
0100
0010
0100
,  // measure 29
0010
0000
0001
0100
0001
0000
0000
0000
1000
0000
0100
1000
0010
0000
0000
0000
,  // measure 30
0001
0000
0100
0001
1000
0000
0010
0000
0100
0000
0010
0000
1100
0000
0000
0000
,  // measure 31
0010
0000
0100
1000
0100
0000
0000
0000
0010
0000
0001
0100
0001
0000
0000
0000
,  // measure 32
0010
0000
0001
0000
0010
0000
0001
0000
1000
0000
0001
0000
1000
0001
1000
0001
,  // measure 33
0010
0010
0001
0010
0010
0001
1000
0001
,  // measure 34
0100
0100
0010
0100
0100
0010
1000
0001
,  // measure 35
1000
1000
0100
1000
1000
0100
0010
0001
,  // measure 36
0100
0100
0010
0100
0100
0010
1000
0001
,  // measure 37
0210
1000
0001
1300
,  // measure 38
0120
1000
0001
1030
,  // measure 39
0210
1000
0001
1300
,  // measure 40
2002
0000
0000
3003
,  // measure 41
0010
0000
1000
0001
1000
0000
0000
0000
0010
0000
0001
1000
0001
0000
0000
0000
,  // measure 42
0100
0000
0010
1000
0100
0000
0010
0000
0100
0000
0001
0000
1001
0000
0000
0000
,  // measure 43
0001
0000
1000
0100
1000
0000
0000
0000
1000
0000
0001
0100
0001
0000
0000
0000
,  // measure 44
0010
0000
0100
0000
0010
0000
0100
0000
0001
0000
1000
0000
0001
1000
0001
1000
,  // measure 45
0100
0000
1000
0100
0010
0000
0000
0000
0001
0000
0001
0010
0100
0000
0000
0000
,  // measure 46
0010
0000
1000
0100
1000
0000
0100
0000
0010
0000
0010
0000
1001
0000
0000
0000
,  // measure 47
0110
0000
0000
0000
1001
0000
0000
0000
0010
0000
1000
0000
1000
0001
0100
0010
;

//---------------dance-single - Copied from ----------------
#NOTES:
     dance-single:
     Copied from:
     Challenge:
     9:
     0.532,0.470,0.280,0.032,0.420: // measure 1
0000
0000
0000
0000
,  // measure 2
0000
0000
0000
0000
,  // measure 3
0000
0000
0000
0000
,  // measure 4
2200
0000
0000
3300
,  // measure 5
1000
0001
1000
0000
0100
0000
0010
0100
0010
0000
1000
0000
0001
0100
0001
0000
,  // measure 6
0010
0001
0010
0000
0100
0000
0010
1000
0010
0000
0100
0000
0010
0100
0010
0000
,  // measure 7
0010
1000
0001
0000
0100
0000
0001
0010
0001
0000
0100
0000
0010
1000
0010
0000
,  // measure 8
0000
0000
0010
0000
0010
0000
1000
0001
1000
0000
0100
0000
1001
0000
0000
0000
,  // measure 9
0010
0000
1000
0100
1000
0000
0001
0010
0001
0000
0100
0000
0010
1000
0001
0000
,  // measure 10
0100
0010
0100
0000
0001
0000
1000
0001
1000
0000
0010
0000
0100
0001
0010
0000
,  // measure 11
0100
1000
0010
0000
0100
0000
0001
0100
0001
0000
1000
0000
0010
1000
0100
0000
,  // measure 12
0010
0000
0100
0000
0010
0000
0100
0000
0001
1000
0001
1000
0010
0100
0010
0100
,  // measure 13
0010
0000
1000
0100
1000
0000
1001
0000
0010
0000
0001
1000
0001
0000
0110
0000
,  // measure 14
1000
0000
0001
0100
0001
0000
0010
0000
0100
0000
0010
0000
0100
0000
0000
0000
,  // measure 15
1000
0000
0010
1000
0010
0000
1001
0000
0010
0000
0001
0010
0001
0000
1001
0000
,  // measure 16
0100
0000
0010
0000
0100
0000
0010
0000
1000
0100
1000
0100
0001
0100
0001
0100
,  // measure 17
1000
0000
0100
0000
0010
0000
0001
0000
1000
0100
0010
0001
1000
0000
0000
0000
,  // measure 18
0001
0000
0010
0000
0100
0000
1000
0100
0000
0000
1000
0000
0100
0000
0010
0000
,  // measure 19
0001
0000
0010
0000
0100
0000
1000
0000
0001
0010
0100
1000
0001
0000
0000
0000
,  // measure 20
0100
0000
0010
0000
1000
0000
1001
0000
0000
0000
0010
0001
0010
0000
1001
0000
,  // measure 21
0100
0010
0100
0000
0100
0000
0100
0010
0100
0000
0100
0000
0100
0010
0100
0000
,  // measure 22
1000
0001
1000
0000
1000
0000
1000
0001
0000
1001
0000
0000
1000
0001
1000
0000
,  // measure 23
0010
0100
0010
0000
0010
0000
0010
0100
0010
0000
0010
0000
0010
0100
0010
0000
,  // measure 24
0001
1000
0001
0000
0001
0000
0001
1000
0001
0000
0001
0000
0001
0100
0001
0100
,  // measure 25
0010
0000
0010
1000
0001
0000
0110
0000
0010
0000
0010
0001
1000
0000
0110
0000
,  // measure 26
1000
0000
0100
1000
0010
0000
0100
0000
0001
0000
0001
0000
0010
0000
1001
0000
,  // measure 27
0001
0000
1000
0100
1000
0000
1001
0000
1000
0000
0001
0100
0001
0000
1001
0000
,  // measure 28
0010
0000
0100
0000
0010
0000
0100
0000
0001
1000
0001
1000
0010
0100
0010
0100
,  // measure 29
0010
0000
1000
0100
1000
0000
1001
0000
0010
0000
0001
0100
0001
0000
1001
0000
,  // measure 30
0010
0000
0100
0001
0100
0000
1000
0000
0100
0000
0010
0000
0001
0000
0110
0000
,  // measure 31
0001
0000
1000
0100
1000
0000
0110
0000
1000
0000
0010
0001
0010
0000
0110
0000
,  // measure 32
0001
0000
0100
0000
0001
0000
0100
0000
0010
0100
0010
0100
1000
0100
1000
0100
,  // measure 33
0010
0100
0010
0000
0010
0000
0010
0100
0010
0000
0010
0000
0010
0100
0010
0000
,  // measure 34
1000
0001
1000
0000
1000
0000
1000
0001
1000
0000
1000
0000
1000
0001
1000
0000
,  // measure 35
0001
0100
0001
0000
0001
0000
0001
0100
0001
0000
0001
0000
0001
0100
0001
0000
,  // measure 36
0010
0001
0010
0000
0010
0000
0010
0001
0010
0000
0010
0000
0010
0001
0010
0000
,  // measure 37
0110
0000
0100
1000
0100
0000
0100
0000
0110
0000
0000
0000
0101
0000
0000
0000
,  // measure 38
0010
0100
0010
1000
0100
0000
0010
0000
0011
0000
0000
0000
1100
0000
0000
0000
,  // measure 39
0001
1000
0001
1000
0100
0000
0010
0000
0110
0000
0000
0000
1001
0000
0000
0000
,  // measure 40
0220
0000
0000
0330
,  // measure 41
0001
0000
0100
0001
0100
0000
0110
0000
1000
0000
0100
1000
0010
0000
0110
0000
,  // measure 42
0001
0000
1000
0100
0001
0000
0001
0100
1000
0000
0001
0000
0100
0000
0110
0000
,  // measure 43
0001
0000
1000
0001
0100
0000
0100
0000
0010
0000
0100
0010
1000
0000
0001
0000
,  // measure 44
1000
0000
0100
0000
1000
0000
0100
0000
0001
0100
0001
0100
0010
1000
0010
1000
,  // measure 45
0100
0000
0010
0100
0010
0000
1001
0000
0100
0000
0010
0100
0010
0000
1001
0000
,  // measure 46
0010
0000
1000
0100
0010
0000
0010
0001
0100
0000
0001
0000
0100
0000
1001
0000
,  // measure 47
0110
0000
0000
0000
0110
0000
0000
0000
0010
0100
0010
0100
0001
1000
0001
1000
;
