#TITLE:Violently Car;
#SUBTITLE:;
#ARTIST:samplingmasters MEGA;
#TITLETRANSLIT:;
#SUBTITLETRANSLIT:;
#ARTISTTRANSLIT:;
#GENRE:;
#CREDIT:;
#MENUCOLOR:;
#NEWMETERSYSTEM:NO;
#BANNER:Violently Car-bn.png;
#BACKGROUND:Violently Car-bg.png;
#LYRICSPATH:;
#CDTITLE:MixMania III CD Title.png;
#MUSIC:Violently Car.mp3;
#OFFSET:-1.160;
#SAMPLESTART:12.440;
#SAMPLELENGTH:12.000;
#SELECTABLE:YES;
#LISTSORT:;
#BPMS:0.000=170.000,160.000=194.000,248.000=220.000,280.000=250.000,312.000=280.000,344.000=300.000;
#STOPS:;
#BGCHANGES:;
#ATTACKS:;

//---------------dance-single - ----------------
#NOTES:
     dance-single:
     :
     Easy:
     6:
     0.489,0.593,0.505,0.318,0.000:
0000
0000
0000
0000
,
0000
0000
0000
0000
,
0001
0000
0000
0001
0000
0000
0001
0000
,
0000
0001
0000
0000
0001
0000
0000
1000
,
0000
0000
1000
0000
0000
1000
0000
0000
,
0001
1000
0001
0010
,
0110
0000
0100
0000
,
0100
0000
1001
0000
,
1001
0000
1000
0000
0100
0000
0001
1000
,
0100
0000
1000
0000
0010
0000
0100
1000
,
0002
0000
0010
0000
0100
0000
0003
0001
,
2000
0100
0010
3000
,
0001
0000
0100
0000
1000
0000
0100
0010
,
0001
0000
0010
0000
0100
0000
1000
0001
,
0020
1000
0100
0030
,
0200
0010
0001
0300
,
1001
0001
1000
0100
,
0010
0001
1000
0000
1000
0000
0001
1000
,
0020
0001
1000
0030
,
0020
1000
0001
0030
,
0100
0000
0010
0000
1000
0000
0100
0001
,
0010
0000
1000
0000
0001
0000
0001
1000
,
2000
0001
0100
3000
,
0002
1000
0100
1003
,
0010
0000
1001
0000
0000
0100
0000
1000
,
0000
0000
0000
1000
0001
0000
1000
0000
,
0010
0000
0110
0000
0000
0010
0000
0010
,
0000
0000
0000
0100
0001
0000
0100
0000
,
0001
0000
1001
0000
0000
1000
0000
0001
,
0000
0000
0000
0100
0010
0000
0100
0000
,
0001
0000
1000
0001
2000
0000
3100
0000
,
2200
0000
0000
3300
,
0010
0000
0110
0000
0000
1000
0000
0001
,
0000
0000
0000
0001
0010
0000
0100
0000
,
0100
0000
1001
0000
0000
1000
0000
0100
,
0000
0000
0000
0010
0001
0000
0100
0000
,
0001
0000
0011
0000
0000
0010
0000
0100
,
0000
0000
0000
0100
0001
0000
1000
0000
,
0001
0000
0001
1000
0002
0000
0103
0000
,
0120
0100
0100
0130
,
1001
0000
0000
1000
0000
0000
0000
0000
,
1001
0000
0000
0001
0000
0000
0000
0000
,
0110
0000
0000
0100
0000
0000
0000
0000
,
0110
0000
0000
0010
0000
0100
0000
0000
,
1001
0001
1001
1000
,
1000
0001
1000
0010
,
0110
0000
0001
0000
0000
1000
0000
0000
,
0001
0000
0000
0100
0000
0110
0000
0000
,
1001
0000
0001
0000
0000
0010
0000
0000
,
0100
0000
0000
0100
0000
1100
0000
0000
,
1010
0000
1000
0000
0000
0001
0000
0000
,
1000
0000
0000
0001
0000
0101
0000
0000
,
0110
0000
0010
0000
0000
1000
0000
0000
,
0001
0101
1000
1100
,
0001
0000
1000
0000
0100
1000
0100
0000
,
1000
0000
0000
0002
0000
2000
3003
0000
,
0100
0000
1000
0000
0001
0100
0001
0000
,
0001
0000
0000
2000
0000
0200
3300
0000
,
0010
0000
0001
0000
0100
0010
0100
0000
,
0010
0000
0000
0002
0000
0020
0033
0000
,
1000
0000
0001
0000
0100
0010
0100
0000
,
0001
1000
0001
1000
0001
0000
0110
0000
,
1001
0000
1001
0000
0001
0010
0000
0000
,
0000
0000
1000
1000
,
0011
0000
1010
0000
1000
0001
0000
0000
,
0000
0000
1000
0001
,
1100
0000
0101
0000
0001
1000
0000
0000
,
0000
0000
0010
0010
,
1100
0000
0101
0000
,
1100
0101
1100
0001
,
1001
0000
1001
0000
1000
0100
0000
0000
,
0000
0000
0001
0001
,
1100
0000
0011
0000
0001
0010
0000
0000
,
0000
0000
1000
1000
,
1010
0000
0101
0000
1000
0001
0000
0000
,
0000
0000
0100
0100
,
0110
0000
1100
0000
,
0101
0101
0101
0001
,
0002
0000
2003
0000
3001
0100
0000
0000
,
0000
0000
0010
0010
,
2000
0000
3002
0000
0013
0100
0000
0000
,
0000
0000
0010
1000
,
0020
0000
2030
0000
3100
1000
0000
0000
,
0000
0000
1000
0100
,
1100
0000
0011
0000
,
1010
1010
1010
1000
,
2000
0000
3002
0000
0203
0000
0300
0010
,
0000
0000
1000
1000
,
0200
0000
0302
0000
0023
0000
0030
1000
,
0000
0000
0010
0010
,
0002
0000
0203
0000
0320
0000
0030
0100
,
0000
0000
0001
1000
,
1001
0000
1001
0000
,
1001
0000
1001
0000
,
0002
0023
0230
2300
,
3001
1001
1001
0000
,
0120
0000
0000
0000
,
1030
0000
0000
0000
;

//---------------dance-single - Copied from----------------
#NOTES:
     dance-single:
     Copied from:
     Beginner:
     2:
     0.153,0.237,0.106,0.024,0.000:
0000
0000
0000
0000
,
0000
0000
0000
0000
,
0000
0000
0000
0000
,
0000
0000
0000
0000
,
0000
0000
0000
0000
,
0200
0000
0300
0000
,
0100
0000
0100
0000
,
0100
0000
0100
0000
,
1001
0000
0000
0001
,
0001
0000
0000
1000
,
1000
0000
0100
0000
,
1000
0000
0100
0000
,
0010
0000
0000
0001
,
0001
0000
0000
1000
,
1000
0000
0001
0000
,
0010
0000
0001
0000
,
0100
0000
0000
0100
,
0100
0000
0000
0010
,
0010
0000
1000
0000
,
0010
0000
1000
0000
,
0001
0000
0000
0001
,
0001
0000
0000
0001
,
0001
0000
1000
0000
,
0001
0000
0010
0000
,
0010
0000
0000
0000
,
0100
0000
0100
0000
,
0010
0000
0000
0000
,
1000
0000
0001
0000
,
1000
0000
0000
0000
,
0100
0000
1000
0000
,
0100
0000
0000
0000
,
0020
0000
0030
0000
,
0010
0000
0000
0000
,
1000
0000
0001
0000
,
1000
0000
0000
0000
,
0010
0000
0100
0000
,
0010
0000
0000
0000
,
0001
0000
0010
0000
,
0001
0000
0000
0000
,
0200
0000
0300
0000
,
0010
0000
0000
0000
,
0010
0000
0000
0000
,
0010
0000
0000
0000
,
0010
0000
1000
0000
,
0010
0000
0000
0000
,
0010
0000
0010
0000
,
0010
0000
0000
0000
,
1000
0000
0000
0000
,
0001
0000
0000
0000
,
1000
0000
0000
0000
,
0100
0000
0000
0000
,
0010
0000
0000
0000
,
0001
0000
0000
0000
,
1000
0000
0001
0000
,
1000
0000
0000
0000
,
0001
0000
0000
0000
,
0100
0000
0000
0000
,
0010
0000
0000
0000
,
1000
0000
0000
0000
,
0100
0000
0000
0000
,
0010
0000
0000
0000
,
0001
0000
0000
0000
,
1001
0000
0000
0000
,
0000
0000
0000
0000
,
1001
0000
0000
0000
,
0000
0000
0000
0000
,
1001
0000
0000
0000
,
0000
0000
0000
0000
,
0100
0000
0100
0000
,
0100
0000
0000
0000
,
1001
0000
0000
0000
,
0000
0000
0000
0000
,
1001
0000
0000
0000
,
0000
0000
0000
0000
,
1001
0000
0000
0000
,
0000
0000
0000
0000
,
0010
0000
0010
0000
,
0010
0000
0000
0000
,
1001
0000
0000
0000
,
0000
0000
0000
0000
,
1001
0000
0000
0000
,
0000
0000
0000
0000
,
1001
0000
0000
0000
,
0000
0000
0000
0000
,
0100
0000
0100
0000
,
0100
0000
0000
0000
,
1001
0000
0000
0000
,
0000
0000
0000
0000
,
1001
0000
0000
0000
,
0000
0000
0000
0000
,
1001
0000
0000
0000
,
0000
0000
0000
0000
,
0001
0000
0001
0000
,
1000
0000
1000
0000
,
0001
0000
1000
0000
,
0001
0000
1000
0000
,
0100
0000
0000
0000
,
0100
0000
0000
0000
;

//---------------dance-single - Copied from----------------
#NOTES:
     dance-single:
     Copied from:
     Medium:
     8:
     0.577,0.633,0.652,0.155,0.000:
0000
0000
0000
0000
,
0000
0000
0000
0000
,
1000
0000
0000
0100
0000
0000
0001
0000
,
0000
0100
0000
0000
1000
0000
0000
0010
,
0000
0000
0001
0000
0000
0010
0000
0000
,
1000
0001
1000
0010
,
0110
0000
0001
0000
,
1000
0000
0110
0000
,
1001
1000
0001
0000
1000
0000
0001
0000
,
0100
0001
0010
0000
0100
0000
1000
0000
,
1200
1000
0310
0010
,
0201
0001
0310
0100
,
0010
1000
0001
0000
0100
0000
0001
0000
,
0010
0001
0100
0000
0010
0000
1000
0000
,
1002
0100
0013
0100
,
2010
0100
3010
0100
,
0001
1000
0010
0100
0001
0000
0010
0000
,
0001
1000
0100
1000
0010
0000
0100
0000
,
2001
0100
3001
0100
,
1002
0010
1003
0001
,
1000
0100
0010
0001
0010
0000
0001
0000
,
0001
0010
0100
1000
0100
0000
0010
0000
,
0120
1000
0031
0010
,
0210
0001
0310
1000
,
0100
0001
1000
0000
0000
0001
1000
0001
,
0000
0000
0010
0000
0001
0100
0010
0000
,
1000
0100
1000
0000
0000
0010
0100
0010
,
0000
0000
0000
0000
1000
0001
1000
0000
,
0001
0010
0001
0000
0000
1000
0100
1000
,
0000
0000
0000
0010
0100
0010
0100
0000
,
0001
0010
0001
0000
1000
0100
1000
0000
,
1001
0010
0011
0100
,
1000
0100
1000
0000
0000
0001
0010
0001
,
0000
0000
0000
0100
0001
0010
0100
0000
,
1000
0010
1000
0000
0000
0001
0100
0001
,
0000
0000
0000
0010
0100
0010
1000
0000
,
0100
1000
0100
0000
0000
0010
0100
0010
,
0000
0000
0000
0001
0010
0100
1000
0000
,
0001
0010
0001
0000
1000
0100
1000
0000
,
1001
0010
0110
0001
,
1000
0100
0010
0001
0000
0000
0000
0000
,
0001
0010
0100
1000
0000
0000
0000
0000
,
1000
0001
1000
0001
0000
0000
0000
0000
,
0010
0100
0010
0100
0000
0100
0000
0000
,
0001
0010
0001
0000
1000
0100
1000
0000
,
0010
0100
0010
0100
0001
1000
0001
1000
,
0100
0000
1100
0000
0000
1010
0000
0000
,
0011
0000
0000
0101
0000
1001
0000
0000
,
1000
0000
1010
0000
0000
0101
0000
0000
,
0011
0000
0000
1100
0000
1001
0000
0000
,
0001
0000
1010
0000
0000
1100
0000
0000
,
0101
0000
0000
0011
0000
0110
0000
0000
,
0100
0000
0011
0000
0000
1100
0000
0000
,
0001
1000
1001
0000
0100
0010
0110
0000
,
1001
0000
1001
0000
0001
1000
0001
0000
,
0110
0000
0000
1001
0000
0011
0000
0000
,
1001
0000
1001
0000
1000
0001
1000
0000
,
0010
0100
0010
2000
0000
3200
0000
0300
,
1100
0000
0011
0000
0001
1000
0001
0000
,
0011
0000
0000
1100
0000
0110
0000
0000
,
1001
0000
1001
0000
0001
0010
0001
0000
,
0010
1000
0100
0010
0001
0000
0100
0010
,
0100
0000
0110
0000
0001
2000
0000
0000
,
0000
3000
0000
0000
1000
0001
1000
0001
,
0010
0000
1001
0000
0100
0020
0000
0000
,
0000
0030
0000
0000
0001
1000
0010
1000
,
0010
0000
1100
0000
1000
0002
0000
0000
,
0000
0003
0000
0000
0001
0100
0010
1000
,
1100
0000
0110
0000
,
0011
0101
1010
1100
,
1000
0000
1001
0000
1000
0020
0000
0000
,
0000
0030
0000
0000
0001
1000
0100
0010
,
0001
0000
1001
0000
0100
0020
0000
0000
,
0000
0030
0000
0000
0100
0010
1000
0100
,
0010
0000
0110
0000
0100
1000
0000
0000
,
0000
0000
0000
0000
0100
0010
1000
0001
,
0110
0000
1100
0000
,
0101
1100
0101
1100
,
0001
0000
1001
0000
0001
0200
0000
0000
,
0000
0300
0000
0000
1000
0010
0100
0001
,
0010
0000
0110
0000
0100
1000
0000
0000
,
0000
0000
0000
0000
1000
0001
0010
0001
,
1000
0000
1001
0000
0001
0020
0000
0000
,
0000
0030
0000
0000
0001
1000
0001
0000
,
1001
0000
1001
0000
,
1001
1001
1001
1001
,
1000
0000
0001
0000
0010
0001
0000
1000
,
0000
0001
0000
0000
1000
0010
1000
0000
,
0100
0000
1000
0000
0010
0100
0000
0010
,
0000
0100
0000
0000
0001
0010
0001
0000
,
1000
0000
0001
0000
0100
0001
0000
0010
,
0000
0001
0000
0000
1000
0001
1000
0000
,
0000
0110
0000
1001
,
0000
0110
0000
0101
,
1000
0100
0010
0001
,
1000
0001
1000
0000
,
2002
0000
0000
0003
,
3010
0000
0000
0000
;

//---------------dance-single - Copied from----------------
#NOTES:
     dance-single:
     Copied from:
     Hard:
     10:
     0.796,0.791,0.530,0.359,0.024: // measure 1
0000
0000
0000
0000
,  // measure 2
0000
0000
0000
0000
,  // measure 3
1000
0000
0000
0100
0000
0000
0010
0000
,  // measure 4
0000
0010
0000
0000
0100
0000
0000
1000
,  // measure 5
0001
0100
0010
1000
0100
0010
0001
0100
,  // measure 6
0001
0000
1000
0001
0000
0001
1000
0010
0100
0001
0010
0100
,  // measure 7
1000
0000
0001
0000
,  // measure 8
1100
0000
0101
0000
,  // measure 9
1001
0001
0010
0100
1000
0100
0010
0001
,  // measure 10
0001
0010
0100
1000
0100
0010
0001
1000
,  // measure 11
1000
0001
0101
1000
,  // measure 12
1010
1000
0100
0000
1100
0100
0010
0000
,  // measure 13
0001
0100
0010
1000
0100
0010
0001
1000
,  // measure 14
0001
0010
0100
0010
1000
0100
0010
0001
,  // measure 15
1000
0001
0101
1000
,  // measure 16
1010
0010
1000
0000
0011
0010
1000
0000
,  // measure 17
1001
0010
0100
0001
1000
0100
0010
1000
,  // measure 18
0001
0100
0001
0010
0001
0100
0010
1000
,  // measure 19
0100
0000
0001
0000
1001
0000
0001
0100
,  // measure 20
1001
1000
0100
0000
1001
0001
0100
0000
,  // measure 21
0110
1000
0100
0010
0001
0010
0001
0100
,  // measure 22
0010
1000
0100
1000
0010
0100
0001
1000
,  // measure 23
0001
0010
0110
1000
,  // measure 24
1100
1000
0010
0000
0100
0001
0010
0001
,  // measure 25
0200
0010
0310
0000
0100
0001
0010
0002
,  // measure 26
0010
0003
1000
0001
0100
0010
0010
1000
,  // measure 27
0200
1000
1300
0000
1000
0010
0100
0020
,  // measure 28
1000
0030
0010
0100
0001
0010
0100
1000
,  // measure 29
0002
1000
0103
0000
1000
0100
0001
0200
,  // measure 30
1000
0300
1000
0001
1000
0010
0100
0010
,  // measure 31
0200
0010
0310
0000
0001
1000
0001
0000
,  // measure 32
2100
0000
0000
0001
0001
0000
3010
0000
,  // measure 33
1002
1000
0103
0000
0010
0001
0100
0020
,  // measure 34
0100
0030
0010
1000
0100
0001
0100
1000
,  // measure 35
1020
1000
0031
0000
0100
0010
0100
0002
,  // measure 36
1000
0003
1000
0100
0010
0100
1000
0100
,  // measure 37
0200
0010
0301
0000
1000
0001
0100
0200
,  // measure 38
0010
0300
0001
1000
0100
1000
0001
1000
,  // measure 39
2100
0001
3001
0000
0010
1000
0001
0000
,  // measure 40
0110
0000
0011
0000
1100
0100
0110
0010
,  // measure 41
0011
1000
0001
0200
0010
0000
0010
0300
,  // measure 42
1001
0010
0100
2000
0010
0000
0001
3000
,  // measure 43
0110
0001
1000
0002
0010
0000
0100
0003
,  // measure 44
1001
1000
0001
0020
0100
2030
0100
3000
,  // measure 45
1100
0001
1100
0001
,  // measure 46
1100
0001
1000
0001
1000
0100
0010
0001
,  // measure 47
1001
0000
0110
0001
1000
0100
0010
0001
,  // measure 48
0100
0010
1000
0100
0000
0110
0000
0000
,  // measure 49
0110
0010
1000
0100
0001
0100
1000
0010
,  // measure 50
0100
0001
0010
0001
0000
1001
0000
0000
,  // measure 51
1001
1000
0001
0010
0100
1000
0100
0010
,  // measure 52
0001
1000
0001
1000
0000
1100
0000
0000
,  // measure 53
1100
0100
1000
0100
0010
0001
0010
0001
,  // measure 54
0200
0010
0310
0000
0002
1000
1003
0000
,  // measure 55
0110
0000
1001
0000
0001
0100
1000
0100
,  // measure 56
0020
0000
0130
2000
0100
3200
0000
0300
,  // measure 57
0110
0000
1100
0000
0100
0010
0001
0000
,  // measure 58
1000
0100
0001
0200
0010
0320
0000
0030
,  // measure 59
1001
0000
0011
0000
0001
0100
1000
0000
,  // measure 60
0200
0000
0310
0002
0010
0203
0010
0300
,  // measure 61
1001
0000
0110
0000
1000
0100
0001
0000
,  // measure 62
0001
0100
0010
1000
0100
0000
1010
0000
,  // measure 63
1000
0000
1001
0000
0001
0100
0000
0010
,  // measure 64
0000
1000
0000
0100
0010
0001
1000
0001
,  // measure 65
0100
0000
0110
0000
0001
1000
0000
0001
,  // measure 66
0000
0010
0000
0001
0100
0010
1000
0100
,  // measure 67
0010
0000
1001
0000
0100
0010
0000
0001
,  // measure 68
0000
1000
0000
0100
1000
0001
0010
0001
,  // measure 69
0100
0010
1000
0001
0100
0010
1000
0001
,  // measure 70
1000
0100
0010
0001
1000
0100
0010
0001
,  // measure 71
0100
0000
0110
0000
0010
1000
0000
0001
,  // measure 72
0000
0010
0000
0001
0100
0010
0100
0010
,  // measure 73
1000
0000
1001
0000
1000
0100
0000
0001
,  // measure 74
0000
0100
0000
1000
0010
0100
0001
0010
,  // measure 75
0100
0000
1100
0000
1000
0001
0000
0010
,  // measure 76
0000
0100
0000
1000
0100
0010
0001
0100
,  // measure 77
0010
0100
0010
0100
0001
1000
0001
1000
,  // measure 78
0001
0010
0100
1000
0001
0010
0100
1000
,  // measure 79
0001
0000
0101
0000
0100
0010
0000
1000
,  // measure 80
0000
0010
0000
0100
0001
0010
0001
1000
,  // measure 81
0100
0000
0110
0000
0010
0001
0000
0010
,  // measure 82
0000
0100
0000
0010
0001
1000
0001
0100
,  // measure 83
0001
0000
1001
0000
1000
0010
0000
0100
,  // measure 84
0000
0010
0000
1000
0100
0010
0100
1000
,  // measure 85
0001
0100
0001
0100
1000
0100
1000
0100
,  // measure 86
0001
0010
0100
1000
0001
0010
0100
1000
,  // measure 87
0002
0000
2003
0000
3020
0200
0030
0310
,  // measure 88
0000
0100
0000
0010
1000
0100
0010
0001
,  // measure 89
2000
0000
3020
0000
0230
0020
0300
1030
,  // measure 90
0000
0100
0000
0010
0001
0010
0001
0010
,  // measure 91
0002
0000
0203
0000
0320
2000
0030
3100
,  // measure 92
0000
0010
0000
0001
1000
0001
1000
0001
,  // measure 93
0100
0110
0010
0110
,  // measure 94
1000
1001
0001
1001
,  // measure 95
1000
0100
0010
0001
1000
0100
0010
0001
,  // measure 96
1000
0011
1001
0000
,  // measure 97
2020
0000
0000
3030
,  // measure 98
1001
0000
0000
0000
;

//---------------dance-single - Copied from Copied from----------------
#NOTES:
     dance-single:
     Copied from Copied from:
     Challenge:
     10:
     0.865,0.870,0.571,0.587,0.057: // measure 1
0000
0000
0000
0000
,  // measure 2
0000
0000
0000
0000
,  // measure 3
1000
0001
1000
0100
0010
0001
0010
0100
,  // measure 4
1000
0001
0010
0100
1000
0100
0010
0100
,  // measure 5
0001
0100
0010
0100
1000
0010
0100
0001
,  // measure 6
1000
0001
1000
0001
0100
0001
0100
1000
0100
0001
0100
0010
,  // measure 7
2100
3100
0210
0310
,  // measure 8
0120
0130
0012
0013
,  // measure 9
0110
0010
0100
1000
0001
1000
0100
1000
,  // measure 10
0010
0100
0001
0010
1000
0010
0001
1000
,  // measure 11
0100
0000
0001
0010
1100
0000
1000
0000
,  // measure 12
1010
0000
0000
0000
0100
0000
0010
0000
0011
0000
0000
0000
0010
0000
0100
0010
,  // measure 13
1000
0100
0010
0001
0010
0100
1000
0010
,  // measure 14
0100
0001
0100
0010
1000
0010
0100
0001
,  // measure 15
1000
0000
1000
0001
0101
0000
0001
0000
,  // measure 16
1100
0000
0000
0000
0100
0000
0010
0000
0110
0000
0000
0000
1000
0000
0001
0100
,  // measure 17
0010
1000
0100
0010
0001
0100
0010
1000
,  // measure 18
0001
1000
0100
0010
0001
1000
0100
0010
,  // measure 19
0100
0000
0001
1000
0101
0000
0001
0000
,  // measure 20
1001
0000
0000
0000
1000
0000
0001
0000
1010
0000
0000
0000
0100
0000
0001
1000
,  // measure 21
0010
0100
0010
1000
0100
0100
0010
0010
,  // measure 22
0001
1000
0001
1000
0100
0010
0001
0010
,  // measure 23
0100
0000
0010
0001
0110
0000
1000
0000
,  // measure 24
1100
0000
0010
1000
0110
0001
0010
0001
,  // measure 25
0100
1000
1010
0000
0100
0001
0010
2000
,  // measure 26
0010
3000
0010
0010
0100
0001
0010
0001
,  // measure 27
0200
1000
0310
0000
0100
0001
0100
0020
,  // measure 28
1000
0030
1000
1000
0010
1000
0100
0001
,  // measure 29
0002
0010
1003
0000
0010
1000
0001
0200
,  // measure 30
0010
0300
0100
1000
0100
0001
1000
0100
,  // measure 31
0200
1000
0310
1000
0100
0100
0010
0000
,  // measure 32
2002
0000
0000
0000
3003
0000
0001
0000
0010
0000
0000
0000
1000
0001
1000
0001
,  // measure 33
2000
0000
3100
0000
1000
0010
0100
0020
,  // measure 34
1000
0030
0010
0010
1000
0010
0100
0100
,  // measure 35
0120
0001
1030
0000
0010
0100
0100
0002
,  // measure 36
1000
0003
0100
0100
0001
1000
0001
0010
,  // measure 37
0200
0010
0301
0000
1000
0010
0100
0200
,  // measure 38
1000
0300
0001
0010
1000
0010
0001
0100
,  // measure 39
2000
0001
3001
0000
0100
0001
0110
0000
,  // measure 40
1001
0000
0011
0000
0101
0100
0110
0010
,  // measure 41
1010
1000
0100
0020
0001
0000
1000
0030
,  // measure 42
0011
1000
0100
0002
0100
0000
0100
0003
,  // measure 43
1100
0010
1000
0200
0010
0000
0001
0300
,  // measure 44
1001
0010
0100
2000
0001
3020
0100
0030
,  // measure 45
1010
0101
1100
0011
,  // measure 46
0101
0010
0100
1000
0001
0100
0010
1000
,  // measure 47
0110
0000
1001
0010
0100
0010
1000
0001
,  // measure 48
1000
0001
0100
0010
0000
0011
0000
0000
,  // measure 49
1100
1000
0010
1000
0010
0010
0100
0010
,  // measure 50
1000
0010
0100
0001
0000
1001
0000
0000
,  // measure 51
0011
1000
0001
0010
0001
1000
0010
0100
,  // measure 52
0001
0010
0001
0100
0000
0101
0000
0000
,  // measure 53
1001
1000
0001
0010
0100
1000
0010
0100
,  // measure 54
0020
1000
0031
0000
0200
0001
1300
0000
,  // measure 55
0011
0000
1100
0000
1000
0100
0001
0100
,  // measure 56
2000
0000
3100
0020
0001
0032
0000
0003
,  // measure 57
1010
0000
1001
0000
0010
1000
0001
0000
,  // measure 58
0010
0100
0001
2000
0001
3200
0000
0300
,  // measure 59
0101
0000
1010
0000
1000
0100
0001
0000
,  // measure 60
0200
0000
0310
0002
0100
0023
0100
0030
,  // measure 61
0011
0000
0101
0000
0010
0100
1000
0000
,  // measure 62
0010
0000
0100
0000
0010
0000
0001
0000
0010
0000
0000
0000
0100
0000
0001
1000
,  // measure 63
0001
0000
1100
0000
1000
0200
0000
0302
,  // measure 64
0000
0203
0000
1300
0010
0100
0001
0100
,  // measure 65
0010
0000
1100
0000
1000
0002
0000
2003
,  // measure 66
0000
3020
0000
0130
0001
0010
0100
1000
,  // measure 67
0010
0000
0011
0000
0100
0020
0000
2030
,  // measure 68
0000
3200
0000
1300
0001
0010
0100
1000
,  // measure 69
0100
0010
0100
1000
0100
0010
0100
1000
,  // measure 70
0100
0010
0100
0010
0001
0010
0100
1000
,  // measure 71
0100
0000
1001
0000
0100
0002
0000
2003
,  // measure 72
0000
3002
0000
1003
0001
0010
0100
0010
,  // measure 73
0001
0000
0011
0000
0010
0200
0000
2300
,  // measure 74
0000
3200
0000
1300
0010
1000
0001
0010
,  // measure 75
0001
0000
0110
0000
1000
0200
0000
0320
,  // measure 76
0000
0032
0000
1003
0010
0001
0010
1000
,  // measure 77
0010
0100
0010
1000
0010
0100
0010
1000
,  // measure 78
0001
1000
0001
1000
0001
0010
0100
1000
,  // measure 79
0001
0000
1001
0000
1000
0020
0000
2030
,  // measure 80
0000
3200
0000
0310
0001
1000
0001
0010
,  // measure 81
0100
0000
1001
0000
0010
0002
0000
2003
,  // measure 82
0000
3020
0000
0130
0001
1000
0100
0010
,  // measure 83
0001
0000
1100
0000
0001
0020
0000
0230
,  // measure 84
0000
2300
0000
3001
0100
0010
0100
0001
,  // measure 85
1000
0100
0001
0100
1000
0100
0001
0100
,  // measure 86
1000
0001
1000
0001
1000
0100
0010
0001
,  // measure 87
1000
0000
1001
0000
0001
0200
0000
0302
,  // measure 88
0000
2003
0000
3100
0010
0100
1000
0001
,  // measure 89
0100
0000
0101
0000
0001
0020
0000
0230
,  // measure 90
0000
2300
0000
3010
1000
0010
0100
0001
,  // measure 91
0010
0000
1100
0000
0010
2000
0000
3002
,  // measure 92
0000
0203
0000
0310
1000
0100
0010
0001
,  // measure 93
0100
1001
0010
1001
,  // measure 94
1000
0110
0001
0110
,  // measure 95
0001
0100
0010
1000
0001
0100
0010
1000
,  // measure 96
0001
1100
0011
0000
,  // measure 97
2002
0000
0000
3003
,  // measure 98
0110
0000
0000
0000
;
