#TITLE:ULTRA HIGH-HEELS;
#SUBTITLE:;
#ARTIST:dj TAKA feat. Angel;
#TITLETRANSLIT:;
#SUBTITLETRANSLIT:;
#ARTISTTRANSLIT:;
#GENRE:;
#CREDIT:;
#MENUCOLOR:;
#NEWMETERSYSTEM:NO;
#BANNER:ULTRA HIGH-HEELS-bn.png;
#BACKGROUND:ULTRA HIGH-HEELS-bg.png;
#LYRICSPATH:;
#CDTITLE:MixMania III CD Title.png;
#MUSIC:ULTRA HIGH-HEELS.mp3;
#OFFSET:-0.340;
#SAMPLESTART:51.300;
#SAMPLELENGTH:12.000;
#SELECTABLE:YES;
#LISTSORT:;
#BPMS:0.000=160.000;
#STOPS:;
#BGCHANGES:;
#ATTACKS:;

//---------------dance-single - ----------------
#NOTES:
     dance-single:
     :
     Easy:
     3:
     0.269,0.264,0.052,0.199,0.000:
0000
0000
0000
0000
,
0000
0000
0000
0000
,
1000
0100
0001
0100
,
2000
0000
3020
0000
,
0130
0001
0100
1000
,
0200
0000
0010
0000
,
0310
1000
0010
0001
,
0020
0000
0230
0000
,
0301
0100
1000
0100
,
0002
0000
0000
0003
,
1001
0000
1000
0001
,
1000
0000
0100
0010
,
0100
0000
0001
1000
,
0001
0000
0010
0000
,
0100
1000
0100
0000
,
0010
0001
1000
0000
,
0010
1000
0100
0000
,
0001
0000
1000
0000
,
1001
0000
0010
0100
,
0010
0000
0100
0010
,
0100
0000
0001
1000
,
0100
0000
1000
0000
,
1001
0000
0010
0001
,
1000
0000
0010
1000
,
0001
0000
0100
0000
,
0001
0000
0010
0000
,
0001
0001
1000
1000
,
0001
1000
0010
1000
,
0200
0000
0000
1000
,
1300
0000
0000
0000
,
1000
1000
0001
0001
,
1000
0001
0010
0100
,
0020
0000
1000
0000
,
0031
0000
2002
3003
,
0010
0100
0010
0000
,
0100
1000
0100
0000
,
0001
0100
0001
0000
,
0010
0001
0010
0000
,
1000
0100
1000
0000
,
0010
0100
0010
0000
,
0100
2002
0000
3003
,
0000
0100
0100
0100
,
0001
0100
1000
0000
,
1000
0100
0001
0000
,
0010
0100
0010
0000
,
0001
1000
0001
0000
,
0010
0001
1000
0001
,
0020
0000
0100
0130
,
0001
0100
1000
0100
,
0002
0000
2003
0000
,
3100
1000
0010
1000
,
0200
0000
0000
0010
,
0310
1000
0010
0001
,
0020
0000
0032
0000
,
0103
0010
1000
0001
,
0200
0000
1000
0000
,
0310
0000
0000
0000
;

//---------------dance-single - Copied from----------------
#NOTES:
     dance-single:
     Copied from:
     Beginner:
     1:
     0.097,0.147,0.031,0.021,0.000:
0000
0000
0000
0000
,
0000
0000
0000
0000
,
0100
0000
0000
0000
,
0100
0000
0000
0000
,
0010
0000
0000
0000
,
0010
0000
0000
0000
,
1000
0000
0000
0000
,
0001
0000
0000
0000
,
1000
0000
0000
0000
,
0002
0000
0000
0000
,
0003
0000
0000
0000
,
0100
0000
0000
0000
,
0010
0000
0000
0000
,
0010
0000
0000
0000
,
1000
0000
0000
0000
,
0001
0000
0000
0000
,
1000
0000
0000
0000
,
0100
0000
0000
0000
,
1001
0000
0000
0000
,
0100
0000
0000
0000
,
0010
0000
0000
0000
,
1000
0000
0000
0000
,
0001
0000
0000
0000
,
0100
0000
0000
0000
,
0010
0000
0000
0000
,
0010
0000
0000
0000
,
1000
0000
0000
0000
,
0001
0000
0000
0000
,
1000
0000
0000
0000
,
0020
0000
0000
0000
,
0030
0000
0000
0000
,
0100
0000
0000
0000
,
0001
0000
0000
0000
,
1001
0000
0000
0000
,
0100
0000
0100
0000
,
0100
0000
0000
0000
,
0010
0000
0010
0000
,
0010
0000
0000
0000
,
1000
0000
1000
0000
,
1000
0000
0000
0000
,
0001
0000
0001
0000
,
0001
0000
0000
0000
,
0010
0000
0010
0000
,
0010
0000
0000
0000
,
0001
0000
0001
0000
,
0001
0000
0000
0000
,
1000
0000
1000
0000
,
1000
0000
0000
0000
,
1001
0000
0000
0000
,
1000
0000
0000
0000
,
0010
0000
0000
0000
,
0100
0000
0000
0000
,
0001
0000
0000
0000
,
0010
0000
0000
0000
,
0100
0000
0000
0000
,
0100
0000
0000
0000
,
1000
0000
0000
0000
;

//---------------dance-single - Copied from----------------
#NOTES:
     dance-single:
     Copied from:
     Medium:
     6:
     0.416,0.414,0.115,0.262,0.000: // measure 1
0000
0000
0000
0000
,  // measure 2
0000
0000
0000
0000
0000
0000
1000
0100
,  // measure 3
1000
0100
0010
0001
,  // measure 4
2000
0001
0010
3001
,  // measure 5
0001
0000
0100
0000
0010
0000
1000
0100
,  // measure 6
0010
0001
0100
1001
,  // measure 7
0100
0001
0010
0100
,  // measure 8
0200
1000
0010
1300
,  // measure 9
1000
0010
0001
0100
,  // measure 10
0010
0000
1000
0000
0001
0000
0010
0001
,  // measure 11
0100
0100
0100
0100
,  // measure 12
0001
0001
1000
0001
,  // measure 13
0010
0010
0010
0010
,  // measure 14
1000
1000
0100
1000
,  // measure 15
0001
1000
0100
0010
,  // measure 16
0001
1000
0001
0010
,  // measure 17
0100
0000
1000
0000
0001
1000
0100
0000
,  // measure 18
0010
1000
0100
1000
,  // measure 19
1100
0000
0001
0000
0100
0001
0100
0000
,  // measure 20
0010
0000
1000
0000
0100
1000
0100
0000
,  // measure 21
0010
0001
0100
0010
,  // measure 22
2000
3200
0320
0031
,  // measure 23
1000
1100
0001
0101
,  // measure 24
0010
0000
1000
0000
0100
0010
0100
0000
,  // measure 25
0010
1000
0001
0100
,  // measure 26
0010
0000
0010
0000
1000
0001
1000
0000
,  // measure 27
1001
0010
0001
0100
,  // measure 28
0010
1000
0100
0010
,  // measure 29
0001
1000
0001
0000
1000
0100
1000
0000
,  // measure 30
0020
0000
0100
0130
,  // measure 31
0001
1001
1000
0100
,  // measure 32
0010
0001
1000
0000
0100
1000
0010
0000
,  // measure 33
0100
0001
0010
0100
,  // measure 34
0010
0010
0010
0020
,  // measure 35
0031
0000
0001
1000
0010
0000
0100
0000
,  // measure 36
0001
0000
0010
0001
0100
0000
0010
0000
,  // measure 37
1000
0000
0001
1000
0001
0000
1000
0000
,  // measure 38
0100
0000
1000
0001
1000
0000
0100
0000
,  // measure 39
2000
3020
0130
0001
,  // measure 40
0020
0032
0103
0010
,  // measure 41
2000
3200
1000
1300
,  // measure 42
0010
1010
0101
1010
,  // measure 43
0001
1000
0001
0000
0200
0000
0310
0000
,  // measure 44
1000
0001
1000
0000
0200
0000
1300
0000
,  // measure 45
0010
0100
0010
0000
0002
0000
0013
0000
,  // measure 46
0100
0010
0100
0000
0200
0000
0310
0000
,  // measure 47
2000
3001
2000
3010
,  // measure 48
0100
0000
0010
1000
0010
0100
0001
1000
,  // measure 49
0100
1000
0010
0100
,  // measure 50
0020
0100
1000
0130
,  // measure 51
0001
0000
1000
0000
0100
0000
0010
0100
,  // measure 52
0020
1000
0001
0031
,  // measure 53
1001
0001
1000
0100
,  // measure 54
0200
1000
0010
1300
,  // measure 55
0100
0000
0010
0000
0001
0000
1000
0001
,  // measure 56
2000
0100
3100
0010
,  // measure 57
0022
0000
0033
0000
;

//---------------dance-single - Copied from Copied f----------------
#NOTES:
     dance-single:
     Copied from Copied f:
     Hard:
     7:
     0.452,0.444,0.157,0.063,0.042: // measure 1
0000
0000
0000
0000
,  // measure 2
0000
0000
0000
0000
0000
0000
1000
1000
,  // measure 3
0100
1000
0010
0100
,  // measure 4
0001
0000
0000
0010
0000
0000
0001
0000
0000
1000
0000
0000
0100
0000
0000
0000
,  // measure 5
1000
0000
0010
0000
0100
0000
0010
0100
,  // measure 6
0020
1000
0001
1030
,  // measure 7
1100
0000
0010
0000
0001
0000
0100
0001
,  // measure 8
0010
0000
0000
0010
0000
0000
0001
0000
0000
0001
0000
0000
0100
0000
0000
0000
,  // measure 9
0010
0000
1000
0000
0100
0000
0010
0001
,  // measure 10
2000
0100
0010
3100
,  // measure 11
1100
0000
1000
0000
0100
0010
0100
0010
,  // measure 12
1000
0000
0100
0000
1000
0100
0010
0001
,  // measure 13
0100
0000
0010
0000
1000
0000
0001
1000
,  // measure 14
0001
0000
0010
0001
0010
0000
0101
0000
,  // measure 15
0011
0000
0100
1000
0010
1000
0100
0000
,  // measure 16
0010
0000
0100
0000
0010
0001
0010
0001
,  // measure 17
0100
0000
0010
0000
1000
0000
0001
1000
,  // measure 18
0001
0000
1000
0010
1000
0000
0100
0000
,  // measure 19
1010
0000
1000
0000
0100
0010
0001
0100
,  // measure 20
0010
0000
1000
0000
0001
1000
0100
1000
,  // measure 21
0010
0100
0001
1000
,  // measure 22
0100
0010
0100
0000
0001
1000
0001
0000
,  // measure 23
0110
0000
0001
0000
0100
0010
1000
0100
,  // measure 24
0010
0000
0001
0000
1000
0001
0100
0001
,  // measure 25
0010
0100
1000
0010
,  // measure 26
1000
0100
0010
0001
1000
0100
0010
0001
,  // measure 27
1000
0100
0000
0100
0000
0001
0000
0001
,  // measure 28
0000
0100
0000
0100
0000
1000
0000
1000
,  // measure 29
0010
0100
0000
0100
0000
0010
0000
0010
,  // measure 30
0000
0001
0000
0001
0000
1000
0000
1000
,  // measure 31
0010
0000
1001
0000
1000
0100
0000
0100
,  // measure 32
0000
0010
0000
0010
0000
0001
0000
0001
,  // measure 33
0000
1000
0000
1000
0000
0100
0000
0100
,  // measure 34
0010
0000
0010
0000
0010
0100
0020
0000
,  // measure 35
1030
0100
1000
0010
0100
0000
0001
0000
,  // measure 36
0010
0001
0100
0001
0100
0000
1000
0000
,  // measure 37
0010
0100
0001
0010
0100
0000
1000
0000
,  // measure 38
0010
1000
0100
0010
0001
0000
0100
0000
,  // measure 39
0010
0100
0010
0100
0010
0000
0100
0000
,  // measure 40
0001
1000
0001
1000
0001
0000
0010
0000
,  // measure 41
0001
0010
0200
0000
1000
0000
1300
0000
,  // measure 42
1010
1100
0011
0101
,  // measure 43
0001
1000
0001
0000
0010
0000
0001
0000
,  // measure 44
0100
0010
1000
0000
0100
0000
0010
0000
,  // measure 45
1000
0010
1000
0000
0100
0000
0010
0000
,  // measure 46
0001
1000
0001
0000
0100
0000
0001
0000
,  // measure 47
1000
0010
0100
0000
0001
0010
0100
0000
,  // measure 48
1000
0000
0001
1000
0010
0100
1001
0000
,  // measure 49
0001
0100
0001
0000
1000
0010
1000
0000
,  // measure 50
0100
0000
0000
0001
0000
0000
1000
0000
0000
0001
0000
0000
0100
0000
0000
0000
,  // measure 51
0010
0000
1000
0000
0001
0000
1000
1000
,  // measure 52
0100
0010
0001
1001
,  // measure 53
1001
0010
1000
0100
,  // measure 54
0010
0000
0000
0001
0000
0000
1000
0000
0000
0100
0000
0000
1000
0000
0000
0000
,  // measure 55
0010
0000
0100
0000
0001
0000
0100
0010
,  // measure 56
1000
0010
0001
0100
,  // measure 57
2002
0000
3003
0000
;

//---------------dance-single - Copied from Copied f----------------
#NOTES:
     dance-single:
     Copied from Copied f:
     Challenge:
     8:
     0.528,0.533,0.115,0.105,0.120: // measure 1
0000
0000
0000
0000
,  // measure 2
0000
0000
0000
0000
0000
0000
0000
0000
0000
0000
0001
1000
0001
0000
1000
0000
,  // measure 3
0010
0000
1000
0000
0100
0000
0000
0001
0000
0000
0100
0000
1000
0000
0100
0000
,  // measure 4
0010
0000
0000
0001
0000
0000
1000
0000
0000
0010
0000
0000
0100
0000
0010
0000
,  // measure 5
1000
0000
0001
0000
0100
0000
0000
0010
0000
0000
0010
0000
1000
0000
0100
0000
,  // measure 6
0000
0010
0001
1001
,  // measure 7
0001
0000
0010
0000
0100
0000
0000
1000
0000
0000
0001
0000
0100
0000
0010
0000
,  // measure 8
1000
0000
0000
0100
0000
0000
0100
0000
0000
0010
0000
0000
1000
0000
0001
0000
,  // measure 9
0100
0000
0010
0000
1000
0000
0000
0001
0000
0000
0001
0000
0100
0000
0010
0000
,  // measure 10
1000
0100
0010
0001
,  // measure 11
1001
0000
0001
0000
0100
0010
1000
0100
,  // measure 12
1000
0000
0100
0000
0010
0001
0100
0001
,  // measure 13
0010
0000
0100
0000
0001
1000
0100
1000
,  // measure 14
0000
0010
0000
0100
0000
0001
0000
0010
,  // measure 15
0001
0100
0001
0000
0010
1000
0100
1000
,  // measure 16
0010
1000
0100
0000
0010
0001
0100
0001
,  // measure 17
0010
0100
1000
0000
1000
0100
0010
0000
,  // measure 18
0001
1000
0001
1000
0010
1000
0010
1000
,  // measure 19
0100
0000
1100
0000
0010
0100
0001
0000
,  // measure 20
0010
1000
0100
0000
0010
0001
1000
0000
,  // measure 21
0100
0010
1000
0000
0100
0010
0001
0000
,  // measure 22
1000
0001
1000
0001
0100
0000
0110
0000
,  // measure 23
0010
0000
1001
0000
1000
0100
0001
0000
,  // measure 24
1000
0000
0010
0000
0001
0100
1000
0000
,  // measure 25
0001
0100
0010
0000
1000
0100
0010
0000
,  // measure 26
0001
0100
0001
0100
0010
1000
0010
1000
,  // measure 27
0100
0000
1000
0000
0100
0010
0001
0000
,  // measure 28
1000
0100
0010
0000
0001
0100
0010
0000
,  // measure 29
1000
0001
1000
0000
0001
0100
0010
0000
,  // measure 30
1000
0100
0010
0001
1000
0100
0010
0001
,  // measure 31
0100
0000
1001
0000
0100
0001
0010
0000
,  // measure 32
0100
1000
0010
0000
0100
0001
1000
0000
,  // measure 33
0010
0100
0010
0000
0001
0010
0100
1000
,  // measure 34
0100
0000
0000
0000
0100
0000
0000
1000
0100
0000
0001
0000
0200
0000
0000
0000
,  // measure 35
0310
0001
1000
0100
0010
0100
0000
1001
,  // measure 36
0000
1000
0010
0001
0010
0100
0000
1001
,  // measure 37
0000
1000
0100
0010
0001
1000
0000
1001
,  // measure 38
0000
0001
0010
0100
0010
1000
0000
0000
,  // measure 39
1000
0100
0010
0001
0010
0100
0000
1001
,  // measure 40
0000
0001
0010
0100
0010
1000
0000
1000
,  // measure 41
0000
0100
0020
0000
0100
0000
0130
0000
,  // measure 42
0001
0000
1000
0100
0001
0100
1000
0000
,  // measure 43
0100
0010
0100
0010
0001
1000
0000
0020
,  // measure 44
0000
1030
0100
0001
0100
1000
0000
2000
,  // measure 45
0000
3100
0010
0001
1000
0001
0000
0002
,  // measure 46
0000
0103
0010
1000
0100
0010
0000
0000
,  // measure 47
1000
0001
2000
0000
3010
0100
0020
0000
,  // measure 48
0130
0000
0000
0000
0001
1000
0001
1000
0000
0000
0010
0100
0010
0000
0100
0000
,  // measure 49
0100
0000
0100
0000
0001
0000
0000
1000
0000
0000
0100
0000
0010
0000
0001
0000
,  // measure 50
1000
0000
0000
0010
0000
0000
1000
0000
0000
0100
0000
0000
0010
0000
0001
0000
,  // measure 51
0100
0000
0010
0000
1000
0000
0000
0001
0000
0000
0100
0000
0001
0000
0100
0000
,  // measure 52
0000
0010
0010
1000
,  // measure 53
0100
0000
0010
0000
0001
0000
0000
1000
0000
0001
0100
0000
0010
0000
1000
0000
,  // measure 54
0100
0000
0000
0100
0000
0000
0010
0000
0000
0010
0000
0000
0001
0000
1000
0000
,  // measure 55
0001
0000
0100
0000
0010
0000
0000
1000
0000
0010
0100
0000
0100
0000
0002
0000
,  // measure 56
0000
1000
1000
1003
,  // measure 57
0220
0000
0330
0000
;
