#TITLE:Toukarenjou;
#SUBTITLE:;
#ARTIST:TERRA;
#TITLETRANSLIT:;
#SUBTITLETRANSLIT:;
#ARTISTTRANSLIT:;
#GENRE:;
#CREDIT:;
#MENUCOLOR:;
#NEWMETERSYSTEM:NO;
#BANNER:Toukarenjou-bn.png;
#BACKGROUND:Toukarenjou-bg.png;
#LYRICSPATH:;
#CDTITLE:MixMania III CD Title.png;
#MUSIC:Toukarenjou.mp3;
#OFFSET:-1.680;
#SAMPLESTART:53.580;
#SAMPLELENGTH:12.000;
#SELECTABLE:YES;
#LISTSORT:;
#BPMS:0.000=185.000;
#STOPS:;
#BGCHANGES:;
#ATTACKS:;

//---------------dance-single - ----------------
#NOTES:
     dance-single:
     :
     Easy:
     3:
     0.244,0.296,0.049,0.178,0.000:
0000
0000
0000
0000
,
0000
0000
0000
0000
,
0000
0000
0000
0000
,
0000
0000
0000
0000
,
1000
0000
1000
0000
,
0100
0000
0100
0000
,
1000
0000
0001
0001
,
0100
0000
0010
0000
,
1000
0000
0000
1000
,
0100
0000
0010
0000
,
0200
0000
0320
0000
,
0032
0000
0103
0000
,
0100
0000
0000
0001
,
0010
0000
0000
0100
,
1000
0000
0000
1000
,
0010
0000
0100
0000
,
0001
0000
1000
0000
,
0100
0000
0010
0000
,
0001
0000
0001
0000
,
0100
0000
0000
0000
,
0010
0000
1000
0000
,
0100
0000
0000
0010
,
0001
0000
0000
0001
,
0100
0000
0000
0010
,
0010
0000
1000
0000
,
0200
0000
1000
1300
,
0100
0000
0000
0001
,
0100
0000
1000
0000
,
0100
0000
0000
0010
,
0001
0000
0100
0000
,
0010
0000
0000
1000
,
0100
0000
1000
0000
,
0001
0000
0000
0001
,
0010
0000
0100
0000
,
1000
0000
0100
1000
,
0100
0000
0010
0000
,
1001
0000
0100
0000
,
1001
0000
0010
0000
,
1001
0000
0100
0000
,
2002
0000
0000
3003
,
0000
0100
0100
0100
,
0010
0000
0000
0000
,
0100
0001
0010
0001
,
0100
0000
1000
0000
,
0100
0000
0001
0001
,
0010
0000
0100
1000
,
0100
0000
1000
1000
,
0010
0000
1000
0000
,
0001
0000
0100
0100
,
1000
0000
0010
0010
,
0001
0000
0100
0100
,
2000
0000
3002
0000
,
2003
0000
3020
0000
,
0130
0000
0100
0100
,
0010
0000
0010
0010
,
0001
0000
1000
0000
,
0000
0010
0100
0010
,
0100
0000
0100
0000
,
0100
0000
0100
0000
,
0010
0000
0010
0000
,
0010
0000
0010
0000
,
1000
0000
0001
0000
,
0100
0000
0001
0000
,
1000
0000
0100
1000
,
0010
0000
0100
0000
,
1001
0000
0001
0010
,
0001
0000
0010
0000
,
1001
0000
1000
0100
,
1000
0000
0100
0000
,
0020
0000
0130
0000
,
0020
0000
0031
0000
,
0001
0000
1000
0000
,
0100
0000
0010
0001
,
0001
0000
0000
1000
,
1000
0000
0001
0000
,
0100
0000
0010
0000
,
1000
0000
0100
0000
,
0100
0000
0000
0010
,
0001
0000
0010
0000
,
0001
0000
0100
0000
,
1000
0000
0010
0000
,
0200
0000
0000
0000
,
0320
0000
1000
0000
,
2030
0000
0000
0000
,
3002
0000
0100
0000
,
0023
0000
0000
0100
,
0230
0000
0000
0000
,
0320
0000
0032
0000
,
2003
0000
3000
0000
,
0020
0000
0000
0000
,
0000
0000
0000
0000
,
0000
0030
0000
0000
;

//---------------dance-single - Copied from----------------
#NOTES:
     dance-single:
     Copied from:
     Beginner:
     1:
     0.098,0.108,0.000,0.032,0.000:
0000
0000
0000
0000
,
0000
0000
0000
0000
,
0000
0000
0000
0000
,
0000
0000
0000
0000
,
0010
0000
0000
0000
,
0000
0000
0000
0000
,
1000
0000
0000
0000
,
0000
0000
0100
0000
,
0100
0000
0000
0000
,
0010
0000
0000
0000
,
0001
0000
0000
0000
,
1000
0000
0000
0000
,
0001
0000
0000
0000
,
0100
0000
0000
0000
,
0010
0000
0000
0000
,
1000
0000
0000
0000
,
0100
0000
0000
0000
,
0100
0000
0000
0000
,
0010
0000
0000
0000
,
0010
0000
0000
0000
,
0001
0000
0000
0000
,
1000
0000
0000
0000
,
0001
0000
0000
0000
,
0000
0000
1000
0000
,
1000
0000
0000
0000
,
0001
0000
0000
0000
,
0010
0000
0000
0000
,
0000
0000
0100
0000
,
0100
0000
0000
0000
,
0010
0000
0000
0000
,
0001
0000
0000
0000
,
0000
0000
1000
0000
,
1000
0000
0000
0000
,
0100
0000
0000
0000
,
0010
0000
0000
0000
,
0000
0000
0001
0000
,
0001
0000
0000
0000
,
1000
0000
0000
0000
,
0001
0000
0000
0000
,
0100
0000
0000
0000
,
0000
0000
0010
0000
,
0010
0000
0000
0000
,
0000
0000
0100
0000
,
0100
0000
0000
0000
,
1000
0000
0000
0000
,
0001
0000
0000
0000
,
0010
0000
0000
0000
,
0100
0000
0000
0000
,
0000
0000
1000
0000
,
1000
0000
0000
0000
,
0000
0000
0001
0000
,
0001
0000
0000
0000
,
0000
0000
0010
0000
,
0010
0000
0000
0000
,
0100
0000
0000
0000
,
0100
0000
0000
0000
,
0000
0000
0001
0000
,
0001
0000
0000
0000
,
0000
0000
0100
0000
,
0100
0000
0000
0000
,
0010
0000
0000
0000
,
1000
0000
0000
0000
,
0001
0000
0000
0000
,
0100
0000
0000
0000
,
0000
0000
0100
0000
,
0100
0000
0000
0000
,
0010
0000
0000
0000
,
0010
0000
0000
0000
,
0001
0000
0000
0000
,
1000
0000
0000
0000
,
0100
0000
0000
0000
,
1000
0000
0000
0000
,
0000
0000
0010
0000
,
0010
0000
0000
0000
,
0100
0000
0000
0000
,
0001
0000
0000
0000
,
0010
0000
0000
0000
,
0100
0000
0000
0000
,
1000
0000
0000
0000
,
0010
0000
0000
0000
,
0010
0000
0000
0000
,
0200
0000
0000
0000
,
0300
0000
0000
0000
,
0002
0000
0000
0000
,
0003
0000
0000
0000
,
2000
0000
0000
0000
,
3000
0000
0000
0000
,
0020
0000
0000
0000
,
0030
0000
0000
0000
,
0100
0000
0000
0000
;

//---------------dance-single - Copied from----------------
#NOTES:
     dance-single:
     Copied from:
     Medium:
     5:
     0.368,0.407,0.154,0.041,0.000:
0000
0000
0000
0000
,
0000
0000
0000
0000
,
0000
0000
0000
0000
,
0000
0000
0000
0000
,
0100
0000
0000
1000
0100
0000
0010
0000
,
0001
0000
0000
0100
0001
0000
0010
0000
,
0001
0000
0000
0100
0010
0000
1000
0000
,
0100
0000
1000
1000
,
1100
0000
0000
0001
,
0001
0010
0001
0100
,
0010
0000
0110
0000
,
1001
0000
0001
0010
,
0011
0000
0000
0100
,
0010
1000
0100
1000
,
0010
0000
1100
0000
,
0011
0000
0100
0001
,
0010
0100
1000
0010
,
0100
0001
1000
0001
,
0020
0000
0032
0000
,
0203
0000
0310
1000
,
0100
0000
0100
0010
,
0001
0000
0100
0001
,
0010
0100
1000
0100
,
0010
0000
0100
0100
,
0010
0000
0100
0100
,
0010
0000
0001
1000
,
0100
0010
0001
1000
,
0001
0000
0010
0010
,
0001
0000
1000
1000
,
0100
0000
1000
0010
,
0100
0001
0010
0100
,
1000
0000
0010
0010
,
0100
0010
0100
1000
,
0100
0010
0001
0100
,
0001
1000
0100
1000
,
0010
0000
0100
0001
,
0010
0100
1000
0010
,
0100
0010
1000
0001
,
0010
0001
0100
0010
,
1000
0100
0100
0100
,
0000
0010
0010
0010
,
1001
0100
1000
0100
,
0010
0001
1000
0001
,
0100
0000
0010
1000
0010
0000
0100
0001
,
0100
0010
1000
0100
,
0010
0000
0010
0001
,
0100
0000
0010
1000
,
0100
0010
0001
0100
,
0001
0010
0001
1000
,
0100
0000
0100
1000
0100
0000
0100
0000
,
0100
0010
0010
0010
,
0001
0000
0001
0010
0001
0000
0001
0000
,
0100
0000
0010
0010
,
1000
0000
0100
0100
,
0001
0000
0010
0010
,
0001
1000
0001
0100
,
0010
0001
0001
1000
,
1001
1000
0100
0010
,
0001
0100
0001
0010
,
0100
0000
1000
0010
1000
0000
0100
0000
,
0100
0010
0001
1000
,
0001
0010
0100
1000
,
0001
0100
0010
1000
,
0001
0010
0010
1000
,
1000
0100
1000
0010
,
0100
0000
0100
0010
0100
0000
0100
0000
,
0100
0010
0010
0001
,
1000
0000
1000
0100
1000
0000
1000
0000
,
0010
0100
0001
0010
,
0100
0000
1000
0100
,
0010
0000
0100
0010
,
0001
1000
0001
0100
,
0010
0000
0100
0100
,
0110
0000
0000
1000
,
1001
0000
0001
0000
,
0011
0000
0110
0000
,
1100
0000
1000
1000
,
1001
0000
0000
0001
,
0101
0000
0010
0000
,
0110
0000
1001
0000
,
0110
0000
0100
0000
,
1000
0100
0001
0000
,
0001
0010
1000
0000
,
0100
1000
0010
0001
,
0100
0000
0010
0100
,
0001
0000
1000
0100
,
1000
0010
0100
0001
,
1000
0000
0001
0000
,
0010
0010
0100
0100
,
2002
0000
0000
0000
,
0000
0000
0000
0000
,
0000
3003
0000
0000
;

//---------------dance-single - Copied from----------------
#NOTES:
     dance-single:
     Copied from:
     Hard:
     8:
     0.570,0.592,0.349,0.065,0.004:
0000
0000
0000
0000
,
0000
0000
0000
0000
,
0000
0000
0000
0000
,
0000
0000
0000
0000
,
0001
0000
1000
0001
1000
0000
0010
0000
,
0110
0000
0100
0010
0100
0000
0001
0000
,
0011
0010
0110
0100
,
1100
1000
0001
0100
,
0101
0000
0000
0001
1000
0000
0100
0000
,
1100
1000
0010
0100
,
0020
0100
0001
0130
,
0200
0000
0010
0300
1000
0000
1000
0000
,
0100
0000
0010
0001
0100
0000
0001
0000
,
1000
0000
0100
1000
0010
0000
0100
0000
,
0110
0001
1001
1000
,
1100
1000
0010
0100
,
0001
0000
1000
0001
0100
0000
0001
1000
,
0010
0000
1000
0010
0100
0000
0001
1000
,
0100
0000
0100
0000
0010
0000
0010
0001
,
0010
0000
0100
0000
0010
0000
1000
0001
,
0100
0000
0010
0000
1000
0000
0100
1000
,
0100
0000
0010
0000
0100
0000
0001
0010
,
0100
0000
1000
0100
0010
0000
0001
1000
,
0001
0100
0001
0010
,
0110
0010
1000
0100
,
1100
0100
0010
0001
,
0100
0001
0010
0000
0100
1000
0010
0000
,
0110
0000
0001
0000
1000
0100
0001
0100
,
1000
0000
0010
0000
0001
0010
1000
0010
,
0001
0000
0100
0000
0001
0010
0100
0010
,
0100
0000
0010
1000
0100
0000
1000
0100
,
0010
0001
0010
0100
,
0002
0000
0023
0000
0100
0030
0100
0000
,
0100
0000
0010
1000
0100
0000
0010
0001
,
0100
0000
0010
0000
0100
0010
0100
0010
,
1000
0000
0100
0000
0010
0001
0010
0000
,
1001
0100
0100
0010
,
1001
0010
0010
0100
,
1000
0000
0001
0100
0001
0000
0010
0000
,
2100
0010
0001
3010
,
1020
0100
0100
0130
,
0001
0010
0100
1000
0001
0100
0010
1000
,
0100
1000
0001
0100
0010
1000
0100
0001
,
0100
0000
0100
0010
0001
0000
1000
0100
,
0010
0000
0001
1000
0001
1000
0100
0000
,
0010
0001
1000
0100
1000
0010
0100
0001
,
1000
0010
0100
0001
0010
0100
0010
0001
,
1000
0000
0001
0100
0001
0000
1000
0100
,
1000
0000
0010
1000
0001
1000
0010
0000
,
0110
0000
0001
1000
0001
0000
0110
0000
,
0110
0000
1000
0100
1000
0000
0011
0000
,
0011
0000
0001
0100
0001
0000
1100
0000
,
1100
0000
0010
0000
0100
0001
0010
0100
,
1000
0000
0010
0000
1000
0100
0010
0001
,
0010
0000
0001
0000
1000
0001
0100
0010
,
1000
0000
0010
0100
0001
0000
1000
0000
,
1100
0010
0100
0010
,
0100
0001
0010
0100
0010
0001
1000
0100
,
0010
0100
1000
0001
0010
0100
1000
0100
,
0010
0000
0001
0100
0001
0000
1000
0100
,
1000
0000
0010
0100
0001
1000
0100
0000
,
0010
0001
0010
0100
1000
0100
0001
0100
,
1000
0100
0010
0001
0100
0010
1000
0100
,
0010
0000
0100
0010
0100
0000
0001
1000
,
0001
0000
0010
0001
0100
0010
1000
0000
,
1010
0000
0010
0001
0010
0000
1010
0000
,
1010
0000
0100
0010
0100
0000
0010
0000
,
0101
0000
0010
1000
0010
0000
0101
0000
,
0101
0000
0010
0000
0001
0100
0010
1000
,
0100
0000
0010
0000
1000
0100
0010
0100
,
1000
0000
0010
0000
0100
0001
0010
0100
,
1000
0000
0100
0010
0001
0000
0001
1000
,
0010
0100
0010
0010
,
0011
0000
0000
1000
,
1100
0000
0010
0100
,
0110
0100
1100
0000
,
0101
0000
0110
0001
,
0011
0000
1010
0100
,
0101
0010
0001
0001
,
0101
0100
1100
0100
,
0101
0000
0000
0000
0001
0000
1000
0001
,
0100
0000
0000
0000
0100
0000
0100
1000
,
0001
0000
0000
0000
0001
0000
0001
1000
,
0100
0000
0000
0000
0100
0000
1000
0010
,
0100
0000
0000
0000
0100
0000
0100
1000
,
0010
0000
0010
0000
0010
0000
0100
0001
,
0010
0000
0010
0000
0010
0000
0001
0100
,
0010
0000
1000
0100
0001
0000
0001
0100
,
1000
0000
0010
0000
1000
0001
1000
0000
,
0120
0000
0000
1000
0000
0000
0000
0000
,
0000
0200
0000
0000
0000
0000
0000
0000
0000
0000
0000
0000
0000
0000
0000
0000
,
0000
0330
0000
0000
;

//---------------dance-single - Copied from----------------
#NOTES:
     dance-single:
     Copied from:
     Challenge:
     9:
     0.622,0.629,0.203,0.381,0.004: // measure 1
0000
0000
0000
0000
,  // measure 2
0000
0000
0000
0000
,  // measure 3
0000
0000
0000
0000
,  // measure 4
0000
0000
0000
0000
,  // measure 5
0110
0000
0010
1000
0100
0000
0010
0000
,  // measure 6
0011
0000
0101
0000
0011
0000
0100
0010
,  // measure 7
1000
0000
0100
0010
0001
0000
0001
1000
,  // measure 8
0100
0000
0100
0000
1000
0010
0100
0001
,  // measure 9
0010
0000
0001
0000
0001
0000
0100
0001
,  // measure 10
0010
0000
0100
1000
0010
0000
0100
0000
,  // measure 11
0020
0100
0001
0130
,  // measure 12
0110
0000
1000
0000
0100
0010
0001
0010
,  // measure 13
0100
0000
1000
0000
0100
0000
0010
1000
,  // measure 14
0100
0000
0010
0000
0001
0000
0100
0010
,  // measure 15
0200
1000
0010
1300
,  // measure 16
0110
0000
0010
0000
1000
0001
0100
0010
,  // measure 17
1000
0000
0100
0000
0001
0010
1000
0010
,  // measure 18
0001
0000
0100
0000
1000
0010
0100
0001
,  // measure 19
0010
0000
0010
0100
1000
0000
0010
0100
,  // measure 20
0001
0000
0010
0000
0001
0010
0100
0001
,  // measure 21
0100
0000
0010
1000
0100
0010
0001
0100
,  // measure 22
0010
0000
0010
0100
0001
0010
0100
1000
,  // measure 23
0100
0000
0100
0010
0100
0000
1000
0001
,  // measure 24
1000
0001
0002
2003
,  // measure 25
3020
0000
0130
0010
2000
0000
3002
0000
,  // measure 26
0203
0000
0310
1000
0002
0000
0203
0000
,  // measure 27
0320
0000
1030
0010
0100
0001
1000
0100
,  // measure 28
0010
0001
2000
3200
,  // measure 29
0320
0000
0031
1000
0002
0000
2003
0000
,  // measure 30
3020
0000
1030
0001
0200
0000
0320
0000
,  // measure 31
2030
0000
3100
0010
0001
1000
0001
0100
,  // measure 32
0001
0000
1000
0000
0001
0100
0010
1000
,  // measure 33
0100
0000
0100
0010
0001
0000
0001
0010
,  // measure 34
0100
0000
0100
1000
0010
0000
0010
0100
,  // measure 35
0001
0000
0001
1000
0100
0000
0100
0001
,  // measure 36
1000
0000
1000
0010
0100
0000
0100
0001
,  // measure 37
0010
0000
0010
0100
0010
0000
1000
0001
,  // measure 38
1000
0000
0010
0100
0010
0000
1000
0001
,  // measure 39
0100
0001
0010
0100
1000
0000
1100
0000
,  // measure 40
1010
0100
0100
0100
,  // measure 41
0110
0001
1000
0001
,  // measure 42
1000
0010
0100
0001
0010
0100
1000
0001
,  // measure 43
0100
0010
1000
0100
1000
0010
0100
0001
,  // measure 44
0010
0001
0100
0010
1000
0001
0100
0010
,  // measure 45
1000
0010
0001
0010
0100
0010
1000
0100
,  // measure 46
0001
0000
0001
0100
0001
0000
0001
0000
,  // measure 47
1000
0000
1000
0100
1000
0000
1000
0000
,  // measure 48
0010
0000
0100
0010
0100
0000
0010
0000
,  // measure 49
0100
0000
0001
0010
0100
1000
0100
0010
,  // measure 50
0001
0000
1000
0001
1000
0000
0110
0000
,  // measure 51
1001
0000
0100
0000
0010
0001
0010
0100
,  // measure 52
0020
1000
0230
0001
,  // measure 53
0320
1000
0001
0130
,  // measure 54
0110
0000
1000
0100
0010
0001
0010
0000
,  // measure 55
0110
0000
0001
0010
0100
1000
0100
0000
,  // measure 56
0110
0000
0001
0010
1000
0000
0110
0000
,  // measure 57
0110
1000
0100
0100
,  // measure 58
0010
0100
0010
0001
0010
0100
1000
0100
,  // measure 59
0010
0100
0010
0001
0100
0010
1000
0100
,  // measure 60
0010
0100
1000
0010
0100
0001
0010
0100
,  // measure 61
0010
0001
0100
0010
1000
0100
0010
0001
,  // measure 62
0100
0000
0010
1000
0010
0000
0100
0000
,  // measure 63
0110
0000
0001
0010
0100
0000
0100
0000
,  // measure 64
1100
0000
0010
0000
0110
0000
0010
0001
,  // measure 65
0020
0000
0130
0000
0100
1000
0100
0010
,  // measure 66
0001
0000
0100
0001
0010
0000
0100
0000
,  // measure 67
1100
0000
0010
0100
0001
0000
0010
0000
,  // measure 68
0200
1000
0320
0001
,  // measure 69
0130
0000
0010
0000
1000
0100
0001
0100
,  // measure 70
1000
0000
0010
0000
0001
0010
1000
0010
,  // measure 71
0001
0000
0100
0001
0010
0000
0100
0000
,  // measure 72
1001
0000
0010
0100
0010
0000
0010
0000
,  // measure 73
1001
0010
0100
0010
,  // measure 74
0021
0000
1000
1000
,  // measure 75
0230
0320
2030
3200
,  // measure 76
0320
0000
0001
0100
,  // measure 77
0032
0000
0100
0100
,  // measure 78
0023
0000
0032
2003
,  // measure 79
3200
0320
0032
2003
,  // measure 80
3020
0230
0302
2003
,  // measure 81
3200
0000
0010
0010
,  // measure 82
0301
0000
1000
0010
0001
0000
0100
0000
,  // measure 83
0010
0000
1000
0001
0100
0000
0010
0000
,  // measure 84
1000
0000
1000
0000
0001
0000
0100
0010
,  // measure 85
0010
0000
1000
0000
0001
1000
0001
0000
,  // measure 86
0011
0000
0001
0000
1000
0001
1000
0000
,  // measure 87
1010
0000
1000
0000
0100
1000
0010
0100
,  // measure 88
0001
0000
1000
0001
0010
0100
1000
0100
,  // measure 89
0001
0000
1000
0000
0001
1000
0100
0010
,  // measure 90
0100
0000
0000
0002
0000
0000
0000
0000
,  // measure 91
0000
2000
0000
0000
0000
0000
0000
0000
0000
0000
0000
0000
0000
0000
0000
0000
,  // measure 92
0000
3003
0000
0000
;
