#TITLE:This is love;
#SUBTITLE:;
#ARTIST:D-crew feat. MAKOTO;
#TITLETRANSLIT:;
#SUBTITLETRANSLIT:;
#ARTISTTRANSLIT:;
#GENRE:;
#CREDIT:;
#MENUCOLOR:;
#NEWMETERSYSTEM:NO;
#BANNER:This is love-bn.png;
#BACKGROUND:This is love-bg.png;
#LYRICSPATH:;
#CDTITLE:MixMania III CD Title.png;
#MUSIC:This is love.mp3;
#OFFSET:-0.400;
#SAMPLESTART:12.720;
#SAMPLELENGTH:12.000;
#SELECTABLE:YES;
#LISTSORT:;
#BPMS:0.000=175.000;
#STOPS:;
#BGCHANGES:;
#ATTACKS:;

//---------------dance-single - ----------------
#NOTES:
     dance-single:
     :
     Easy:
     4:
     0.299,0.383,0.084,0.168,0.000:
0000
0000
0000
0000
,
0000
0000
0000
0000
,
0000
0000
0000
0000
,
0000
0000
0000
0000
,
0010
0010
1000
1000
,
0100
0100
1000
0001
,
0020
0030
0002
0003
,
0100
0001
0011
0011
,
0002
0000
0003
0000
,
1000
0001
1000
0100
,
0010
0000
1000
0000
,
1000
0100
0010
0001
,
2000
0000
3010
0000
,
0010
0010
0100
0001
,
0010
0000
0001
0000
,
0100
0001
0010
0100
,
1000
0001
1001
0000
,
0100
0100
0010
0000
,
0010
0001
0010
0000
,
0001
0001
1000
0000
,
0100
1000
0010
0000
,
0100
0100
0010
0000
,
0001
0010
1000
0000
,
1000
1000
0100
0000
,
2000
0000
3002
0000
,
0103
0010
1000
0000
,
0100
0001
0001
0000
,
0010
0100
1000
0000
,
1000
0001
1000
0000
,
0010
0100
0100
0000
,
0100
1000
0001
0000
,
1000
0001
1000
0000
,
1010
1000
0200
0300
,
0000
0001
1000
0001
,
0010
0010
0010
0000
,
0100
1000
0001
0100
,
0100
1000
0100
0000
,
1000
1000
0010
0100
,
0001
0000
0001
0001
,
1000
0000
0010
0000
,
1000
0001
1000
0001
,
0100
0001
0010
0000
,
0001
1000
0100
0000
,
1000
1000
0010
0001
,
0010
0000
0010
0000
,
0200
0000
0301
0000
,
0002
0000
0013
0000
,
0100
0100
0001
0010
,
0001
0000
1000
0000
,
2001
0000
0010
0000
,
0010
0000
0100
3000
,
1002
0000
0100
0000
,
0100
0000
0010
0003
,
0210
0000
0010
0000
,
0010
0000
0001
0300
,
0120
0000
0100
0000
,
0100
0000
1000
0030
,
2000
0000
3100
0000
,
0002
0000
0103
0000
,
0020
0000
0130
0000
,
2000
0000
3010
0000
,
0200
0000
0301
0000
,
0002
0000
1003
0000
,
0020
0000
0100
0100
,
0130
0000
1000
0001
,
1000
0000
0001
0000
,
0000
0000
0100
0100
,
0110
1000
1000
0000
,
0001
0001
1000
0000
,
0010
0001
0100
0000
,
0010
1000
0100
0000
,
1000
0000
0100
0000
,
0010
0001
1000
0000
,
0100
0010
0100
0100
,
1000
0000
0100
0000
,
0001
1000
0010
0000
,
0100
1000
0001
0000
,
0010
0010
0001
0000
,
0100
0100
1000
0000
,
0010
0000
1000
0000
,
0100
0000
0010
0000
,
0001
1000
0010
0100
,
0010
0000
0100
0000
,
1001
0000
0000
0000
;

//---------------dance-single - Copied from----------------
#NOTES:
     dance-single:
     Copied from:
     Medium:
     6:
     0.379,0.488,0.193,0.067,0.000:
0000
0000
0000
0000
,
0000
0000
0000
0000
,
0000
0000
0000
0000
,
0000
0000
0000
0000
,
0000
0011
0000
1100
,
0000
1010
0000
0101
,
0001
1000
0001
1000
,
0001
0010
0100
2000
,
3100
0000
0000
0000
,
1000
0000
0100
0010
0000
0001
0000
0010
,
0000
0100
0000
1000
0000
0010
0000
0100
,
0000
0000
0001
1000
,
2200
0300
3100
0000
,
1000
0000
0100
0010
0000
0001
0000
1000
,
0000
0001
0000
1000
0000
0100
0000
0000
,
0100
0010
0100
0000
0010
0100
0010
0000
,
0100
0000
1000
0100
,
0010
0001
1000
0001
,
1000
0010
0100
0001
,
0010
0000
0100
1000
,
0010
1000
0010
0000
0001
0100
0001
0000
,
1000
0100
0010
0001
,
1000
0000
0001
0100
,
0020
0000
1030
0100
,
1100
0000
0011
0101
,
0100
1000
0100
0010
,
0001
0000
0100
0000
0010
0000
1000
0001
,
1000
0100
0010
0001
,
1000
0010
0100
0010
,
0001
0010
0100
1000
,
0001
1000
0001
1000
,
0010
0100
1000
0100
,
0010
0001
0000
1000
0000
0001
1000
0001
,
0000
0000
1001
0000
0000
0001
0000
0001
,
0000
0000
1001
0000
0000
1000
0000
1000
,
0000
0000
0110
0000
0000
0100
0000
0100
,
0000
0000
0110
0000
0000
0010
0000
0010
,
0001
0000
1001
0000
0000
0001
0000
1000
,
0000
0000
0110
0000
0000
0010
0000
0001
,
0000
0000
1100
0000
0000
0010
0000
0100
,
0000
0000
0011
0000
0000
0010
0000
0100
,
1000
0100
0010
0001
,
1000
0001
0100
0010
,
0100
0001
0010
0001
,
1000
0100
1001
1001
,
1001
0000
0011
0011
,
0011
0000
1000
0001
,
0100
0010
1000
0001
,
0020
0001
0031
0000
,
0001
0010
0100
1000
,
0100
0010
0001
0010
,
0200
0300
0000
0000
,
0100
0000
0100
0000
,
1000
0100
0010
0001
,
0010
0100
1000
0100
,
0020
0030
0000
0000
,
0010
0000
0010
0000
,
1000
0001
1000
0010
,
0100
0010
0001
0100
,
0001
0010
0001
1000
,
0100
0000
0010
0000
0001
0000
1000
0001
,
1000
0010
0100
0010
,
1000
0100
0010
0001
,
1000
0010
0100
0001
,
0010
0000
0100
0000
1000
0001
1000
0001
,
0020
0000
0000
0000
,
0030
0000
0001
0001
,
1000
0001
0100
0010
,
1000
1000
0010
0100
,
0001
0100
0010
1000
,
0010
0000
0000
0100
,
1000
0010
0100
0001
,
0010
0001
1000
0100
,
1000
0010
0100
0001
,
1001
0000
0100
0100
,
0001
0010
0001
0100
,
0010
1000
0100
1000
,
0010
0100
0001
0010
,
0100
0000
1000
0100
,
0010
0001
1000
0001
,
0010
0100
0010
1000
,
0001
0100
1000
0100
,
0001
0000
1000
0000
0001
1000
0001
0100
,
0010
0000
0000
0000
;

//---------------dance-single - Copied from Copied f----------------
#NOTES:
     dance-single:
     Copied from Copied f:
     Hard:
     7:
     0.490,0.593,0.286,0.286,0.000:
0000
0000
0000
0000
,
0000
0000
0000
0000
,
0000
0000
0000
0000
,
0000
0000
0000
0000
,
1000
1100
0001
0101
,
1000
1100
0001
0101
,
1001
0010
1001
0100
,
0002
2003
3010
0110
,
2000
0000
3000
0000
,
1100
0010
0001
1000
,
0001
0000
0100
0000
0010
1000
0100
0000
,
0010
0001
1000
0001
,
0012
0100
0103
0000
,
0010
1000
0001
0000
0100
0000
0001
0000
,
0010
0001
1000
0000
0100
0000
0010
0000
,
2000
3100
0020
0031
,
0200
0000
0310
0000
0100
0000
0010
0100
,
1000
0000
0001
0000
1000
0000
0100
0001
,
0100
1000
0100
0000
0010
0000
0001
0000
,
1000
0000
0001
0000
0100
0010
1000
0000
,
0100
0000
1000
0000
0001
1000
0010
0000
,
0100
1000
0001
0100
,
0001
0000
0010
0000
0001
0100
1000
0000
,
0100
1000
0100
0010
,
1001
0000
1001
1001
,
0010
0001
0100
0000
0010
1000
0100
0000
,
1000
0100
0010
0001
,
1000
0010
0100
0000
0001
0010
0100
0000
,
0001
1000
0001
0100
,
0001
0000
0010
0001
0100
0000
0010
0000
,
2000
3002
0203
0302
,
0013
0001
0100
0010
,
1000
0100
0000
0110
0000
0010
0001
0100
,
0000
0000
1001
0000
0001
1000
0100
0010
,
0000
0000
0100
0000
0010
0001
1000
0100
,
0000
0000
1000
0000
0001
0010
0100
1000
,
0000
0000
0100
0000
1000
0010
1000
0000
,
0001
0000
0100
0000
0001
0010
0001
1000
,
0000
0000
0100
0000
1000
0010
1000
0100
,
0000
0000
1000
0000
0100
0010
0000
0001
,
0000
1000
0000
0001
0000
0100
0010
0000
,
1000
0000
0001
0000
0100
0010
1000
0001
,
0000
0000
0100
0000
0010
0001
1000
0100
,
0000
0000
0001
0000
0010
0001
1000
0001
,
0100
0000
0010
0000
0001
0100
1000
0100
,
0001
0000
1001
0000
1000
0100
0001
0100
,
1000
0000
1001
0000
0010
0100
0010
1000
,
0100
0010
0001
1000
,
0002
0103
0101
0000
,
1000
0100
0010
0001
,
1000
0100
0010
0001
,
1000
0100
0010
0002
,
1003
0000
0000
0000
,
0001
0010
0100
1000
,
0001
0010
0100
1000
,
0001
0010
0100
2000
,
3001
0000
0000
0000
,
1001
0011
0101
1000
,
1010
1100
1010
0001
,
0110
0011
0101
1000
,
0110
1100
0011
0100
,
0002
2003
3200
0320
,
0032
2003
3020
0230
,
0302
0023
0032
2003
,
3020
0230
0302
0023
,
0230
0000
0000
1000
,
1300
0000
1000
1000
,
0011
0000
1000
0100
0010
0000
0001
0000
,
1000
0001
0010
0100
,
1000
0001
2000
3002
,
0013
0000
0000
0000
0100
0000
0001
0010
,
0100
0000
1000
0000
0001
0000
1000
0010
,
0100
0001
1000
0001
,
0010
0001
0100
0010
,
1100
0000
1010
1000
,
0100
0000
0010
0001
0100
0000
0010
0000
,
1000
0000
0100
0000
1000
0010
1000
0100
,
0010
0001
1000
0001
,
0010
0000
0100
0100
,
0001
0000
1000
0000
0001
0010
0001
0000
,
0100
0010
1000
0100
,
0010
0001
1000
0000
0010
1000
0001
0000
,
1002
1003
0100
0010
,
1001
0000
0000
0000
;

//---------------dance-single - Copied from Copied f----------------
#NOTES:
     dance-single:
     Copied from Copied f:
     Challenge:
     9:
     0.610,0.628,0.395,0.092,0.008: // measure 1
0000
0000
0000
0000
,  // measure 2
0000
0000
0000
0000
,  // measure 3
0000
0000
0000
0000
,  // measure 4
1001
0000
0000
0000
,  // measure 5
1000
0001
0100
0001
0010
0001
1000
0100
,  // measure 6
0000
0000
1000
0000
0010
1000
0000
1000
0100
0000
0010
0000
0001
0000
0100
0000
,  // measure 7
0010
0000
0001
0000
,  // measure 8
1000
0001
1000
0000
1001
0100
1001
0000
,  // measure 9
0020
0000
0030
0000
,  // measure 10
1000
0001
1000
0000
0001
0010
0001
0000
,  // measure 11
0100
0001
0010
0100
1000
0000
0001
0000
,  // measure 12
1000
0100
0010
0001
,  // measure 13
2002
3003
0010
0000
,  // measure 14
0100
1000
0010
0000
0100
0001
0010
0000
,  // measure 15
0001
1000
0001
0100
0001
0000
0011
0000
,  // measure 16
0001
1000
0100
0000
1000
0001
0200
0000
,  // measure 17
0300
0000
0000
0000
0010
0001
1000
0100
,  // measure 18
1100
1100
0101
1100
,  // measure 19
0101
0101
0101
1100
,  // measure 20
0110
0110
1001
0110
,  // measure 21
1001
1001
0110
1001
,  // measure 22
0001
1000
0010
0100
0001
0000
1000
0000
,  // measure 23
1000
0010
0100
0001
1000
0000
0100
0000
,  // measure 24
1000
0010
0100
0001
0010
0000
0001
0000
,  // measure 25
2000
3001
0011
1001
,  // measure 26
0001
0100
0010
1000
0100
0010
0001
0000
,  // measure 27
1000
0001
0010
0001
0100
0010
1000
0000
,  // measure 28
0001
1000
0010
0100
0001
0010
1000
0000
,  // measure 29
0001
0010
1000
0010
0001
0100
0001
0000
,  // measure 30
0010
0001
1000
0100
1000
0010
0100
0010
,  // measure 31
0001
0010
0100
1000
0100
0010
0110
0000
,  // measure 32
1000
0001
1000
0001
0010
0001
1000
0010
,  // measure 33
1000
1100
0000
1001
0000
0011
1000
0002
,  // measure 34
0000
0003
1001
0000
1000
0001
0010
0001
,  // measure 35
0100
0010
1000
0100
1000
0010
0100
0001
,  // measure 36
1000
0000
0001
1000
0010
0100
0010
0001
,  // measure 37
1000
0010
1000
0100
1000
0010
0100
0000
,  // measure 38
0010
0001
1000
0010
0100
0001
0010
0001
,  // measure 39
0010
0100
1000
0100
1000
0001
0100
0000
,  // measure 40
0010
0001
1000
0010
0100
0001
0010
0001
,  // measure 41
0100
0010
0100
0010
,  // measure 42
1000
0100
1000
0000
0010
0001
0010
0000
,  // measure 43
0100
0001
0100
0000
0010
1000
0010
0000
,  // measure 44
0100
0001
0100
0000
1000
0100
1000
0000
,  // measure 45
0010
1000
0010
0000
0011
0000
0101
0000
,  // measure 46
1100
0000
1010
1100
,  // measure 47
0101
0000
0000
0000
0100
0010
0001
1000
,  // measure 48
0010
0100
0001
1000
0010
0000
0100
0000
,  // measure 49
0002
0013
0011
0000
,  // measure 50
1000
0100
0010
0001
1000
0100
0010
0001
,  // measure 51
1000
0100
0010
0001
1000
0100
0010
0001
,  // measure 52
1001
0000
0000
0000
,  // measure 53
0100
0100
0100
0100
,  // measure 54
0001
0010
0100
1000
0001
0010
0100
1000
,  // measure 55
0001
0010
0100
1000
0001
0010
0100
1000
,  // measure 56
0001
0000
0000
0000
,  // measure 57
0010
0010
0010
0010
,  // measure 58
1000
0100
0010
0001
1000
0100
0010
0001
,  // measure 59
1000
0100
0010
0001
1000
0100
0010
0001
,  // measure 60
1000
0010
0010
0010
,  // measure 61
0100
0100
0100
0100
,  // measure 62
0001
0010
0100
1000
0001
0010
0100
1000
,  // measure 63
0001
0010
0100
1000
0001
0010
0100
1000
,  // measure 64
0001
0010
0100
1000
0001
0010
0100
1000
,  // measure 65
0001
0010
0100
1000
0001
0010
0100
1000
,  // measure 66
2002
0000
0003
0100
,  // measure 67
3100
0000
0010
0010
,  // measure 68
0001
0000
0100
0001
0010
0000
0100
0000
,  // measure 69
1000
0010
1000
0100
0010
0001
0100
0000
,  // measure 70
0001
0000
1000
0001
1000
0000
0001
0010
,  // measure 71
0001
0000
0101
1010
,  // measure 72
1001
0000
1000
0100
0010
0000
0001
0000
,  // measure 73
1000
0001
0010
0000
0011
0000
0001
0000
,  // measure 74
1000
0010
0100
0001
0010
0000
0100
0000
,  // measure 75
1000
0001
1000
0001
0010
0000
0101
0000
,  // measure 76
1010
0000
0100
1000
0010
0000
0100
0000
,  // measure 77
1000
0100
0010
0001
1000
0000
0010
0000
,  // measure 78
0100
0001
0010
0000
0100
1000
0010
0000
,  // measure 79
0100
0010
0100
0000
1001
0000
0110
0000
,  // measure 80
1001
0000
1000
0100
0010
0001
0100
0000
,  // measure 81
0001
0010
0100
1000
0100
0000
0010
0000
,  // measure 82
0200
0001
0310
0000
0020
0100
1030
0000
,  // measure 83
1000
0001
0100
0010
0100
1000
0100
0010
,  // measure 84
1001
0000
0000
0000
;
