#TITLE:The Clear Blue Sky;
#SUBTITLE:;
#ARTIST:TSUKASA;
#TITLETRANSLIT:;
#SUBTITLETRANSLIT:;
#ARTISTTRANSLIT:;
#GENRE:;
#CREDIT:;
#MENUCOLOR:;
#NEWMETERSYSTEM:NO;
#BANNER:The Clear Blue Sky-bn.png;
#BACKGROUND:The Clear Blue Sky-bg.png;
#LYRICSPATH:;
#CDTITLE:MixMania III CD Title.png;
#MUSIC:The Clear Blue Sky.mp3;
#OFFSET:-1.660;
#SAMPLESTART:83.060;
#SAMPLELENGTH:12.000;
#SELECTABLE:YES;
#LISTSORT:;
#BPMS:0.000=178.000;
#STOPS:;
#BGCHANGES:;
#ATTACKS:;

//---------------dance-single - ----------------
#NOTES:
     dance-single:
     :
     Easy:
     3:
     0.260,0.333,0.103,0.114,0.000:
0000
0000
0000
0000
,
0000
0000
0000
0000
,
0000
0000
0000
0000
,
0000
0000
0000
0000
,
0100
0000
0000
0000
,
0000
0000
0000
0000
,
0100
0000
0000
0000
,
0100
0000
0000
0000
,
0110
0000
1000
0001
,
1000
0000
0001
0001
,
0100
0000
0100
1000
,
0010
0000
0100
0100
,
0010
0000
1000
0001
,
1000
0000
0001
0001
,
0010
0000
0010
0000
,
0010
0000
0010
0000
,
1001
0000
1000
0100
,
0001
0000
1000
0000
,
1100
0000
0010
0001
,
0100
0000
0001
0000
,
1001
0000
0010
0100
,
0100
0000
0001
0000
,
1001
0000
0100
0001
,
0010
0000
1000
0000
,
0011
0000
0100
0100
,
0001
0000
1000
0000
,
1010
0000
0001
0001
,
1000
0000
1000
0000
,
0110
0000
0001
1000
,
0100
0000
0001
0000
,
0011
0000
0100
1000
,
0010
0000
1000
0000
,
0100
0000
1000
0000
,
0010
0000
0100
0000
,
0001
0000
0010
0000
,
0001
0000
0100
0000
,
0010
0010
0010
0010
,
0010
0010
0010
0010
,
0100
0010
0100
0010
,
1000
0001
1000
0001
,
2002
0000
0000
3003
,
0010
0100
0001
0010
,
0100
1000
0010
0100
,
0001
0000
1000
0100
,
0001
0000
0001
0100
,
1000
0000
0010
0100
,
0001
0000
0010
0001
,
0100
0000
0010
1000
,
0100
0000
1000
0010
,
0200
0000
0001
0001
,
0302
0000
1000
1000
,
2003
0000
0100
0100
,
3200
0000
0010
0010
,
0320
0000
0001
0001
,
0032
0000
1000
1000
,
2003
0000
0010
0010
,
3020
0000
0100
0100
,
0130
0000
0100
0000
,
0100
0000
0010
0000
,
1000
0000
1000
0000
,
1000
0000
0001
0000
,
0010
0000
0010
0000
,
0010
0000
0001
0000
,
0100
0000
0100
0000
,
0200
0000
0300
0000
;

//---------------dance-single - Copied from----------------
#NOTES:
     dance-single:
     Copied from:
     Beginner:
     1:
     0.077,0.132,0.052,0.021,0.000:
0000
0000
0000
0000
,
0000
0000
0000
0000
,
0000
0000
0000
0000
,
0000
0000
0000
0000
,
0000
0000
0000
0000
,
0000
0000
0000
0000
,
0000
0000
0000
0000
,
0020
0000
0000
0000
,
0030
0000
0000
0000
,
0000
0000
0000
0000
,
0100
0000
0000
0000
,
0000
0000
0000
0000
,
0100
0000
0000
0000
,
0000
0000
0000
0000
,
0010
0000
0000
0000
,
0000
0000
0000
0000
,
1001
0000
0000
0000
,
0000
0000
0000
0000
,
1001
0000
0000
0000
,
0000
0000
0000
0000
,
1001
0000
0000
0000
,
0000
0000
0000
0000
,
1001
0000
0000
0000
,
0000
0000
0000
0000
,
0100
0000
0000
0000
,
0100
0000
0000
0000
,
0010
0000
0000
0000
,
0010
0000
0000
0000
,
1000
0000
0000
0000
,
1000
0000
0000
0000
,
0002
0000
0000
0000
,
0003
0000
0000
0000
,
0001
0000
0000
0000
,
0010
0000
0000
0000
,
0010
0000
0000
0000
,
0001
0000
0000
0000
,
0100
0000
0000
0000
,
0010
0000
0000
0000
,
1000
0000
1000
0000
,
1000
0000
0000
0000
,
0010
0000
0000
0000
,
0010
0000
0000
0000
,
0000
0000
0100
0000
,
0100
0000
0000
0000
,
0000
0000
0000
0000
,
0001
0000
0000
0000
,
0000
0000
1000
0000
,
1000
0000
0000
0000
,
0000
0000
0000
0000
,
0100
0000
0000
0000
,
0000
0000
0010
0000
,
0010
0000
0000
0000
,
0000
0000
0000
0000
,
0001
0000
0000
0000
,
0000
0000
1000
0000
,
1000
0000
0000
0000
,
0000
0000
0000
0000
,
0110
0000
0000
0000
,
0010
0000
0000
0000
,
0010
0000
0000
0000
,
0010
0000
0000
0000
,
1000
0000
0000
0000
,
0001
0000
0000
0000
,
0001
0000
0000
0000
,
0100
0000
0000
0000
;

//---------------dance-single - Copied from----------------
#NOTES:
     dance-single:
     Copied from:
     Medium:
     6:
     0.406,0.465,0.114,0.176,0.000:
0000
0000
0000
0000
,
0000
0000
0000
0000
,
0000
0000
0000
0000
,
0000
0000
0000
0000
,
0010
0000
0100
0010
0000
0000
0000
0000
,
0000
0000
0000
0000
,
0010
0000
1000
0100
0000
0100
0000
0100
,
0000
0000
0010
0010
,
0001
1000
0001
0100
0000
0000
0000
0000
,
0000
0000
0100
0100
,
0010
1000
0100
0010
0000
0000
0000
0000
,
0000
0000
0010
0010
,
0001
1000
0001
0010
0000
0000
0000
0000
,
0000
0000
0001
1000
,
0001
1000
0010
0100
0000
0000
0000
0000
,
0100
0000
0100
0000
,
0010
0000
1000
0000
0100
0000
0010
0001
,
0000
1000
0000
0002
0000
0000
0003
0000
,
0001
0000
0010
0000
0001
0000
0100
0010
,
0000
1000
0000
0200
0000
0000
0300
0000
,
1000
0000
0010
0000
0100
0000
0001
1000
,
0000
0100
0000
0020
0000
0000
0030
0000
,
0001
0000
1000
0000
0010
0000
0100
0001
,
0000
0010
0000
0100
0000
1000
0000
0000
,
0100
0000
1000
0010
0000
0000
0100
0000
,
0001
0010
0001
0100
,
0010
0000
0100
0010
0000
0000
1000
0000
,
0100
0010
0001
1000
,
0010
0000
0100
0001
0000
0000
0010
0000
,
0100
0000
1000
0000
0010
0100
0000
0000
,
1001
0000
0000
0110
0000
0000
1001
0000
,
0000
0000
0100
0000
1000
0010
0100
0001
,
0010
0001
1000
0010
,
0001
0100
1000
0001
,
0100
0010
1000
0001
,
0010
0001
1000
0001
,
0001
0101
1000
1100
,
0010
0001
0100
0001
,
1000
1100
0001
0101
,
1000
0010
0100
0001
0010
0001
1000
0000
,
0020
0000
0001
0031
,
0001
0000
0010
0100
1000
0000
0100
0010
,
0001
0000
1000
0001
0100
0000
0010
1000
,
0001
0000
0100
0000
0001
0000
0010
0100
,
1000
0100
0010
0000
0001
0000
0100
0000
,
0001
0000
0010
0100
1000
0000
0100
0010
,
0001
0000
1000
0010
0100
0000
0001
0100
,
0010
0000
0100
0002
0000
0023
0000
0230
,
0000
0300
0010
0000
1010
0000
0101
0000
,
1001
0000
0001
1000
0100
0000
1000
0001
,
0100
0000
0001
0100
1000
0000
1000
0100
,
0001
0000
1000
0000
0010
0000
0100
1000
,
0100
0010
0100
0000
0010
0000
0001
0000
,
1000
0100
1000
0000
0001
0010
0001
0000
,
0100
0001
0100
0000
1000
0100
1000
0000
,
0010
0100
0001
0010
0100
1000
0010
0000
,
0100
0001
0000
1000
0000
0100
1000
0000
,
1010
0000
1000
0000
0001
0010
0000
0002
,
0000
2003
0000
3200
0000
0300
0000
0000
,
0010
0000
0001
0000
1000
0100
0000
0020
,
0000
0032
0000
2003
0000
3000
0000
0000
,
0100
0000
0010
0000
0100
0001
0000
2000
,
0000
3200
0000
0302
0000
0003
0000
0000
,
0001
0000
1000
0000
0010
0100
0000
0200
,
0000
0300
0000
0000
;

//---------------dance-single - Copied from----------------
#NOTES:
     dance-single:
     Copied from:
     Hard:
     7:
     0.513,0.565,0.093,0.507,0.000:
0000
0000
0000
0000
,
0000
0000
0000
0000
,
0000
0000
0000
0000
,
0000
0000
0000
0000
,
0000
0000
0000
0000
,
0000
0000
0000
0000
,
0020
0000
0000
0000
,
0200
0000
0000
0330
,
0001
1000
0100
0010
0000
0001
0000
1000
,
0000
0001
0000
0100
0000
0010
0000
1000
,
0100
1000
0010
0100
0000
0001
0000
0010
,
0000
0100
0000
1000
0000
0010
0000
0100
,
0010
1000
0100
0010
0000
0001
0000
1000
,
0000
0001
0000
0100
0000
0001
0000
0010
,
0001
0100
0010
1000
0000
0001
0000
1000
,
0000
0100
0000
0010
0100
0010
0100
1000
,
0100
0000
0010
0000
0001
1000
0000
0002
,
0000
0203
0000
0320
0000
0000
1030
0000
,
0100
0000
0010
0000
0100
0001
0010
0002
,
0000
0203
0000
0320
0000
0000
0130
0000
,
0001
0000
0100
0000
0001
1000
0001
0200
,
0000
2300
0000
3200
0000
0000
0301
0000
,
0010
0000
0100
0010
0100
1000
0100
0010
,
0000
1001
0000
0101
0000
0001
0010
0100
,
2000
0000
3001
0200
0000
0310
1000
0100
,
0000
0010
0000
0001
1000
0001
0100
0010
,
2000
0000
3100
0020
0000
0031
0000
1000
,
0000
0001
0000
0010
0001
1000
0010
0100
,
0020
0000
1030
0200
0000
0310
0000
0001
,
0000
1000
0000
0001
0100
0010
0000
0000
,
2000
0000
3001
0002
0000
0103
0200
0000
,
0310
0000
0000
1000
0001
0100
0010
0000
,
0110
0000
1000
0000
0001
0100
0000
0010
,
0000
1000
0000
0100
0010
0001
1000
0000
,
0001
0000
0010
0000
0001
0100
0000
0010
,
0000
0100
0000
0001
0010
0100
1000
0000
,
1000
0100
1000
0100
1000
0100
1000
0000
,
0001
0100
0001
0100
0001
0100
0001
0000
,
0010
0100
0010
0100
0001
1000
0001
1000
,
0110
1100
0101
1001
,
0200
0000
0000
0010
0300
0001
1000
0100
,
0010
0000
0010
0001
1000
0001
0000
0200
,
0000
0320
0000
2030
0000
3100
0010
0001
,
1000
0000
0100
1000
0010
0100
0000
0020
,
0000
2030
0000
3020
0000
1030
0100
0010
,
0001
0000
1000
0000
0001
0100
0001
0020
,
0000
0230
0000
0302
0000
0013
0100
0010
,
0001
0000
0010
0000
1000
0010
0001
0200
,
0000
0302
0000
2003
0000
3100
0010
0100
,
1000
0000
0100
0000
0001
1000
0100
0020
,
0000
0230
0000
0320
0000
0130
0001
0100
,
0010
0000
1000
0000
0001
0100
0010
2000
,
0000
3200
0000
0302
0000
0013
0100
1000
,
0100
0000
0010
0000
0001
1000
0100
0020
,
0000
0032
0000
0203
0000
0310
1000
0001
,
0100
0000
0010
0000
0010
0100
0010
2000
,
0000
3200
0000
2300
0000
3001
0100
0001
,
1002
0000
0010
0000
0010
0000
0000
0100
,
0000
0100
0000
0100
0000
0000
0003
0000
,
2001
0000
0010
0000
0010
0000
0000
0001
,
0000
0001
0000
0001
0000
0000
3000
0000
,
0100
0000
0100
0000
0010
0100
0000
0001
,
0000
1000
0000
0100
0000
0000
0000
0000
,
0010
0000
0100
0000
0010
0100
1000
0002
,
2000
3003
0000
0000
;

//---------------dance-single - Copied from ----------------
#NOTES:
     dance-single:
     Copied from:
     Challenge:
     8:
     0.585,0.566,0.176,0.424,0.000: // measure 1
0000
0000
0000
0000
,  // measure 2
0000
0000
0000
0000
,  // measure 3
0000
0000
0000
0000
,  // measure 4
0000
0000
0000
0000
,  // measure 5
0020
0000
0000
0000
,  // measure 6
0000
0000
0000
0000
,  // measure 7
2000
0000
0000
0000
,  // measure 8
3030
0000
0000
0000
1000
0100
0010
0001
,  // measure 9
1000
0001
0100
0010
0000
0010
0100
0001
,  // measure 10
0000
0000
0000
0000
1000
0100
0010
0001
,  // measure 11
1000
0001
0100
0001
0000
0010
0001
0100
,  // measure 12
0000
0010
0100
0110
,  // measure 13
0010
1000
0100
0010
0000
0010
0001
0100
,  // measure 14
0000
0001
1000
0001
,  // measure 15
0010
0001
0100
0001
0000
1000
0100
1000
,  // measure 16
0000
0010
0000
0100
0010
1000
0100
0010
,  // measure 17
0001
0100
0001
0010
0100
1000
0000
0200
,  // measure 18
0000
0320
0000
0032
0000
1003
0001
0100
,  // measure 19
0001
0010
0100
1000
0100
0010
0000
2000
,  // measure 20
0000
3200
0000
0320
0000
0031
0100
0001
,  // measure 21
0010
0001
0100
0001
1000
0100
0000
0200
,  // measure 22
0000
0320
0000
2030
0000
3001
0010
0001
,  // measure 23
1000
0010
1000
0001
0100
0001
1000
0002
,  // measure 24
0000
0203
0000
2300
0000
3000
1000
0000
,  // measure 25
1001
0000
1000
0100
0000
0010
0000
0001
,  // measure 26
1000
0001
0000
0110
0000
0001
1000
0000
,  // measure 27
1100
0000
0100
0010
0000
0001
0000
0100
,  // measure 28
1000
0100
0000
0110
0000
0001
0010
0000
,  // measure 29
0110
0000
0001
0100
0000
0010
0000
1000
,  // measure 30
0001
0100
0000
0110
0000
0010
0001
0000
,  // measure 31
0011
0001
1000
0100
0000
0100
0110
0000
,  // measure 32
0100
0100
0001
1000
1000
0100
0010
0001
,  // measure 33
0100
0000
0010
1000
0100
0000
0010
0001
,  // measure 34
0100
0000
0001
1000
0001
0000
0100
0010
,  // measure 35
1000
0000
0100
0010
0001
0000
1000
0001
,  // measure 36
0100
0000
0001
0010
0001
0000
0100
0000
,  // measure 37
0010
0001
0010
0001
0010
0001
0010
0001
,  // measure 38
1000
0100
1000
0100
1000
0100
1000
0100
,  // measure 39
0001
0100
0001
0100
1000
0100
1000
0100
,  // measure 40
0010
0100
0010
0100
1000
0001
1000
0001
,  // measure 41
0020
0000
0000
0100
0030
0001
0100
0001
,  // measure 42
1001
0000
1000
0100
0010
0001
1000
0020
,  // measure 43
0000
0230
0000
0302
0000
0013
0001
1000
,  // measure 44
0010
0100
0001
0010
0100
0010
0001
2000
,  // measure 45
0000
3002
0000
0023
0000
0031
1000
0100
,  // measure 46
0010
0001
0010
0100
1000
0001
1000
0200
,  // measure 47
0000
0320
0000
2030
0000
3100
0010
0100
,  // measure 48
0001
1000
0100
1000
0010
0100
0010
0110
,  // measure 49
0000
1001
0000
1010
0000
0001
0010
0100
,  // measure 50
1000
0100
0010
0100
0010
0001
1000
0020
,  // measure 51
0000
0230
0000
0302
0000
1003
0100
1000
,  // measure 52
0010
0100
0001
0010
0100
0010
0001
2000
,  // measure 53
0000
3002
0000
0023
0000
0031
0100
0010
,  // measure 54
0100
0001
0010
1000
0010
0001
0100
0020
,  // measure 55
0000
2030
0000
3200
0000
0310
0001
1000
,  // measure 56
0100
0010
0100
1000
0001
0010
0100
2000
,  // measure 57
0000
3002
0000
2003
0000
3001
0010
0100
,  // measure 58
0110
0000
1000
0000
0001
0100
0001
1000
,  // measure 59
0000
0100
0000
2000
0000
0000
3001
0000
,  // measure 60
1001
0000
0010
0000
0100
0010
1000
0100
,  // measure 61
0000
0010
0000
0200
0000
0000
0310
0000
,  // measure 62
0011
0000
0001
0000
0100
0010
1000
0001
,  // measure 63
0000
0010
0000
0002
0000
0000
1003
0000
,  // measure 64
0110
0000
0010
0000
0001
0100
1000
0200
,  // measure 65
0020
0000
0000
0330
0000
0000
0000
0000
;
