#TITLE:Swimming Pool;
#SUBTITLE:;
#ARTIST:Freezepop;
#TITLETRANSLIT:;
#SUBTITLETRANSLIT:;
#ARTISTTRANSLIT:;
#GENRE:;
#CREDIT:;
#MENUCOLOR:;
#NEWMETERSYSTEM:NO;
#BANNER:Swimming Pool-bn.png;
#BACKGROUND:Swimming Pool-bg.png;
#LYRICSPATH:;
#CDTITLE:MixMania III CD Title.png;
#MUSIC:Swimming Pool.mp3;
#OFFSET:-0.020;
#SAMPLESTART:61.280;
#SAMPLELENGTH:13.980;
#SELECTABLE:YES;
#LISTSORT:;
#BPMS:0.000=94.000;
#STOPS:;
#BGCHANGES:;
#ATTACKS:;

//---------------dance-single - ----------------
#NOTES:
     dance-single:
     :
     Easy:
     1:
     0.087,0.135,0.000,0.125,0.000:
0000
0000
0000
0000
,
0000
0000
0000
0000
,
0000
0000
0000
0000
,
0000
0000
0000
0000
,
0100
0000
0000
0000
,
0100
0000
0000
0000
,
0100
0000
0000
0000
,
0100
0000
0000
0000
,
2000
3000
0000
0000
,
0002
0003
0000
0000
,
2000
3000
0000
0000
,
0000
0000
0000
0001
,
0002
0003
0000
1000
,
2000
3000
0000
0010
,
0200
0300
0000
0000
,
0000
0000
0000
0000
,
0200
0300
0000
0000
,
0020
0030
0000
1000
,
2000
3000
0000
0000
,
0000
0000
0000
0001
,
0002
0003
0000
0010
,
0020
0030
0000
0100
,
2000
3000
0000
0000
,
0200
0000
0300
0000
,
0000
0000
0010
0000
,
0010
0000
1000
0000
,
1000
0000
0001
0000
,
0001
0000
0100
0000
,
0100
0000
0010
0000
,
0010
0000
1000
0000
,
1000
0000
0001
0000
,
0001
0000
0100
0000
,
0100
0000
0100
0000
,
0100
0000
0010
0000
,
0010
0000
1000
0000
,
1000
0000
0001
0000
,
0001
0000
0100
0000
,
0100
0000
0010
0000
,
0010
0000
1000
0000
,
1000
0000
0001
0000
,
0002
0000
0000
0000
,
0000
0000
0003
0000
,
2000
0000
0000
0000
,
0000
0000
3000
0000
,
0010
0000
0000
0000
,
0010
0000
0000
0000
,
0100
0000
0000
0000
,
0100
0000
0000
0000
,
0020
0000
0000
0000
,
0000
0000
0030
0000
;

//---------------dance-single - Copied from----------------
#NOTES:
     dance-single:
     Copied from:
     Beginner:
     1:
     0.062,0.077,0.000,0.140,0.000:
0000
0000
0000
0000
,
0000
0000
0000
0000
,
0000
0000
0000
0000
,
0000
0000
0000
0000
,
0001
0000
0000
0000
,
0000
0000
0000
0000
,
1000
0000
0000
0000
,
0001
0000
0000
0000
,
0010
0000
0000
0000
,
0010
0000
0000
0000
,
0010
0000
0000
0000
,
0000
0000
0000
0000
,
0100
0000
0000
0000
,
0100
0000
0000
0010
,
0010
0000
0000
0000
,
0000
0000
0000
0000
,
1000
0000
0000
0000
,
1000
0000
0000
0000
,
1000
0000
0000
0000
,
0000
0000
0000
0000
,
0001
0000
0000
0000
,
0001
0000
0000
0001
,
0001
0000
0000
0000
,
0010
0000
0000
0000
,
0000
0000
0020
0000
,
0030
0000
0200
0000
,
0300
0000
0002
0000
,
0003
0000
2000
0000
,
3000
0000
0020
0000
,
0030
0000
0200
0000
,
0300
0000
0002
0000
,
0003
0000
2000
0000
,
3000
0000
0200
0000
,
0300
0000
0020
0000
,
0030
0000
0002
0000
,
0003
0000
2000
0000
,
3000
0000
0200
0000
,
0300
0000
0020
0000
,
0030
0000
0002
0000
,
0003
0000
2000
0000
,
0000
0000
0000
0000
,
0000
0000
3000
0000
,
0002
0000
0000
0000
,
0000
0000
0003
0000
,
0010
0000
0000
0000
,
0000
0000
0000
0000
,
0100
0000
0000
0000
,
0000
0000
0000
0000
,
0200
0000
0000
0000
,
0000
0000
0300
0000
;

//---------------dance-single - Copied from----------------
#NOTES:
     dance-single:
     Copied from:
     Medium:
     4:
     0.245,0.270,0.203,0.094,0.031:
0000
0000
0000
0000
,
0000
0000
0000
0000
,
0000
0000
0000
0000
,
0000
0000
0010
0010
,
1000
0000
1000
0001
,
0100
0000
1000
0100
,
0010
0000
0100
0010
,
0001
0000
0000
0000
1000
0000
0010
0010
,
0110
0100
0100
0100
,
0110
0010
0010
0010
,
1010
1000
1000
1000
,
0001
0000
0001
0000
0001
0000
0100
0001
,
0011
0000
0001
0000
0001
0000
0010
0001
,
0101
0000
0001
0000
0001
0000
0100
0010
,
0110
0010
0010
0010
,
1000
1000
1000
1000
,
1001
0001
0001
0001
,
1001
1000
1000
1000
,
1100
0100
0100
0100
,
0010
0000
0010
0000
0010
0000
0001
0001
,
0011
0000
0010
0000
0010
0000
0100
0100
,
1100
0000
1000
0000
1000
0000
0010
0010
,
0110
0100
0100
0100
,
0010
0010
0010
0010
,
0001
0000
0200
0000
0310
0000
0010
0010
,
1000
0000
0200
0000
1300
0000
1000
1000
,
0010
0000
0200
0000
0310
0000
0010
0010
,
1000
0000
0002
0000
0103
0000
0001
0001
,
0010
0000
0001
0000
0200
0000
1300
1000
,
0010
0000
1000
0000
0200
0000
0301
0001
,
0010
0000
0100
0000
0020
0000
0031
0001
,
0100
0000
0010
0000
2000
0000
3100
0010
,
0110
0000
0000
0000
0100
0000
0000
0000
1000
0000
0000
1000
0000
0000
0000
0000
,
1001
0000
0000
0000
0010
0000
0000
0000
0001
0000
0000
0001
0000
0000
0000
0000
,
0110
0000
0000
0000
0010
0000
0000
0000
1000
0000
0000
1000
0000
0000
0000
0000
,
0101
0000
0000
0000
0010
0000
0000
0000
0100
0000
0000
0100
0000
0000
0000
0000
,
1010
0000
0000
0000
1000
0000
0000
0000
0001
0000
0000
0001
0000
0000
0000
0000
,
1100
0000
0000
0000
0010
0000
0000
0000
0100
0000
0000
0100
0000
0000
0000
0000
,
0011
0000
0000
0000
0010
0000
0000
0000
0001
0000
0000
0001
0000
0000
0000
0000
,
0110
0000
0000
0000
0010
0000
0000
0000
1000
0000
0000
0001
0000
0000
1000
0000
,
0020
0100
0000
1000
,
0000
0100
0030
0110
,
1002
1000
0000
0100
,
0000
1000
0003
0101
,
2010
0001
0000
0100
,
0000
0010
3000
1010
,
0110
0100
0100
0100
,
0100
0100
0100
0100
,
0002
0000
0000
0000
,
0000
0000
0003
0000
;

//---------------dance-single - Copied from Copied f----------------
#NOTES:
     dance-single:
     Copied from Copied f:
     Hard:
     6:
     0.327,0.347,0.171,0.148,0.218:
0000
0000
0000
0000
,
0000
0000
0000
0000
,
0000
0000
0000
0000
,
0000
0000
0000
0000
,
1000
0100
0000
0000
1000
0010
0000
0000
1000
0100
0000
0000
1000
0010
0000
0000
,
0001
1000
0000
0000
0001
0010
0000
0000
0001
0100
0000
0000
0001
0010
0000
0000
,
0100
0010
0000
0000
0100
0001
0000
0000
0100
0010
0000
0000
0100
0001
0000
0000
,
0010
1000
0000
0000
0010
0100
0000
0000
0010
1000
0000
0000
0010
0100
0000
0000
,
1100
1000
0001
0100
,
0011
1000
0001
1000
,
0110
1000
1000
1000
,
0001
0000
0001
0000
0001
1000
0001
0010
,
0020
0000
0100
0000
0130
0001
0100
1000
,
0002
0000
0000
0000
0100
0000
0000
0000
0100
0003
0010
0000
1000
0000
0001
0000
,
1001
0000
0000
0000
1000
0100
0000
0000
1000
0001
0000
0000
1000
0100
0000
0000
,
0100
0010
0000
0000
0100
1000
0000
0000
0100
0010
0000
0000
0100
1000
0000
0000
,
1001
0000
0100
0000
0001
0001
0010
0000
,
0011
0000
1000
0000
0001
0001
1000
0100
,
1000
0010
0100
0000
0100
0000
0100
0000
,
1000
0000
0000
0000
1000
0000
0000
0000
1000
0000
0010
0000
0100
0000
0010
2000
,
0000
0000
0100
0000
3100
0010
0010
0001
,
0200
0000
0010
0000
0001
0301
0010
0100
,
1001
0000
0000
0000
0001
0010
0000
0000
0001
0100
0000
0000
0001
0010
0000
0000
,
0010
0100
0000
0000
0010
0001
0000
0000
0010
0100
0000
0000
0010
0001
0000
0000
,
1001
0000
0000
0000
0100
0000
0000
0000
0010
0000
0000
1000
0000
0000
1000
0000
,
0100
0000
0000
0000
1001
0000
0000
0000
0010
0000
0000
0001
0000
0000
0001
0000
,
0100
0000
0000
0000
0110
0000
0000
0000
1000
0000
0000
1000
0000
0000
0001
0000
,
1000
0000
0000
0000
0110
0000
0000
0000
0001
0000
0000
0001
0000
0000
1000
0000
,
0001
0000
0000
0000
1001
0000
0000
0000
1000
0000
0000
0100
0000
0000
0010
0000
,
0001
0000
0000
0000
1001
0000
0000
0000
0001
0000
0000
0010
0000
0000
0100
0000
,
1000
0000
0000
0000
0011
0000
0000
0000
0010
0000
0000
0100
0000
0000
0010
0000
,
0100
0000
0000
0000
1100
0000
0000
0000
0100
0000
0000
0010
0000
0000
0100
0000
,
1001
0000
0000
0000
0100
0000
0000
0000
1000
0000
0000
0100
0000
0000
1000
0000
,
0020
0000
0000
0000
0230
0000
0000
0000
0301
0000
0000
0100
0000
0000
0010
0000
,
0200
0000
0000
0000
0302
0000
0000
0000
1003
0000
0000
0100
0000
0000
0010
0000
,
0200
0000
0000
0000
0320
0000
0000
0000
1030
0000
0000
0001
0000
0000
0100
0000
,
0020
0000
0000
0000
2030
0000
0000
0000
3100
0000
0000
0010
0000
0000
0001
0000
,
2000
0000
0000
0000
3002
0000
0000
0000
0013
0000
0000
0001
0000
0000
0100
0000
,
0020
0000
0000
0000
0230
0000
0000
0000
0310
0000
0000
1000
0000
0000
0001
0000
,
2000
0000
0000
0000
3020
0000
1000
0000
0130
0000
0000
1000
0000
0000
0001
0000
,
0110
0000
0000
0000
0001
0010
0000
0000
0001
0000
0000
0000
1000
0100
0000
0000
,
1000
0000
0000
0000
0010
0100
0000
0000
0010
0000
0000
0000
0110
0000
0000
0000
,
0110
0000
0000
0000
0010
1000
0000
0000
0100
0000
0000
0000
0010
0001
0000
0000
,
0010
0000
0000
0000
0001
1000
0000
0000
1000
0000
0000
0000
0011
0000
0000
0000
,
1100
0000
0000
0000
0100
0010
0000
0000
1000
0000
0000
0000
0001
1000
0000
0000
,
0100
0000
0000
0000
0010
0001
0000
0000
0100
0000
0000
0000
1001
0000
0000
0000
,
0010
0100
0010
0100
,
0001
1000
0001
1000
,
0100
0010
0100
0010
,
0200
0000
0300
0000
;

//---------------dance-single - Copied from Copied f----------------
#NOTES:
     dance-single:
     Copied from Copied f:
     Challenge:
     8:
     0.377,0.502,0.320,0.047,0.187: // measure 1
0000
0000
0000
0000
,  // measure 2
0000
0000
0000
0000
,  // measure 3
0000
0000
0000
0000
,  // measure 4
0000
0000
0000
0000
,  // measure 5
1000
0100
1000
0000
1000
0100
1000
0000
1000
0100
1000
0000
1000
0100
1000
0000
,  // measure 6
1000
0010
1000
0000
1000
0010
1000
0000
1000
0010
1000
0000
1000
0010
1000
0000
,  // measure 7
0001
0100
0001
0000
0001
0100
0001
0000
0001
0100
0001
0000
0001
0100
0001
0000
,  // measure 8
0001
0010
0001
0000
0001
0010
0001
0000
0001
0010
0001
0000
0001
0010
0001
0000
,  // measure 9
1001
0001
1000
0001
,  // measure 10
1001
1000
0001
1000
,  // measure 11
0110
0110
0010
0001
,  // measure 12
1000
0100
0010
0000
0001
0010
0100
0000
1000
0100
0010
0100
0000
0000
1000
0000
,  // measure 13
0120
0000
0000
0000
0130
0000
0000
0000
0010
0000
1000
0000
0001
0100
0000
0000
,  // measure 14
2001
0000
0000
0000
3010
0000
0000
0000
0001
0000
1000
0000
0100
1000
0000
0000
,  // measure 15
1020
0000
1030
0000
0100
0000
0010
0001
,  // measure 16
1000
0100
1000
0000
0001
0010
0001
0000
1000
0100
1000
0000
0001
0010
0001
0000
,  // measure 17
1001
0000
0001
0100
0010
0000
1000
0000
,  // measure 18
1001
0000
1000
0100
0010
0000
0100
0010
,  // measure 19
0100
1000
0100
0000
1000
0000
0100
0000
,  // measure 20
0010
0000
0001
0000
1000
0000
0100
0000
0010
0000
0100
0000
1000
0000
0001
0100
,  // measure 21
0000
0000
0110
0000
1010
1000
0100
0010
,  // measure 22
0001
0000
0000
0000
1100
0000
0000
0000
0011
0000
1000
0100
0000
0000
0010
0000
,  // measure 23
0100
0010
0001
1000
,  // measure 24
0010
0100
0010
0000
0001
1000
0001
0000
0010
0100
0010
0000
0001
1000
0001
0000
,  // measure 25
0001
0000
0000
0000
0100
0000
0000
0000
0010
0000
0000
1000
0000
0000
0010
0000
,  // measure 26
0110
0000
0000
0000
0001
0000
0000
0000
1000
0000
0000
0001
0000
0000
0010
0000
,  // measure 27
0101
0000
0000
0000
0010
0000
0000
0000
1000
0000
0000
0010
0000
0000
0100
0000
,  // measure 28
1100
0000
0000
0000
0010
0000
0000
0000
1000
0000
0000
0100
0000
0000
0010
0000
,  // measure 29
0011
0000
0000
0000
0100
0000
0000
0000
0001
0000
0000
0010
0000
0000
1000
0000
,  // measure 30
0011
0000
0000
0000
1000
0000
0000
0000
0001
0000
0000
0010
0000
0000
0100
0000
,  // measure 31
1100
0000
0000
0000
0010
0000
0000
0000
1000
0000
0000
0001
0000
0000
0100
0000
,  // measure 32
0110
0000
0000
0000
1000
0000
0000
0000
0001
0000
0000
0010
0000
0000
0001
0000
,  // measure 33
1010
0000
0000
0000
0101
0000
0000
0000
1000
0000
0000
0100
0000
0000
0010
0000
,  // measure 34
1001
0000
0000
0000
1001
0000
0000
0000
0010
0000
0000
0001
0000
0000
1000
0000
,  // measure 35
1100
0000
0000
0000
1010
0000
0000
0000
0001
0000
0000
1000
0000
0000
0010
0000
,  // measure 36
0011
0000
0000
0000
1100
0000
0000
0000
1000
0000
0000
0100
0000
0000
1000
0000
,  // measure 37
1010
0000
0000
0000
0011
0000
0000
0000
0100
0000
0000
0010
0000
0000
0001
0000
,  // measure 38
1001
0000
0000
0000
0011
0000
0000
0000
0010
0000
0000
0100
0000
0000
0001
0000
,  // measure 39
1100
0000
0000
0000
0011
0000
0000
0000
0100
0000
0000
0010
0000
0000
1000
0000
,  // measure 40
1100
0000
0000
0000
0010
0000
0100
0000
0002
0000
0000
0023
0000
0000
0031
0000
,  // measure 41
0101
0000
0100
0000
0001
1000
0001
0000
,  // measure 42
1000
0000
0100
0000
1000
0010
1001
0000
,  // measure 43
0110
0100
0010
0000
1000
0100
1000
0000
,  // measure 44
0001
0010
0001
0000
0100
0001
0101
0000
,  // measure 45
1010
1000
0100
0000
0010
1000
0100
0000
,  // measure 46
0010
0001
0100
0000
0010
0001
1001
0000
,  // measure 47
0010
0100
0010
0100
0010
0100
0010
0100
,  // measure 48
0010
0100
0010
0100
0010
0100
0010
0100
,  // measure 49
0010
0100
0010
0100
0010
0100
0010
0100
,  // measure 50
0020
0000
0030
0000
;
