#TITLE:Smile of Split;
#SUBTITLE:;
#ARTIST:Nekomata Master;
#TITLETRANSLIT:;
#SUBTITLETRANSLIT:;
#ARTISTTRANSLIT:;
#GENRE:;
#CREDIT:;
#MENUCOLOR:;
#NEWMETERSYSTEM:NO;
#BANNER:Smile of Split-bn.png;
#BACKGROUND:Smile of Split-bg.png;
#LYRICSPATH:;
#CDTITLE:MixMania III CD Title.png;
#MUSIC:Smile of Split.mp3;
#OFFSET:0.000;
#SAMPLESTART:70.460;
#SAMPLELENGTH:12.000;
#SELECTABLE:YES;
#LISTSORT:;
#BPMS:0.000=126.000;
#STOPS:;
#BGCHANGES:;
#ATTACKS:;

//---------------dance-single - ----------------
#NOTES:
     dance-single:
     :
     Easy:
     3:
     0.215,0.324,0.128,0.105,0.008:
0000
0000
0000
0000
,
0000
0000
0000
0000
,
0000
0000
0000
0000
,
0000
0000
0000
0000
,
1000
0000
1000
0000
,
1000
0000
1000
0010
,
0001
0000
0001
0000
,
0001
0000
0001
0100
,
2000
0000
0100
0000
,
0100
0000
0010
0010
,
3002
0000
0100
0000
,
0100
0103
0101
0000
,
1000
0100
0001
0100
,
1000
0100
0001
0100
,
1000
0010
0001
0010
,
1000
0010
0001
0010
,
2000
3100
0002
0013
,
2000
3100
0002
0013
,
1000
0100
0010
0001
,
1000
0100
0010
0001
,
0011
0000
0101
0000
,
1010
0000
1100
0000
,
0001
1000
0010
0000
,
0001
0010
0001
0000
,
1100
0000
1010
0000
,
0101
0000
0011
0000
,
1000
0100
1000
0000
,
0001
0010
0001
0000
,
0200
0000
0000
0010
,
0320
0000
0100
0000
,
0230
0000
0000
0010
,
0320
0000
1000
0000
,
2030
0000
0000
0000
,
0000
0000
0000
0000
,
3002
0000
0000
0000
,
0000
0000
0000
0000
,
0003
0000
0000
0000
,
1001
0000
0001
1000
,
0001
0000
1000
0100
,
1000
0000
0000
0010
,
0010
0000
0100
0010
,
0100
0000
0001
0010
,
0001
0000
1000
0100
,
1000
0000
0000
0100
,
0100
0000
0010
0100
,
0010
1000
0001
0100
,
0010
1000
0100
0011
,
0011
1000
0001
0100
,
0010
1000
0001
1010
,
1100
1000
0001
0100
,
0010
1000
0001
1001
,
1001
0001
0010
0100
,
1000
0001
1000
0001
,
1001
0001
0000
1000
,
0000
0001
0000
1000
,
0100
1000
0000
0010
,
0000
0100
0000
0001
,
0010
0001
0000
0100
,
0000
0010
0000
1000
,
0100
1000
0000
0100
,
0200
0000
0000
0300
,
0000
0000
0010
0001
,
2000
0000
0000
3000
,
0000
0000
0001
1000
,
0010
0000
0000
0010
0000
0000
0010
0000
0000
0000
0000
0000
0000
0000
0000
0000
,
1000
0000
0001
0010
,
0100
0000
0000
0100
0000
0000
0100
0000
0000
0000
0000
0000
0000
0000
0000
0000
;

//---------------dance-single - Copied from----------------
#NOTES:
     dance-single:
     Copied from:
     Beginner:
     1:
     0.092,0.125,0.030,0.038,0.000:
0000
0000
0000
0000
,
0000
0000
0000
0000
,
0000
0000
0000
0000
,
0000
0000
0000
0000
,
0000
0010
0000
0010
,
0000
0010
0000
0010
,
0000
0100
0000
0100
,
0000
0100
0000
0100
,
0000
0000
0000
0000
,
0000
0000
0001
0001
,
0001
0000
0000
0000
,
0000
0000
1000
0000
,
1001
0000
0000
0000
,
1000
0000
0000
0000
,
0001
0000
0000
0000
,
0100
0000
0010
0000
,
0010
0000
0000
0000
,
1000
0000
0000
0000
,
0001
0000
0000
0000
,
0010
0000
0010
0000
,
0100
0000
0000
0000
,
0010
0000
0000
0000
,
0001
0000
0000
0000
,
1000
0000
0000
0000
,
0010
0000
0000
0000
,
1000
0000
0000
0000
,
0100
0000
0000
0000
,
0010
0000
0000
0000
,
0001
0000
0000
0000
,
0000
0000
0000
0000
,
1000
0000
0000
0000
,
0000
0000
0000
0000
,
0200
0000
0000
0000
,
0000
0000
0000
0000
,
0300
0000
0000
0000
,
0000
0000
0000
0010
,
0000
0000
0000
0000
,
1001
0000
0000
0000
,
0010
0000
0010
0000
,
0010
0000
0000
0000
,
0100
0000
0100
0000
,
0100
0000
0000
0000
,
0001
0000
0001
0000
,
0001
0000
0000
0000
,
1000
0000
0000
0000
,
0110
0000
0000
0000
,
1000
0000
0000
0001
,
0001
0000
0000
0000
,
0100
0000
0000
0010
,
0010
0000
0000
0000
,
1000
0000
0000
0100
,
0100
0000
0000
0000
,
0010
0000
0000
0000
,
1001
0000
0000
0001
,
0000
0001
0000
0001
,
0000
1000
0000
1000
,
0000
1000
0000
1000
,
0000
0010
0000
0010
,
0000
0010
0000
0010
,
0000
0100
0000
0100
,
0200
0000
0300
0000
,
0000
0000
0001
0000
,
0002
0000
0003
0000
,
0000
0000
1000
0000
,
0200
0000
0300
0000
,
0000
0000
0010
0000
,
2000
0000
0000
3000
0000
0000
0000
0000
;

//---------------dance-single - Copied from----------------
#NOTES:
     dance-single:
     Copied from:
     Medium:
     5:
     0.277,0.324,0.098,0.090,0.150:
0000
0000
0000
0000
,
0000
0000
0000
0000
,
0000
0000
0000
0000
,
0000
0000
0000
0000
,
1000
0000
0000
0000
0000
0000
0000
0100
0000
0000
0000
0000
0000
0000
0000
0010
,
0000
0000
0000
0000
0000
0000
0000
0001
0000
0000
0000
0000
0100
0000
0000
0000
,
0001
0000
0000
0000
0000
0000
0000
0010
0000
0000
0000
0000
0000
0000
0000
0100
,
0000
0000
0000
0000
0000
0000
0000
1000
0000
0000
0000
0000
0100
0000
0000
0000
,
0110
0000
0000
0000
,
0100
0000
0000
0000
0000
0000
0000
1000
0000
0000
0000
0000
0001
0000
0000
0000
,
0100
0000
0000
0000
,
0020
0000
1000
0130
,
0110
0000
1000
0000
0100
0000
0001
1000
,
0001
0010
0001
0100
,
0010
0000
1000
0000
0100
0000
0010
0001
,
1000
0000
0001
1000
,
0010
0000
0100
0000
0010
0000
1000
0100
,
0010
0100
0010
0001
,
1000
0000
0001
0000
0100
0000
0010
1000
,
0010
0100
0001
1000
,
0001
0000
0000
0000
0000
0000
0000
1000
0000
0000
0000
0000
0000
0000
0000
0001
,
0000
0000
1000
0100
,
0010
0000
0000
0000
0000
0000
0000
0100
0000
0000
0000
0000
0000
0000
0000
0010
,
0000
0000
0100
0010
,
0001
0000
0000
0000
0000
0000
0000
1000
0000
0000
0000
0000
0000
0000
0000
0010
,
0000
0000
0100
0010
,
0100
0000
0000
0000
0000
0000
0000
0010
0000
0000
0000
0000
0000
0000
0000
1000
,
0000
0000
0100
0010
,
1002
0000
0000
0000
0000
0000
0000
2003
0000
0000
0000
0000
0000
0000
0000
3020
,
0000
0000
0000
0000
0000
0000
0000
0230
0000
0000
0000
0000
0301
0000
0000
0000
,
2001
0000
0000
0000
0000
0000
0000
3020
0000
0000
0000
0000
0000
0000
0000
0230
,
0000
0000
0000
0000
0000
0000
0000
0302
0000
0000
0000
0000
0013
0000
0000
0000
,
0100
0000
0100
0000
,
0100
0000
0100
0000
,
0010
0000
0010
0000
,
0010
0000
0010
0000
,
0000
0000
0000
0000
,
1001
0000
1000
0000
0001
0100
1000
0000
,
0001
0000
1000
0000
1000
0010
0001
0000
,
0100
0000
0010
0000
0010
0100
1000
0000
,
0010
0000
0100
0000
0100
0010
0001
0000
,
1000
0100
0010
0001
,
1000
0100
0010
0001
,
1000
0000
0001
0000
0100
0000
0010
1000
,
0100
0000
0010
0000
0001
0000
1000
0010
,
0110
0000
0000
0000
0001
0000
0000
1000
0000
0000
0010
0000
0100
0000
0000
0010
,
0000
0000
1000
0000
0010
0000
0000
0100
0000
0000
0001
0000
0210
0000
0000
0000
,
0301
0000
0000
0000
1000
0000
0000
0010
0000
0000
0100
0000
0001
0000
0000
1000
,
0000
0000
0010
0000
1000
0000
0000
0001
0000
0000
0100
0000
0120
0000
0000
0000
,
1030
0000
0000
0000
0010
0000
0000
0100
0000
0000
0001
0000
0010
0000
0000
0100
,
0000
0000
1000
0000
0010
0000
0000
0100
0000
0000
0001
0000
1002
0000
0000
0000
,
0103
0000
0000
0000
0100
0000
0000
1000
0000
0000
0010
0000
0100
0000
0000
0001
,
0000
0000
0010
0000
0100
0000
0000
0000
1000
0000
0000
0001
0000
0000
0100
0000
,
0110
0000
1000
0100
1000
0000
0010
0100
,
0010
0000
0001
0100
0001
0000
0011
0000
,
1000
0000
0001
0100
0010
0000
1000
0100
,
0010
0000
0100
0010
0100
0000
1001
0000
,
0100
0000
0010
0001
1000
0000
0010
0100
,
0001
0000
1000
0100
1000
0000
0011
0000
,
1000
0000
0100
1000
0010
0000
0100
0001
,
0010
0000
0000
1000
0000
0000
0010
0000
0000
0000
0000
0000
0000
0000
0000
0000
,
0010
0000
0000
0000
0000
0000
0000
0001
0000
0000
0000
0000
1000
0000
0000
0000
,
0001
0000
0000
0010
0000
0000
0100
0000
0000
0000
0000
0000
0000
0000
0000
0000
,
1000
0000
0000
0000
0000
0000
0000
0010
0000
0000
0000
0000
1000
0000
0000
0000
,
0100
0000
0000
0100
0000
0000
0010
0000
0000
0000
0000
0000
0000
0000
0000
0000
,
0100
0000
0000
0000
0000
0000
0000
0001
0000
0000
0000
0000
1000
0000
0000
0000
,
1000
0000
0000
0001
0000
0000
1000
0000
0000
0000
0000
0000
0000
0000
0000
0000
;

//---------------dance-single - Copied from----------------
#NOTES:
     dance-single:
     Copied from:
     Hard:
     6:
     0.333,0.349,0.143,0.030,0.398:
0000
0000
0000
0000
,
0000
0000
0000
0000
,
0000
0000
0000
0000
,
0000
0000
0000
0000
,
1000
0000
0000
0000
0001
0000
0000
0100
0000
0000
0010
0000
1000
0000
0000
0100
,
0000
0000
0010
0000
0001
0000
0000
1000
0000
0000
0000
0000
1001
0000
0000
0000
,
0010
0000
0000
0000
0100
0000
0000
0001
0000
0000
0010
0000
0100
0000
0000
1000
,
0000
0000
0010
0000
0100
0000
0000
0001
0000
0000
0010
0000
0100
0000
0000
0000
,
1002
0000
0100
0000
,
0100
0000
0000
0000
0003
0000
0000
0101
0000
0000
0000
0000
1100
0000
0000
0000
,
2001
0000
0000
0000
,
0000
0000
0000
0000
3000
0000
0000
0011
0000
0000
0000
0000
1100
0000
0000
0000
,
1010
0000
0000
0000
0001
0000
0000
1000
0000
0000
0001
0000
0100
0000
0000
0010
,
0000
0000
0000
0000
1000
0000
0000
0100
0000
0000
0010
0000
0001
0000
0000
0000
,
1000
0000
0000
0000
0010
0000
0000
0010
0000
0000
0100
0000
0001
0000
0000
0010
,
0000
0000
0000
0000
0100
0000
0000
1000
0000
0000
0001
0000
1000
0000
0000
0000
,
0100
0000
0000
0000
1000
0000
0000
0010
0000
0000
0100
0000
0001
0000
0000
0100
,
0000
0000
0000
0000
0010
0000
0000
1000
0000
0000
0000
0000
0001
0000
0000
0000
,
0100
0000
0000
0000
0001
0000
0000
0010
0000
0000
0100
0000
1000
0000
0000
0001
,
0000
0000
0000
0000
0100
0000
0000
0010
0000
0000
0010
0000
0100
0000
0000
0000
,
0010
0000
0000
0000
1000
0000
0000
0001
0000
0000
0000
0000
0100
0000
0000
0001
,
0000
0000
0000
0000
0010
0000
0000
0001
0000
0000
0100
0000
0001
0000
0000
0000
,
1000
0000
0000
0000
0010
0000
0000
1000
0000
0000
0100
0000
0010
0000
0000
0100
,
0000
0000
0000
0000
0010
0000
0000
0001
0000
0000
1000
0000
0001
0000
0000
0000
,
1000
0000
0000
0000
0100
0000
0000
1000
0000
0000
0010
0000
1000
0000
0000
0100
,
0000
0000
0000
0000
0010
0000
0000
0001
0000
0000
0000
0000
0100
0000
0000
0010
,
0000
0000
0000
0000
1000
0000
0000
0100
0000
0000
0010
0000
0001
0000
0000
1000
,
0000
0000
0001
0000
0010
0000
0000
0100
0000
0000
0010
0000
0110
0000
0000
0000
,
0100
0000
0000
0000
1000
0000
0000
0100
0000
0000
0000
0000
0010
0000
0000
0001
,
0000
0000
0000
0000
0100
0000
0000
0010
0000
0000
0100
0000
0010
0000
0000
0000
,
0100
0000
0000
0000
0001
0000
0000
0100
0000
0000
0000
0000
0010
0000
0000
1000
,
0000
0000
0000
0000
0100
0000
0000
1000
0000
0000
0100
0000
0010
0000
0000
0000
,
0020
0000
0000
0000
0100
0000
0000
0100
0000
0000
0000
0000
0100
0000
0000
0100
,
0030
0000
0000
0000
0100
0000
0000
1000
0000
0000
0000
0000
0100
0000
0000
0000
,
0010
0000
0000
0000
0001
0000
0000
0100
0000
0000
0000
0000
0010
0000
0000
1000
,
0000
0000
0000
0000
0100
0000
0000
0010
0000
0000
0100
0000
0010
0000
0000
0000
,
0000
0000
0000
0000
,
0001
0000
0000
1000
0000
0001
0000
1000
0000
0000
0000
0010
0000
0000
0000
0000
,
1000
0000
0000
0100
0000
0010
0000
0001
0000
0000
0000
0100
0000
0000
0000
0000
,
0010
0000
0000
1000
0000
0001
0000
1000
0000
0000
0000
0100
0000
0000
0000
0000
,
1000
0000
0000
0010
0000
0100
0000
1000
0000
0000
0000
0001
0000
0000
0000
0000
,
0010
0000
0000
0001
0000
0100
0000
0001
0000
0000
0000
0010
0000
0000
0000
0000
,
0100
0000
0000
1000
0000
0010
0000
1000
0000
0000
0000
0100
0000
0000
0000
0000
,
0010
0000
0000
0100
0000
0010
0000
0001
0000
0000
0000
1000
0000
0000
0000
0000
,
0001
0000
0000
0100
0000
0010
0000
1000
0000
0000
0000
0001
0000
0000
0000
0000
,
1001
0000
0000
0000
0001
0000
0000
1000
0000
0000
0001
0000
1000
0000
0000
0100
,
0000
0000
0010
0000
0001
0000
0000
1000
0000
0000
0001
0000
0101
0000
0000
0000
,
1010
0000
0000
0000
1000
0000
0000
0100
0000
0000
1000
0000
0010
0000
0000
0100
,
0000
0000
0001
0000
0010
0000
0000
0100
0000
0000
0010
0000
0110
0000
0000
0000
,
1100
0000
0000
0000
1000
0000
0000
0100
0000
0000
0010
0000
0001
0000
0000
0010
,
0000
0000
0100
0000
1000
0000
0000
0001
0000
0000
0100
0000
0101
0000
0000
0000
,
0011
0000
0000
0000
0100
0000
0000
0001
0000
0000
0010
0000
0100
0000
0000
1000
,
0000
0000
1000
0000
0100
0000
0010
0000
0001
0000
0000
0101
0000
0000
1000
0000
,
1100
0000
0000
0000
0001
0000
0000
1000
0000
0000
0001
0000
1000
0000
0000
0010
,
0000
0000
1000
0000
0100
0000
0000
0010
0000
0000
0001
0000
0100
0000
0000
0000
,
0001
0000
0000
0000
1000
0000
0000
0010
0000
0000
0100
0000
0001
0000
0000
0010
,
0000
0000
0100
0000
1000
0000
0000
0001
0000
0000
1000
0000
0100
0000
0000
0000
,
1000
0000
0000
0000
0010
0000
0000
0100
0000
0000
0001
0000
0010
0000
0000
0100
,
0000
0000
1000
0000
0001
0000
0000
1000
0000
0000
0100
0000
1000
0000
0000
0000
,
0001
0000
0000
0000
1000
0000
0000
0100
0000
0000
0010
0000
0001
0000
0000
0000
,
0100
0000
0000
0010
0000
0000
1000
0000
0000
0000
0000
0000
0001
0000
0000
0000
,
0000
0000
0001
0000
0000
0000
0000
0100
0000
0000
0000
0000
0010
0000
0000
0000
,
1000
0000
0000
0100
0000
0000
0010
0000
0000
0000
0000
0000
0001
0000
0000
0000
,
0000
0000
0001
0000
0000
0000
0000
0100
0000
0000
0000
0000
0001
0000
0000
0000
,
0001
0000
0000
0001
0000
0000
2000
0000
0000
0000
0000
0000
0000
0000
0000
0000
,
0000
0000
0000
0000
0000
0000
0000
3001
0000
0000
0000
0000
1000
0000
0000
0000
,
0010
0000
0000
0100
0000
0000
0110
0000
0000
0000
0000
0000
0000
0000
0000
0000
;

//---------------dance-single - Copied from----------------
#NOTES:
     dance-single:
     Copied from:
     Challenge:
     8:
     0.487,0.499,0.248,0.008,0.721: // measure 1
0000
0000
0000
0000
,  // measure 2
0000
0000
0000
0000
,  // measure 3
0000
0000
0000
0000
,  // measure 4
0000
0000
0000
0000
,  // measure 5
0110
0000
0000
0000
0010
1000
0000
0100
0000
0000
0010
0000
0001
0100
0000
0001
,  // measure 6
0000
0000
1000
0000
0100
0010
0000
1000
0000
0000
0100
0000
0001
0000
0000
0000
,  // measure 7
0100
0000
0010
0000
1000
0001
0000
0100
0000
0000
0001
0000
0010
0100
0000
0001
,  // measure 8
0000
0000
1000
0000
0100
0010
0000
0001
0000
0000
0100
0000
0010
0000
0100
0000
,  // measure 9
0020
0000
1000
0000
,  // measure 10
0001
0000
0000
0000
0000
0000
0000
0100
0000
0000
0000
0000
0130
0000
0000
0000
,  // measure 11
0110
0000
0000
1000
0100
0000
0000
1000
0100
0000
0000
1000
0100
0000
0000
0001
,  // measure 12
0100
0000
0000
0001
0100
0000
0000
0010
0100
0000
0010
0000
0100
0010
0000
0000
,  // measure 13
0110
0000
0000
0000
0100
1000
0000
0001
0000
0000
1000
0000
0001
0000
0000
0100
,  // measure 14
0000
0000
0000
0010
1000
0000
0000
0001
0000
0000
1000
0000
0001
0000
0000
0000
,  // measure 15
1000
0000
0100
0000
0010
0001
0000
0100
0000
0000
0010
0000
1000
0000
0000
0100
,  // measure 16
0000
0000
0010
0000
0010
0001
0000
0100
0000
0000
0010
0000
1000
0000
0100
0000
,  // measure 17
1100
0000
0000
0000
1000
0001
0000
1000
0000
0000
0001
0000
0001
1000
0000
0001
,  // measure 18
0000
0000
0000
0000
0100
0000
0000
0010
0000
0000
1000
0000
0100
0000
0000
0010
,  // measure 19
0000
0000
0001
0000
0100
0001
0000
1000
0000
0000
0010
0000
1000
0100
0000
0100
,  // measure 20
0000
0000
0000
0000
0010
0100
0000
0100
0000
0000
0001
0000
0100
0000
0000
0000
,  // measure 21
0010
0000
1000
0000
0001
1000
0000
1001
0000
0000
0000
0000
1000
0001
0000
1001
,  // measure 22
0000
0000
0000
0000
0010
1000
0000
0100
0000
0000
0010
0000
0001
0000
0000
0000
,  // measure 23
0100
0000
0001
0000
0010
0100
0000
1000
0000
0000
0100
0000
1000
0010
0000
0100
,  // measure 24
0000
0000
0000
0000
0001
0010
0000
0001
0000
0000
0100
0000
0010
0000
0000
0000
,  // measure 25
1000
0000
0001
0000
1000
0100
0000
1000
0000
0000
0010
0000
0100
0010
0000
1000
,  // measure 26
0000
0000
0000
0000
0001
0000
0000
1001
0000
0000
0000
0000
1000
0000
0000
1001
,  // measure 27
0000
0000
1000
0000
0010
0100
0000
0001
0000
0000
0100
0000
0001
1000
0000
0100
,  // measure 28
0000
0000
1000
0000
0010
1000
0000
0100
0000
0000
0010
0000
0001
0000
0000
0000
,  // measure 29
0100
0000
0000
0000
0010
0100
0000
0010
0000
0000
0000
0000
1000
0100
0000
0010
,  // measure 30
0000
0000
0000
0000
0001
1000
0000
0001
0000
0000
1000
0000
1001
0000
0000
0000
,  // measure 31
1000
0000
0000
0000
0010
0001
0000
0010
0000
0000
0000
0000
0100
1000
0000
0100
,  // measure 32
0000
0000
0000
0000
0010
0100
0000
0010
0000
0000
1000
0000
1001
0000
0000
0000
,  // measure 33
0100
0000
0000
0000
0010
1000
0000
0010
0000
0000
0000
0000
0100
0001
0000
0100
,  // measure 34
0000
0000
0000
0000
0010
0000
0000
0100
0000
0000
0000
0000
1000
0000
0000
0001
,  // measure 35
0000
0000
0100
0000
0001
0010
0000
0001
0000
0000
0000
0000
1000
0001
0000
1000
,  // measure 36
0000
0000
0000
0000
0010
0100
0000
0010
0000
0000
0100
0000
0001
0000
0000
0000
,  // measure 37
0000
0000
0000
0000
,  // measure 38
0001
1000
0000
0001
0000
1000
0000
0010
0000
0100
0000
0010
0000
1000
0000
0000
,  // measure 39
1000
0100
0000
0010
0000
0001
0000
0100
0000
0001
0000
1000
0000
0000
0010
0000
,  // measure 40
0100
0010
0000
1000
0000
0010
0000
0100
0000
0001
0000
0100
0000
0010
0000
0000
,  // measure 41
1000
0010
0000
0100
0000
0001
0000
1000
0000
0001
0000
0100
0000
0000
0010
0000
,  // measure 42
0100
0001
0000
0100
0000
1000
0000
0100
0000
0001
0000
0100
0000
1000
0000
0000
,  // measure 43
0010
0100
0000
0001
0000
1000
0000
0100
0000
0010
0000
0001
0000
0000
1000
0000
,  // measure 44
0001
0010
0000
0001
0000
0100
0000
0010
0000
1000
0000
0100
0000
1000
0000
0000
,  // measure 45
0010
1000
0000
0001
0000
1000
0000
0100
0000
0010
0000
0001
0000
0000
0100
0000
,  // measure 46
1001
0000
1000
0000
0001
0000
1000
0001
0000
1000
0001
0000
1000
0000
0010
0100
,  // measure 47
0000
0010
0100
0000
0010
0000
0001
0010
0000
0001
0010
0000
0001
0000
1000
0000
,  // measure 48
1100
0000
0000
0000
0001
0000
0100
0001
0000
0100
0001
0000
0010
0000
0100
1000
,  // measure 49
0000
0100
1000
0000
0100
0000
0010
0100
0000
0010
0100
0000
0010
0000
0100
0000
,  // measure 50
0110
0000
0000
0000
1000
0000
0001
1000
0000
0001
1000
0000
0010
0000
1000
0100
,  // measure 51
0000
1000
0100
0000
0010
0000
0100
0010
0000
0100
0010
0000
0100
0000
0010
0000
,  // measure 52
0011
0000
0000
0000
0010
0000
0001
0100
0000
0001
0100
0000
0010
0000
0100
0010
,  // measure 53
0000
0100
0010
0000
1000
0000
0100
0000
1100
0000
0000
0101
0000
0000
0110
0000
,  // measure 54
1001
0000
0000
0000
0001
0000
1000
0100
0000
0010
0001
0000
1000
0000
0001
0010
,  // measure 55
0000
0100
1000
0000
0001
0000
1000
0100
0000
0010
0001
0000
0100
0000
0010
0000
,  // measure 56
0110
0000
0000
0000
0001
0000
1000
0010
0000
0100
0001
0000
1000
0000
0001
0100
,  // measure 57
0000
0010
1000
0000
0001
0000
1000
0010
0000
0100
0001
0000
0001
0000
1000
0000
,  // measure 58
0110
0000
0000
0000
0010
0000
0100
0010
0000
1000
0001
0000
0100
0000
0010
0100
,  // measure 59
0000
0001
1000
0000
0100
0000
0010
0100
0000
0001
1000
0000
0100
0000
0010
0000
,  // measure 60
0110
0000
0000
0000
0001
0000
1000
0001
0000
0010
0100
0000
0010
0000
0100
0000
,  // measure 61
0110
0000
0000
0011
0000
0000
0110
0000
0000
0000
0000
0000
0000
0000
0000
0000
,  // measure 62
0000
0000
0000
0000
0000
0000
0000
1000
0000
0000
0000
0000
0001
0000
0000
0000
,  // measure 63
0101
0000
0000
0110
0000
0000
1010
0000
0000
0000
0000
0000
0000
0000
0000
0000
,  // measure 64
0000
0000
0000
0000
0000
0000
0000
0010
0000
0000
0000
0000
0001
0000
0000
0000
,  // measure 65
1001
0000
0000
0110
0000
0000
1001
0000
0000
0000
0000
0000
0000
0000
0000
0000
,  // measure 66
0000
0000
0000
0000
0000
0000
0000
0010
0000
0000
0000
0000
1000
0000
0000
0000
,  // measure 67
1100
0000
0000
0110
0000
0000
0011
0000
0000
0000
0000
0000
0000
0000
0000
0000
;
