#TITLE:Pretty Punisher;
#SUBTITLE:;
#ARTIST:baby weapon feat. Asuka M.;
#TITLETRANSLIT:;
#SUBTITLETRANSLIT:;
#ARTISTTRANSLIT:;
#GENRE:;
#CREDIT:;
#MENUCOLOR:;
#NEWMETERSYSTEM:NO;
#BANNER:Pretty Punisher-bn.png;
#BACKGROUND:Pretty Punisher-bg.png;
#LYRICSPATH:;
#CDTITLE:MixMania III CD Title.png;
#MUSIC:Pretty Punisher.mp3;
#OFFSET:1.220;
#SAMPLESTART:55.800;
#SAMPLELENGTH:12.000;
#SELECTABLE:YES;
#LISTSORT:;
#BPMS:0.000=143.000;
#STOPS:;
#BGCHANGES:;
#ATTACKS:;

//---------------dance-single - ----------------
#NOTES:
     dance-single:
     :
     Easy:
     4:
     0.298,0.371,0.108,0.183,0.000:
0000
0000
0000
0000
,
0000
0000
0000
0000
,
1001
0000
0010
0010
,
0010
0000
0010
0001
,
1000
0000
0001
1000
,
0200
0000
0300
0000
,
1001
0000
0100
0100
,
0010
0000
0010
0010
,
1000
0000
1000
1000
,
0001
0010
0100
1000
,
1001
1000
0001
0010
,
0001
0100
0010
1000
,
0100
0010
0001
1000
,
0002
0100
0103
0000
,
1001
0100
1000
0100
,
0010
0001
1000
0001
,
0020
0000
0230
0000
,
2300
3200
0310
0001
,
0101
0001
0010
0001
,
0100
0010
1000
0100
,
2000
0000
3100
0000
,
0002
0000
0103
0000
,
0001
0001
1000
0010
,
0100
0010
1000
0001
,
2000
0000
3010
0000
,
0002
0000
0013
0000
,
0100
0010
0100
0010
,
0001
1000
0010
0100
,
0010
0000
1000
0100
,
0010
0000
0001
1000
,
0001
0010
0100
0010
,
1000
0100
0100
0010
,
0001
0000
1000
0000
,
0001
1000
0010
0100
,
1001
0000
0100
0100
,
0001
0000
0001
0001
,
0010
1000
0100
0010
,
0001
1000
0000
0100
,
1001
0000
1000
0100
,
0100
0000
0010
0001
,
1000
0001
0010
0001
,
0010
0010
0010
0010
,
1001
0000
0100
0100
,
0010
0000
0010
0010
,
1000
0000
1000
1000
,
0100
0000
0100
0100
,
0010
0000
0100
0100
,
0001
0000
0001
0001
,
1000
0010
0100
0001
,
2000
0000
0000
3001
,
1001
0000
0100
0010
,
0000
0001
0100
0020
,
0130
0000
1000
0001
,
2000
0010
3010
0000
,
1001
0001
0010
0002
,
0013
0100
2000
3200
,
1300
0100
0010
0001
,
0020
0000
0000
0030
,
1001
0100
0010
0100
,
1000
0100
0010
0000
,
1000
0100
0010
0001
,
0200
0010
0310
0000
,
1001
1000
0010
0100
,
0100
0010
0100
0001
,
0200
0310
0020
0130
,
0001
1000
0001
1000
,
0010
0100
0010
0100
,
2020
0000
0000
0000
,
0000
0000
3030
0000
;

//---------------dance-single - Copied from----------------
#NOTES:
     dance-single:
     Copied from:
     Beginner:
     1:
     0.138,0.168,0.075,0.092,0.000:
0000
0000
0000
0000
,
0000
0000
0000
0000
,
1001
0000
0000
0000
,
0010
0000
0000
0000
,
0010
0000
0000
0000
,
0010
0000
0000
0000
,
1001
0000
0100
0100
,
0000
0000
0100
0100
,
0000
0000
0100
0100
,
0200
0000
0000
0000
,
0300
0000
0000
0000
,
0010
0000
0000
0000
,
0100
0000
0000
0000
,
0010
0000
0010
0000
,
0010
0000
0000
0000
,
0001
0000
0000
0000
,
1000
0000
1000
0000
,
0002
0000
0000
0000
,
0003
0000
1000
0000
,
0001
0000
0001
0000
,
0200
0000
0300
0000
,
0200
0000
0300
0000
,
0100
0000
0010
0000
,
0100
0000
0100
0000
,
0010
0000
0000
0000
,
0200
0000
0300
0000
,
0001
0000
0000
0000
,
1000
0000
0000
0000
,
2000
0000
3000
0000
,
2000
0000
3000
0000
,
1000
0000
0000
0000
,
0100
0000
0000
0000
,
0010
0000
0000
0000
,
0002
0000
0003
0000
,
1001
0000
0000
0010
,
0010
0000
0000
0100
,
0100
0000
0100
0000
,
0001
0000
0001
0000
,
1001
0000
0000
0010
,
0010
0000
0000
1000
,
1000
0000
0100
0000
,
0010
0000
0001
0000
,
1001
0000
0000
0000
,
0100
0000
0000
0000
,
0100
0000
0000
0000
,
0100
0000
0000
0000
,
1001
0000
0000
0000
,
0010
0000
0000
0000
,
0020
0000
0000
0000
,
0000
0000
0030
0000
,
1001
0000
0000
1000
,
1000
0000
0000
0001
,
0001
0000
0000
0100
,
0200
0000
0300
0000
,
0100
0000
0000
0010
,
0010
0000
0000
1000
,
1000
0000
0000
0100
,
0200
0000
0300
0000
,
1001
0000
0000
0001
,
0001
0000
0000
0010
,
0010
0000
0000
0100
,
0100
0000
0000
1000
,
1000
0000
0000
0100
,
0100
0000
0000
1000
,
1000
0000
0001
0000
,
0010
0000
0100
0000
,
1000
0000
0001
0000
,
0110
0000
0000
0000
;

//---------------dance-single - Copied from----------------
#NOTES:
     dance-single:
     Copied from:
     Medium:
     6:
     0.369,0.457,0.142,0.200,0.000:
0000
0000
0000
0000
,
0000
0000
0000
0000
,
1001
0000
0000
0010
0010
0000
0010
0000
,
0010
0000
0000
0010
0010
0000
0010
0000
,
0100
0000
0000
0100
0100
0000
0100
0000
,
0100
0000
0000
0100
0100
0000
0100
0000
,
1001
0000
0000
0010
0010
0000
0010
0000
,
0010
0000
0000
0010
0010
0000
0010
0000
,
0010
0000
0000
0010
0010
0000
0010
0000
,
0001
0000
1000
0000
0001
0010
1000
0000
,
1001
0000
1000
0000
0010
1000
0001
0000
,
1001
0000
0010
0000
0001
0010
0001
0000
,
1001
0000
0001
0000
0100
0001
1000
0000
,
2002
0000
0000
3003
,
1001
0000
0010
0000
1000
0100
0001
0000
,
1001
0000
0001
0000
0010
0001
1000
0000
,
1001
0000
0110
0000
,
1001
0000
0110
0000
0001
0001
0020
0000
,
0130
0000
0010
0000
1000
0100
0100
0000
,
1000
0010
0100
0001
,
0020
0000
0100
0000
,
0230
0000
0000
0000
0000
0010
0010
0300
,
0010
0000
1000
0000
0100
1000
0100
0000
,
0010
0001
0100
0001
,
0002
0000
0000
1000
0000
0000
0000
2003
,
0000
0000
0000
0000
0100
0000
0100
0100
,
3100
0000
0010
0000
0100
0000
0001
0010
,
0001
0100
0010
1000
,
0010
0000
0000
1000
0000
0000
0000
0000
,
0100
0000
0000
0010
0000
0000
0000
0000
,
0001
0000
1000
0000
0001
0100
0010
0000
,
1000
0000
0010
0000
0100
0000
0000
0010
,
0010
0000
0000
0100
0100
0000
0000
0001
,
0001
0000
1000
0000
0001
1000
0100
0000
,
0110
0000
0001
0000
1000
0001
0001
0000
,
1001
0000
0001
0000
1000
0000
0010
1000
,
0000
1000
0100
0000
0010
0000
0001
0000
,
1000
0000
0001
0001
0000
0000
1000
0000
,
1001
0000
0010
0000
0001
0100
0100
0000
,
0010
0000
1000
0000
0100
0000
0000
0010
,
0000
0001
0000
0100
0000
0010
0000
1000
,
0100
0010
0001
0001
,
1001
0000
0000
0010
0010
0000
0010
0000
,
0010
0000
0000
0010
0010
0000
0010
0000
,
0100
0000
0000
0100
0100
0000
0100
0000
,
0100
0000
0000
0100
0100
0000
0100
0000
,
1000
0100
0010
0001
,
1000
0100
0010
0001
,
2000
3002
0023
0032
,
0103
0010
1000
0100
0010
0000
0200
0000
,
0310
0100
0010
0001
,
1000
0000
0001
0000
0100
0000
0010
0010
,
0100
0010
1000
0100
,
0020
0032
2003
3200
,
1300
0000
0010
0000
0100
0000
0001
0010
,
0001
0000
0100
0000
0010
0000
0010
1000
,
0100
1000
0100
0010
,
0002
2003
3020
0230
,
0310
1000
0001
0100
,
0010
1000
0001
0100
,
0001
0010
0001
0100
,
0010
0000
1000
0100
0100
0000
0100
0000
,
1000
0100
0010
0001
,
1000
0100
0010
0001
,
0200
0310
0200
0301
,
0100
0010
1000
0001
,
0100
0000
0010
0000
0100
0010
0100
0000
,
2002
0000
0000
0000
,
0000
0000
3003
0000
;

//---------------dance-single - Copied from----------------
#NOTES:
     dance-single:
     Copied from:
     Hard:
     7:
     0.436,0.428,0.142,0.192,0.025:
0000
0000
0000
0000
,
0000
0000
0000
0000
,
1100
0000
0001
0100
0100
0000
0010
0000
,
1000
0000
0100
0010
0002
0000
0103
0000
,
0010
0000
1000
0100
0001
0000
0100
0000
,
0001
0010
0002
1003
,
0100
0000
1000
0100
0010
0000
0010
0000
,
0001
0000
1000
0100
0010
0000
0010
0000
,
0001
0000
1000
0100
0010
0000
0010
0000
,
0001
0000
1000
0000
0001
1000
0010
1000
,
0001
0000
0100
0000
0010
1000
1000
0100
,
0000
0010
0001
0100
0000
0001
1000
0001
,
0000
1000
0010
1000
0000
0100
1000
0200
,
0000
0300
0010
0001
0001
0000
0001
0000
,
1001
0000
0001
1000
0000
0010
1000
0100
,
0000
0010
0001
1000
0000
0010
0100
0001
,
0000
0100
0010
1000
0000
0001
1000
0001
,
0000
0010
0001
1000
0010
0000
0200
0000
,
0310
0000
1001
0000
1000
0100
0001
0000
,
0010
0000
0001
0000
0100
0001
0010
0001
,
0200
0000
0300
0010
2000
0000
3000
0100
,
2000
0000
3000
0100
0020
0000
0030
0001
,
0100
0000
0001
0000
1000
0100
0001
0000
,
1000
0010
0100
0001
0000
0010
0001
0000
,
0100
0000
0010
2000
0000
3100
1000
0100
,
0000
0100
0010
0000
1001
0000
0110
0000
,
0001
0100
0010
0000
1000
0100
0010
0000
,
0001
1000
0001
0000
0010
0001
1000
0000
,
0100
0000
0010
0002
0000
0003
0100
0000
,
1001
0000
0100
2000
0000
3000
0010
0000
,
1001
0000
0100
0000
0001
0010
0001
0000
,
2000
0000
3200
0000
0320
0000
0030
0001
,
0100
0000
0000
0010
1000
0000
0000
1000
,
0100
1000
0100
0010
0001
0010
0001
0100
,
0110
0000
0000
0100
0000
1000
0100
0000
,
0010
0001
0000
0100
0000
0000
1000
0000
,
0001
0100
0001
0000
1000
0100
1000
0000
,
0010
0100
0010
0100
0000
0000
1000
0100
,
1001
0000
0010
0000
0001
1000
0001
0000
,
0100
0010
0000
1000
0000
0000
0100
0010
,
0000
0001
0100
0010
1000
0000
0001
0000
,
0002
0000
0023
0000
0032
0000
0203
0010
,
1300
0000
0100
0000
1000
0100
0100
0000
,
0001
0000
1000
0000
0100
0010
0001
0000
,
1000
0000
0001
0000
0100
0010
1000
0000
,
0001
0000
1000
0000
0001
0010
0001
0000
,
0100
0001
1000
0010
,
0100
0010
1000
0100
,
0010
0100
0010
0100
0010
0100
0010
0100
,
0020
0100
0100
0130
,
1001
0000
1000
0000
0100
0000
0010
0010
,
0000
0001
0100
0000
0010
0000
1000
0001
,
1000
0000
0100
0000
0010
0000
0001
1000
,
0000
1000
0100
0010
0010
0000
0010
0000
,
0100
0000
0001
0000
0100
0010
1000
0001
,
0000
0000
0100
0000
0010
0010
0010
0000
,
0100
0000
0001
0000
1000
0100
0001
0000
,
0010
0000
0010
0000
0010
1000
0010
1000
,
0010
0000
0000
0000
0100
0000
0000
0001
0000
0000
0000
0000
1000
0000
0000
0000
,
0001
0000
0000
0000
1000
0000
0000
0100
0000
0000
0000
0000
1000
0000
0000
0000
,
0010
0000
0000
0000
0100
0000
0000
0010
0000
0000
0000
0000
0100
0000
0000
0000
,
0001
0010
0011
1100
,
1000
0000
0000
0000
0001
0000
0000
0100
0000
0000
0000
0000
0010
0000
0000
0000
,
1000
0000
0000
0000
0100
0000
0000
0100
0000
0000
0000
0000
1000
0000
0000
0000
,
0200
0310
0002
0103
,
0010
0000
0000
1000
0000
0000
0001
0000
0100
0000
0000
0000
0010
0000
0000
0000
,
1001
0000
1001
0000
0011
0000
1100
0001
,
0220
0000
0000
0000
,
0000
0000
0330
0000
;

//---------------dance-single - Copied from ----------------
#NOTES:
     dance-single:
     Copied from:
     Challenge:
     8:
     0.550,0.543,0.208,0.167,0.167: // measure 1
0000
0000
0000
0000
,  // measure 2
0000
0000
0000
0000
,  // measure 3
1100
0000
0100
0010
0011
0000
0101
0000
,  // measure 4
0011
0000
0000
0000
0000
0000
0001
0000
0000
0100
0000
0000
0010
0000
1000
0000
0010
0000
1000
0000
0000
0000
0000
0000
,  // measure 5
1001
0000
0010
0100
0110
0000
1000
0000
,  // measure 6
0101
0000
0000
0000
0000
0000
0010
0000
0000
0001
0000
0000
0100
0000
0001
0000
1000
0000
0001
0000
0000
0000
0000
0000
,  // measure 7
0110
0000
1000
0001
1000
0100
1000
0000
,  // measure 8
0010
0000
1000
0100
0010
0001
0100
0000
,  // measure 9
0001
0000
1000
0010
0100
0001
0010
0000
,  // measure 10
0001
0001
0100
0100
0010
1000
0010
1000
,  // measure 11
0100
0000
1000
0100
0000
0010
0001
0100
,  // measure 12
0000
0010
1000
0001
0000
1000
0001
0100
,  // measure 13
0001
1000
0010
1000
0000
0100
1000
0020
,  // measure 14
0000
0000
0130
0000
0001
0000
0010
0000
0001
0000
0000
0100
0000
0000
0010
0000
,  // measure 15
1000
0000
0100
1000
0000
0010
1000
0100
,  // measure 16
0000
0010
0001
0100
0000
0010
1000
0001
,  // measure 17
0100
0001
0010
0001
0100
0010
1000
0100
,  // measure 18
1000
0010
0100
0010
0100
0001
0011
0000
,  // measure 19
0001
0000
0100
0000
0010
1000
0001
0000
,  // measure 20
0100
0001
0010
0001
0100
0010
1000
0001
,  // measure 21
2000
0000
3001
0100
0020
0000
1030
0100
,  // measure 22
0020
0000
0031
0100
0020
0000
1030
0001
,  // measure 23
1001
0000
0101
0000
1000
0010
0100
0000
,  // measure 24
1000
0010
0100
0001
1000
0001
0010
0001
,  // measure 25
0100
0000
0010
1000
0000
1000
0100
0020
,  // measure 26
0000
0031
0100
0010
1000
0100
0010
0100
,  // measure 27
1001
0000
0011
0000
0100
1000
0100
0020
,  // measure 28
0000
0130
0010
1000
0100
0010
0001
1000
,  // measure 29
0001
0100
0010
0020
0000
1030
0100
0010
,  // measure 30
0001
1000
0001
2000
0000
3100
1000
0010
,  // measure 31
0101
0000
0011
0000
0100
1000
0010
0001
,  // measure 32
0000
0100
0001
0010
0100
0000
0100
0010
,  // measure 33
0011
0000
0010
0100
1100
0000
1000
0100
,  // measure 34
0010
0000
0001
0000
0010
0000
0001
0000
0100
0000
0010
0000
1000
0010
1000
0010
,  // measure 35
0100
0000
1000
0100
0010
0001
0001
0000
,  // measure 36
0100
0001
0010
0100
0000
0100
1000
0100
,  // measure 37
0000
0100
0010
0001
1000
0001
0100
0010
,  // measure 38
1000
0000
0010
0000
0010
0000
0000
0100
0000
0000
0000
0000
0010
0000
1000
0000
,  // measure 39
1001
0000
1000
0000
0001
0100
0001
0000
,  // measure 40
0011
0001
0000
0010
0000
0100
1000
0100
,  // measure 41
0000
0010
0001
1000
0001
0100
0010
1000
,  // measure 42
0020
0000
0230
0000
0302
0000
0103
0010
,  // measure 43
0011
0000
0100
0001
1000
0001
1000
0000
,  // measure 44
1001
0000
1000
0001
1000
0001
1000
0000
,  // measure 45
1001
0000
0001
1000
0001
1000
0001
0000
,  // measure 46
1001
0000
1000
0001
1000
0001
1000
0000
,  // measure 47
0010
0000
0000
0000
0100
0000
0000
0001
0000
0010
0001
0000
0100
0000
0000
0000
,  // measure 48
0010
0000
0000
0000
1000
0000
0000
0001
0000
1000
0010
0000
1000
0000
0000
0000
,  // measure 49
0100
1000
0100
1000
0010
0100
0010
0100
,  // measure 50
0001
1000
0001
1000
0001
0100
1001
0000
,  // measure 51
0100
0000
0000
0000
0010
0000
0000
0001
0000
1000
0001
0000
0100
0000
0100
0000
,  // measure 52
0000
0000
0001
0000
1000
0000
0000
0010
0000
0100
1000
0000
0100
0000
0100
0000
,  // measure 53
1000
0000
0000
0000
0100
0000
0010
0001
0000
0001
0100
0000
0010
0000
1000
0000
,  // measure 54
0000
0001
0100
0001
2000
0000
3002
0000
,  // measure 55
0103
0000
0000
0000
0010
0000
0000
1000
0000
0100
0010
0000
0010
0000
0001
0000
,  // measure 56
0100
0000
0000
0000
0001
0000
0000
1000
0000
0001
0000
1000
0001
0000
0010
0000
,  // measure 57
0001
0100
0010
1000
,  // measure 58
0100
0100
2000
0000
3100
0100
0020
0000
,  // measure 59
0031
0000
0000
0000
0100
0000
0000
0010
0000
1000
0000
0010
1000
0000
0000
0000
,  // measure 60
0100
0000
0000
0000
0010
0000
0000
0001
0000
0100
0000
0010
1000
0000
0000
0000
,  // measure 61
0100
0000
0000
0000
0100
0000
0000
0010
0000
0001
0000
1000
0001
0000
0000
0000
,  // measure 62
0100
0000
0001
0010
0100
0100
0010
0010
,  // measure 63
0100
0000
0000
0000
1000
0000
0000
0100
0000
0010
0000
0001
0100
0000
0000
0000
,  // measure 64
0010
0000
0000
0000
1000
0000
0000
0001
0000
0010
0000
0100
1000
0000
0000
0000
,  // measure 65
0002
0010
0013
0000
2000
0010
3010
0000
,  // measure 66
0100
0000
0000
0001
0000
0000
0010
0000
0100
0000
0000
1000
0000
0000
0100
0000
,  // measure 67
0010
0001
1000
0001
1000
0100
0010
0001
,  // measure 68
2200
0000
0000
0000
,  // measure 69
0000
0000
3300
0000
;
