#TITLE:Pretty Punisher;
#SUBTITLE:(Glitter Guitar Dub);
#ARTIST:baby weapon feat. Asuka M.;
#TITLETRANSLIT:;
#SUBTITLETRANSLIT:;
#ARTISTTRANSLIT:;
#GENRE:;
#CREDIT:;
#MENUCOLOR:;
#NEWMETERSYSTEM:NO;
#BANNER:Pretty Punisher (Glitter Guitar Dub)-bn.png;
#BACKGROUND:Pretty Punisher (Glitter Guitar Dub)-bg.png;
#LYRICSPATH:;
#CDTITLE:MixMania III CD Title.png;
#MUSIC:Pretty Punisher (Glitter Guitar Dub).mp3;
#OFFSET:-0.460;
#SAMPLESTART:40.700;
#SAMPLELENGTH:11.980;
#SELECTABLE:YES;
#LISTSORT:;
#BPMS:0.000=143.000;
#STOPS:;
#BGCHANGES:;
#ATTACKS:;

//---------------dance-single - ----------------
#NOTES:
     dance-single:
     :
     Easy:
     4:
     0.292,0.342,0.128,0.196,0.000:
0000
0000
0000
0000
,
0000
0000
0000
0000
,
1001
0000
0000
0010
,
1001
0000
0000
0000
,
1001
0000
1000
1000
,
1001
0000
0001
0001
,
1001
0000
0001
0001
,
0020
0000
0000
0100
,
0130
0010
1000
0100
,
0010
0001
1000
0001
,
0020
0000
0031
0000
,
0002
0100
0103
0010
,
1001
0000
0100
1000
,
0100
0000
1000
0010
,
0020
0000
1030
0000
,
0200
0001
0001
0310
,
0101
0001
1000
0001
,
0010
0001
1000
0100
,
0010
0000
0100
0000
,
1000
0001
1000
0000
,
1001
0000
0010
0000
,
0100
1000
0010
0000
,
1001
0000
0010
0000
,
0002
0023
0032
0203
,
0310
1000
0100
0000
,
0010
0001
0100
0000
,
0001
1000
0100
0010
,
0001
0100
0000
0010
,
1001
0000
0100
0000
,
0010
0001
1000
0000
,
0100
1000
0010
0100
,
0001
0001
1000
0001
,
2000
0000
0000
0000
,
3200
0000
0000
0000
,
0320
0000
0001
0000
,
0032
0000
0100
0000
,
0103
0010
0000
0010
,
0000
0100
0000
0100
,
0010
0010
0010
0010
,
2000
3002
2003
3010
,
0100
0010
1000
0100
,
0010
0001
0100
1001
,
0100
0001
0010
0100
,
1000
0001
0002
2003
,
3010
0100
0001
0010
,
0001
1000
0010
0100
,
0001
0010
0100
0010
,
0001
1000
0010
0100
,
0100
1000
0100
0010
,
0100
0010
0100
0010
,
1000
0100
0010
0001
,
0100
0001
0011
0011
,
0001
0100
0010
1000
,
0001
1000
0010
1000
,
0200
0300
0020
0030
,
0001
0010
0100
1000
,
0001
0010
0100
1000
,
1001
0000
0100
0000
,
0100
0000
0100
0100
,
0010
0000
0010
0001
,
0001
1000
0002
0003
,
1000
0000
1000
0000
,
1000
0000
1000
0001
,
0010
0000
0010
0000
,
0100
0100
0100
0100
,
1000
0100
0010
0001
,
0022
0000
0000
0033
;

//---------------dance-single - Copied from----------------
#NOTES:
     dance-single:
     Copied from:
     Beginner:
     1:
     0.080,0.141,0.051,0.017,0.000:
0000
0000
0000
0000
,
0000
0000
0000
0000
,
0010
0000
0000
0000
,
0010
0000
0000
0000
,
0100
0000
0000
0000
,
0100
0000
0000
0000
,
0001
0000
0000
0000
,
1000
0000
0000
0000
,
1001
0000
0000
0000
,
0100
0000
0000
0000
,
0010
0000
0000
0000
,
0010
0000
0000
0000
,
1000
0000
0000
0000
,
0100
0000
0000
0000
,
0100
0000
0000
0000
,
0010
0000
0000
0000
,
0010
0000
0000
0000
,
0001
0000
0000
0000
,
1000
0000
0000
0000
,
0000
0000
0000
0000
,
0010
0000
0000
0000
,
0100
0000
0000
0000
,
0001
0000
0000
0000
,
0010
0000
0000
0000
,
0110
0000
0000
0000
,
0110
0000
0000
0000
,
0100
0000
0000
0000
,
0100
0000
0000
0000
,
1100
0000
0000
0000
,
1100
0000
0000
0000
,
0100
0000
0000
0000
,
0100
0000
0000
0000
,
0020
0000
0000
0000
,
0000
0000
0000
0000
,
0000
0000
0000
0000
,
0000
0000
0000
0000
,
0030
0000
0000
0000
,
0010
0000
0000
0000
,
0001
0000
0000
0000
,
0001
0000
0000
0000
,
1001
0000
0000
0000
,
1000
0000
0000
0000
,
0100
0000
0000
0000
,
0010
0000
0000
0000
,
0010
0000
0000
0000
,
0100
0000
0000
0000
,
0001
0000
0000
0000
,
2000
0000
0000
0000
,
3000
0000
0000
0000
,
0010
0000
0000
0000
,
0100
0000
0000
0000
,
0010
0000
0000
0000
,
0001
0000
0000
0000
,
0100
0000
0000
0000
,
0100
0000
0000
0000
,
0010
0000
0000
0000
,
0010
0000
0000
0000
,
0100
0000
0000
0000
,
0000
0000
0000
0000
,
0100
0000
0000
0000
,
0000
0000
0000
0000
,
0010
0000
0000
0000
,
0000
0000
0000
0000
,
0001
0000
0000
0000
,
1000
0000
0100
0000
,
0100
0000
0010
0000
,
1000
0000
0000
0000
;

//---------------dance-single - Copied from----------------
#NOTES:
     dance-single:
     Copied from:
     Medium:
     6:
     0.358,0.394,0.154,0.128,0.000:
0000
0000
0000
0000
,
0000
0000
0000
0000
,
1000
0000
0000
1000
0100
0000
1001
0000
,
0110
0000
0000
0000
0001
0100
0001
0000
,
0011
0000
0000
0001
1000
0000
0001
0000
,
1001
0000
0000
1000
0100
0000
0010
0000
,
0110
0000
0000
0010
0100
0000
0010
0000
,
0002
0000
0200
0303
,
0101
0000
0001
0000
1000
0100
0010
0000
,
0001
0000
1000
0000
0001
0100
0010
0000
,
1000
0000
0100
0010
0010
0000
0100
0000
,
0001
0000
0010
0100
0100
0000
1000
0000
,
0001
0000
0100
0000
0010
1000
0100
0000
,
0010
0000
0001
0000
1000
0000
0001
0100
,
0001
0000
1000
0000
0100
0000
0010
0100
,
0000
0100
0100
1000
,
1100
0000
0010
0000
0001
0000
0100
0001
,
0010
0001
0100
0010
,
2000
0000
0000
3100
0000
0000
0100
0000
,
0020
0000
0000
0031
0000
0000
0001
0000
,
0100
0000
0010
0000
1000
0000
0100
0010
,
0001
0000
1000
0001
1000
0000
0010
0000
,
0100
0000
0000
1000
0100
0000
0000
0100
,
0010
0000
0001
0000
0010
0001
0010
0001
,
0100
0000
0010
0000
1000
0000
0001
1000
,
0001
0100
0010
1000
,
0100
0000
0010
0001
0100
0000
0010
1000
,
0100
0000
1000
0100
0000
0000
0010
0000
,
0100
0000
0010
0000
1000
0000
0100
0010
,
0001
0100
0001
0010
,
0100
0100
1000
1000
,
0101
1100
0101
1100
,
2002
0000
0000
0003
,
0020
0000
0000
0030
,
0002
0000
0000
0003
,
0020
0000
0000
3030
,
1001
0000
1000
0000
0100
0010
0001
0000
,
0100
0010
1000
0000
0001
1000
0001
0000
,
0100
0010
0100
0010
,
1000
0100
0010
0001
0002
0000
0103
0000
,
0010
0000
1000
0000
0001
0000
0100
0001
,
0000
0010
0001
0000
0100
0000
0010
0010
,
1000
0000
0100
0000
1000
0000
0100
0010
,
0000
0100
1000
1000
,
0100
0000
0010
0000
0001
0000
1000
0001
,
0000
0000
0001
0000
1000
0000
0010
1000
,
0100
1000
0100
0010
,
0002
2003
3020
2030
,
3001
0100
0001
0010
,
0001
0100
0010
1000
,
0100
0010
0001
1000
,
0001
0000
0010
0100
1000
0000
0001
0000
,
0100
0010
1000
0100
,
0001
0100
1000
0100
,
0010
0100
1000
0001
,
0010
0100
1000
0001
,
0010
0100
0010
0001
,
1001
0000
0001
0000
,
1000
0000
0001
1001
,
0001
0000
1000
1010
,
1000
0100
0020
0030
,
0011
0000
0100
0100
,
1000
0010
0100
0010
,
0001
0000
0100
0000
,
0001
0100
1000
0100
,
0001
0010
0100
1000
0001
0010
0100
1000
,
1001
0000
0000
0000
;

//---------------dance-single - Copied from----------------
#NOTES:
     dance-single:
     Copied from:
     Hard:
     7:
     0.489,0.512,0.230,0.154,0.026:
0000
0000
0000
0000
,
0000
0000
0000
0000
,
1100
0000
0010
1000
1000
0000
1100
0000
,
1010
0000
1000
0100
0010
0001
0001
0000
,
0101
0000
0001
0010
0001
0100
0010
0000
,
1010
0000
1000
0100
0010
0001
0001
0000
,
1001
0000
0001
0010
0001
0100
0010
0000
,
1010
0110
0101
0011
,
1001
0000
1000
0000
0100
0010
0011
0000
,
0001
0100
0010
1000
0000
1000
0100
0010
,
0002
0000
1000
0000
1003
0000
0101
1000
,
1020
1000
1030
1100
,
1000
0000
0100
0000
0010
0001
1000
0000
,
0100
0000
1000
0000
0001
0010
1000
0000
,
0001
0000
0100
0001
0010
0000
0001
0100
,
0000
0100
0010
1000
0200
0000
1300
0000
,
0010
0000
1000
0000
0100
0010
0001
0000
,
0100
0000
0001
0000
1000
0000
0010
1000
,
0100
0000
0100
1000
0100
0000
1000
0000
,
0100
0000
0100
0010
0001
0000
0100
0000
,
0001
0000
1000
0001
1000
0010
0000
0100
,
0000
0010
0001
0100
0010
0000
1000
0001
,
1000
0000
0100
1000
0100
0000
0010
0001
,
0010
0001
0100
0010
1000
0001
1000
0100
,
0020
0000
0130
0010
0000
0100
1000
0100
,
0002
0000
0000
0100
0003
0000
0001
0000
0000
0000
0100
0000
0001
0000
0010
0000
,
0000
0100
1000
0100
0010
0001
1000
0001
,
1000
0100
1000
0010
0000
0100
0010
0001
,
0200
0000
0301
0100
0000
0001
0100
0010
,
2000
0000
0000
0100
3000
0000
1000
0000
0000
0000
1000
0000
0100
0000
0010
0000
,
0000
0010
1000
0001
0100
0010
1000
0100
,
0020
0000
0032
0000
0203
0000
0301
0010
,
0011
0000
0000
0100
0100
0001
0100
0000
,
0010
0000
0000
1000
0100
0100
1000
0000
,
1010
0000
0000
1000
0100
0100
0010
0000
,
0011
0000
0000
0001
0100
0100
0010
0000
,
1000
0100
0000
0100
0010
0001
0000
0001
,
0100
0010
0000
0010
1000
0001
0000
1000
,
0002
0000
0103
0000
0010
0010
1000
0000
,
0100
1000
0100
0010
0001
1000
0002
0000
,
1003
0000
0100
0000
1000
0000
0100
0100
,
0010
0001
1000
0000
0001
0000
1000
1000
,
0100
0000
0010
0000
0001
0000
0100
0001
,
0010
0000
0100
1000
0100
0000
0100
0000
,
0010
0001
1000
0000
0100
0000
1000
0010
,
0100
0000
0100
0001
0010
1000
0010
0001
,
0100
0010
1000
0001
,
0010
0001
0010
0001
1000
0100
1000
0100
,
0010
0100
0010
0001
,
1000
0001
0100
0000
0010
0000
0100
0100
,
1000
0000
0100
0000
0010
0000
0001
0100
,
0001
0000
1000
0001
1001
0000
1001
0000
,
1010
0000
0100
0000
1000
0010
0100
0000
,
0001
0000
0100
0000
0001
0010
0001
0000
,
0200
0302
0023
0032
,
0103
0000
0000
0010
0000
0000
1000
0000
0100
0000
0000
0010
0000
0000
0001
0000
,
0100
0000
0000
0010
0000
0000
1000
0000
0001
0000
0010
0000
0100
0000
1000
0000
,
1100
0000
1000
0001
0010
0000
1000
0010
,
0100
0000
0010
0000
0001
0000
0100
0100
,
0001
0000
0100
0000
0001
0000
0010
0001
,
0100
0000
0000
0000
0010
0000
0010
0000
1000
0000
0000
1000
0000
0000
0000
0000
,
0100
0000
1000
0000
0010
0000
0100
0001
,
0010
0000
0001
0000
1000
0000
0001
0001
,
1000
0010
1000
0100
,
1010
1010
0011
0011
,
0001
0010
1000
0010
0001
0010
1000
0010
,
2002
0000
0000
3003
;

//---------------dance-single - Copied from----------------
#NOTES:
     dance-single:
     Copied from:
     Challenge:
     9:
     0.580,0.541,0.298,0.043,0.247: // measure 1
0000
0000
0000
0000
,  // measure 2
0000
0000
0000
0000
,  // measure 3
1010
0000
0100
0010
0010
0000
1000
0000
,  // measure 4
1100
0000
0000
0000
0000
0000
1000
0000
0000
0100
0000
0000
0010
0000
0001
0000
1000
0000
0100
0000
0000
0000
0000
0000
,  // measure 5
1001
0000
0100
1000
0010
1000
1100
0000
,  // measure 6
1000
0000
0001
0010
0001
1000
0101
0000
,  // measure 7
0011
0000
0001
0100
0010
1000
1100
0000
,  // measure 8
1000
0100
0010
0001
1000
0100
0010
0001
,  // measure 9
0011
0000
0001
0000
0100
0010
1000
0000
,  // measure 10
1000
0010
0100
0010
0001
1000
0100
0001
,  // measure 11
0020
0000
0031
0100
0020
0000
1030
0100
,  // measure 12
1000
0001
0100
0001
1000
0010
1001
0000
,  // measure 13
0001
0100
0010
1000
0100
0010
0002
0000
,  // measure 14
0013
0001
0010
0100
1000
0010
0100
0001
,  // measure 15
1000
0000
0010
1000
0100
0000
0010
0100
,  // measure 16
0000
0010
0001
1000
0001
1000
0001
0010
,  // measure 17
0011
0000
0101
0000
0010
1000
0001
1000
,  // measure 18
0001
0100
0001
0010
1000
0010
0001
0100
,  // measure 19
1010
0000
1000
0110
0000
0100
0010
0001
,  // measure 20
1001
0001
0010
0011
0000
0100
0001
1000
,  // measure 21
0110
0000
0100
1000
0100
0001
0100
1000
,  // measure 22
0010
0001
1000
0001
1001
0000
1000
0100
,  // measure 23
0010
0000
0010
0100
0010
0000
0010
0001
,  // measure 24
0010
1000
0010
0001
0100
0010
1000
0010
,  // measure 25
1010
0000
1000
0100
0010
0001
0001
0100
,  // measure 26
0101
0001
0000
0110
0000
0100
1000
0100
,  // measure 27
0000
1000
0100
0001
0010
1000
0100
0010
,  // measure 28
0001
0100
0001
1000
0000
0000
0100
1000
,  // measure 29
1100
0000
0100
0010
0001
0100
0100
0001
,  // measure 30
1000
0001
1000
0110
0000
0000
0100
1000
,  // measure 31
0100
0010
0001
1000
0001
0010
0001
0100
,  // measure 32
0010
0000
0010
0000
1000
0000
0100
1000
,  // measure 33
1010
0000
0000
1000
0100
0100
0010
0000
,  // measure 34
0011
0000
0000
0001
0100
0100
0001
0000
,  // measure 35
1001
0000
0000
0100
1000
1000
0001
0000
,  // measure 36
0110
0000
0000
0001
1000
0001
0011
0000
,  // measure 37
0101
0000
0000
0000
0001
0000
0000
0100
0000
0001
0100
0000
0010
0000
0100
0000
,  // measure 38
1000
0000
0001
0000
0001
0000
0010
0100
0000
0010
0001
0000
0100
0000
0000
0000
,  // measure 39
1000
0100
0010
0001
1000
0100
0010
0001
,  // measure 40
1000
0100
0000
0000
0010
0001
0000
0000
0010
0100
0000
0000
1002
0000
0000
0000
,  // measure 41
0013
0000
0000
0000
0100
0000
0000
0001
0000
0010
0001
0000
0100
0000
0100
0000
,  // measure 42
0010
0000
1000
0100
0010
0000
0010
0001
0000
0001
0010
0000
0100
0000
0100
0000
,  // measure 43
1000
0000
0000
0000
0001
0000
0010
0001
0000
1000
0100
0000
0010
0000
0100
0000
,  // measure 44
1000
0000
0010
0000
0100
0000
0001
0000
0100
0000
0000
0100
0000
0000
0000
0000
,  // measure 45
0010
1000
0100
0010
0001
0100
0001
0010
,  // measure 46
0000
0000
0001
0000
0001
0000
0000
0100
0000
0010
0000
1000
0100
0000
1000
0000
,  // measure 47
0010
1000
0100
0010
0100
1000
0100
0010
,  // measure 48
0100
0100
0001
1000
0010
1000
0100
1000
,  // measure 49
0010
0000
0000
0000
0100
0000
0000
0001
0000
0100
0000
0001
0010
0000
0100
0000
,  // measure 50
1000
0000
0100
0000
0010
0000
0000
0100
0000
0100
0000
1000
0100
0000
0010
0000
,  // measure 51
0001
0000
1000
0000
0001
0000
0000
0010
0000
0001
0000
1000
0010
0000
0100
0000
,  // measure 52
0000
0100
1000
0100
0010
0010
0001
0001
,  // measure 53
0100
0000
0001
0000
0010
0000
0000
0001
0000
0100
0000
0100
0010
0000
0100
0000
,  // measure 54
1000
0000
0010
0000
0100
0000
0000
0001
0000
0010
0000
0001
0100
0000
0010
0000
,  // measure 55
1000
0000
0100
0010
0000
0000
0001
0000
0100
0000
0010
1000
0000
0000
0100
0000
,  // measure 56
0010
0000
0000
0001
0000
0000
1000
0000
0001
0000
0000
0010
0000
0000
0100
0000
,  // measure 57
1000
0100
1000
0100
0010
0001
0010
0001
,  // measure 58
0100
0000
0000
0000
0010
0000
0000
1000
0000
0001
0000
0010
0100
0000
0000
0000
,  // measure 59
0100
0000
0000
0000
0001
0000
0000
0010
0000
0001
0000
1000
0001
0000
0000
0000
,  // measure 60
1000
0000
0000
0000
0100
0000
0000
0010
0000
0001
0000
0100
0010
0000
0000
0000
,  // measure 61
1000
0000
0100
0000
1100
0100
0011
0010
,  // measure 62
0110
0000
0000
0000
0100
0000
0000
0001
0000
1000
0000
0010
1000
0000
0000
0000
,  // measure 63
0100
0000
0000
0000
1000
0000
0000
0010
0000
0100
0000
1000
0100
0000
0000
0000
,  // measure 64
0010
0000
0000
1000
0000
0000
0100
0000
0010
0000
0000
0001
0000
0000
0100
0000
,  // measure 65
0110
0000
0000
1100
0000
0000
1010
0000
0001
0000
0000
0010
0000
0000
0100
0000
,  // measure 66
1000
1000
0001
0001
1000
0100
0010
0001
,  // measure 67
0002
0000
0000
0003
;
