#TITLE:Ooh La La;
#SUBTITLE:;
#ARTIST:Goldfrapp;
#TITLETRANSLIT:;
#SUBTITLETRANSLIT:;
#ARTISTTRANSLIT:;
#GENRE:;
#CREDIT:;
#MENUCOLOR:;
#NEWMETERSYSTEM:NO;
#BANNER:Ooh La La-bn.png;
#BACKGROUND:Ooh La La-bg.png;
#LYRICSPATH:;
#CDTITLE:MixMania III CD Title.png;
#MUSIC:Ooh La La.mp3;
#OFFSET:0.000;
#SAMPLESTART:52.520;
#SAMPLELENGTH:13.380;
#SELECTABLE:YES;
#LISTSORT:;
#BPMS:0.000=144.540;
#STOPS:;
#BGCHANGES:;
#ATTACKS:;

//---------------dance-single - ----------------
#NOTES:
     dance-single:
     :
     Easy:
     4:
     0.359,0.390,0.608,0.057,0.000:
0000
0000
0000
0000
,
0000
0000
0000
0000
,
0010
0010
0010
0010
,
0010
0010
0010
0010
,
0100
0010
0100
0010
,
0100
0010
0100
0010
,
1000
0001
1000
0001
,
1000
0001
0200
0310
,
0110
0000
1000
0100
,
1100
0000
0010
0001
,
0101
0000
0001
1000
,
0110
0000
1000
0100
,
1100
0000
0010
0100
,
0110
0000
0001
0010
,
0011
0000
0100
0010
,
1010
0000
1000
0100
,
0010
0001
0100
0010
,
1000
0000
1000
0100
,
0100
0010
0001
0100
,
0100
0000
0001
0010
,
0001
1000
0001
0100
,
0020
0000
0230
0000
,
0301
1000
0001
0100
,
0010
1000
0100
0001
,
0100
1100
1000
0010
,
0100
0001
0010
0001
,
0100
0101
0001
0010
,
0001
0100
1000
0010
,
0100
0110
0010
1000
,
0100
0010
0001
0010
,
0001
1001
0001
1000
,
0100
2000
3200
1300
,
1001
1001
1001
0000
,
0110
0110
0000
0000
,
0110
0110
0110
0000
,
1001
0000
0001
0000
,
0011
0011
0011
0000
,
1100
1100
0000
0000
,
1100
1100
1100
0000
,
0011
0000
1001
0000
,
0100
0010
0100
0010
,
0100
0010
0100
0010
,
0001
0010
0011
0000
,
1000
0010
1010
0000
,
0100
1000
1100
0000
,
0100
0001
0101
0000
,
0001
0010
0011
0000
,
1000
0010
1010
0000
,
0100
1000
1100
0000
,
0100
0001
0101
0000
,
0001
1000
0010
1000
,
0100
0010
0001
0100
,
0001
1000
0100
0010
,
0001
1000
0010
0100
,
0001
0100
0010
1000
,
0100
0010
0001
1000
,
0020
0000
0000
0000
,
0100
0100
0100
0130
,
0110
0110
0110
0000
,
1001
1001
0000
0000
,
1001
1001
1001
0000
,
0110
0000
0100
0000
,
1100
1100
1100
0000
,
0011
0011
0000
0000
,
0011
0011
0011
0000
,
1100
0000
1001
0000
,
1001
1001
1001
0000
,
0110
0110
0000
0000
,
1001
1001
1001
0000
,
0110
0000
0100
0000
,
0011
0011
0011
0000
,
1100
1100
0000
0000
,
1100
1100
1100
0000
,
0020
0000
0000
0000
,
0030
0000
0000
0000
;

//---------------dance-single - Copied from----------------
#NOTES:
     dance-single:
     Copied from:
     Beginner:
     2:
     0.135,0.150,0.000,0.032,0.000:
0000
0000
0000
0000
,
0000
0000
0000
0000
,
0000
0000
0000
0000
,
0000
0000
0000
0000
,
0200
0000
0000
0000
,
0000
0000
0000
0000
,
0000
0000
0000
0000
,
0000
0000
0300
0000
,
0100
0000
0000
0000
,
0001
0000
0001
0000
,
1000
0000
0000
0000
,
0100
0000
0000
0000
,
0010
0000
0000
0000
,
0001
0000
1000
0000
,
0001
0000
0000
0000
,
0100
0000
0000
0000
,
0000
0010
0000
0010
,
0000
0010
0000
0010
,
0000
0010
0000
0010
,
0000
0010
0000
0010
,
0000
0100
0000
0100
,
0000
0100
0000
0100
,
0000
0100
0000
0100
,
0000
0100
0000
0100
,
0000
0001
0000
0001
,
0000
0001
0000
0001
,
0000
0001
0000
0001
,
0000
0001
0000
0001
,
0000
1000
0000
1000
,
0000
1000
0000
1000
,
0000
1000
0000
1000
,
0000
1000
0000
1000
,
1000
0000
1000
0000
,
1000
0000
0000
0100
,
0100
0000
0100
0000
,
0100
0000
0000
0010
,
0010
0000
0010
0000
,
0010
0000
0000
0001
,
0001
0000
0001
0000
,
0001
0000
0000
0000
,
0020
0000
0000
0000
,
0000
0000
0030
0000
,
0010
0000
0000
0000
,
1000
0000
0100
0000
,
1000
0000
0000
0000
,
0100
0000
0000
0000
,
0010
0000
0000
0000
,
0001
0000
1000
0000
,
0001
0000
0000
0000
,
0100
0000
0000
0000
,
0000
0010
0000
0010
,
0000
0010
0000
0010
,
0000
1000
0000
1000
,
0000
1000
0000
1000
,
0000
0001
0000
0001
,
0000
0001
0000
0001
,
0000
0200
0000
0000
,
0000
0000
0300
0000
,
0010
0000
0010
0000
,
0010
0000
0000
0001
,
0001
0000
0001
0000
,
0001
0000
0000
1000
,
1000
0000
1000
0000
,
1000
0000
0000
0100
,
0100
0000
0100
0000
,
0100
0000
0000
0010
,
0010
0000
0010
0000
,
0010
0000
0000
0001
,
0001
0000
0001
0000
,
0001
0000
0000
1000
,
1000
0000
1000
0000
,
1000
0000
0000
0100
,
0100
0000
0100
0000
,
0200
0000
0000
0000
,
0300
0000
0000
0000
;

//---------------dance-single - Copied from----------------
#NOTES:
     dance-single:
     Copied from:
     Medium:
     6:
     0.453,0.418,0.438,0.041,0.267:
0000
0000
0000
0000
,
0000
0000
0000
0000
,
0000
0000
0000
0000
,
0000
0000
0000
0000
,
0001
0011
1000
1010
,
1000
1100
0001
0101
,
0001
0011
1000
1010
,
1000
1100
2002
3003
,
0010
0001
0100
0010
,
1000
0000
0000
0100
0000
0000
0010
0000
0001
0100
0000
0000
,
0010
1000
0100
1000
,
0010
0000
0000
0100
0000
0000
0001
0000
1000
0100
0000
0000
,
0010
0001
0100
1000
,
0010
0000
0000
0100
0000
0000
0001
0000
0010
0001
0000
0000
,
0100
0010
1000
0001
,
0100
0000
0000
1000
0000
0000
0100
0000
0001
0010
0000
0000
,
0100
1100
1000
0010
,
0100
0000
0000
0001
0000
0000
0010
0000
0001
0010
0000
0001
,
0100
0011
0001
0100
,
0010
0000
0000
1000
0000
0000
0100
0000
1000
0010
0000
1000
,
0001
1001
0010
0100
,
0001
0000
0000
0010
0000
0000
0100
0000
0010
0100
0000
0010
,
1000
1100
1000
0010
,
0100
0001
0010
0010
,
1001
0000
0000
0001
0000
0000
1000
0000
0010
1000
0000
0100
,
1000
0010
0100
0001
,
0010
0000
0000
0011
0000
0000
0001
0000
1000
0001
0000
0100
,
0001
0010
0100
0010
,
1000
0000
0000
1001
0000
0000
0001
0000
0010
1000
0000
0001
,
0100
0001
1000
0100
,
0010
0100
0010
0100
,
0010
0000
1000
0100
0000
0001
0100
0000
1000
0100
0000
0001
,
0100
1100
0100
0101
,
0100
0000
0000
1100
0000
0000
0100
0000
0010
0100
0000
0100
,
0010
0011
0010
1010
,
0010
0000
0000
0011
0000
0000
0010
0000
1000
0001
0000
0001
,
1000
1100
1000
1010
,
1000
0000
0000
1001
0000
0000
1000
0000
0100
0010
0000
0010
,
0001
1001
0001
0101
,
0001
0011
0001
1001
,
0020
0000
0000
0000
,
0000
0000
0000
0030
,
1000
0000
0000
0100
0000
0000
0010
0000
0001
0100
0000
0100
,
0010
0000
0000
1000
0000
0000
0100
0000
1000
0010
0000
0100
,
0001
0000
0000
0010
0000
0000
0001
0000
0100
0010
0000
0010
,
1000
0000
0000
0100
0000
0000
0010
0000
0001
1000
0000
0001
,
1000
0000
0000
0100
0000
0000
0010
0000
0001
0100
0000
0010
,
1000
0000
0000
0100
0000
0000
1000
0000
0100
1000
0000
1000
,
0010
0000
0000
0100
0000
0000
0100
0000
0010
0001
0000
0010
,
1000
0000
0000
0100
0000
0000
0010
0000
0001
0100
0000
0001
,
1000
0000
0000
0101
0000
0000
0001
0000
0010
0001
0000
0010
,
0001
0100
0010
1000
,
0100
0000
0000
1100
0000
0000
1000
0000
0010
0100
0000
0010
,
0100
0001
1000
0001
,
0100
0000
0000
0011
0000
0000
1000
0000
0100
1000
0000
0010
,
1000
0000
0000
0100
0000
0000
0010
0000
0001
1000
0000
1000
,
0200
0000
0000
0000
,
0020
0000
0000
0330
,
1000
1001
0001
0101
,
0100
0000
0000
0110
0000
0000
0010
0000
0010
1000
0000
1000
,
0100
0110
0010
0011
,
0001
0000
0000
1001
0000
0000
1000
0000
1000
0001
0000
1000
,
0100
0110
0010
1010
,
1000
0000
0000
1100
0000
0000
0100
0000
0100
0001
0000
1000
,
0010
1010
0010
0011
,
0010
0000
0000
1010
0000
0000
1000
0000
1000
0100
0000
0010
,
0001
0101
0100
1100
,
1000
0000
0000
1010
0000
0000
1000
0000
0001
0100
0000
0001
,
1000
1100
0100
0101
,
0001
0000
0000
1001
0000
0000
1000
0000
0001
1000
0000
0001
,
0010
0110
0010
0011
,
0010
0000
0000
0110
0000
0000
0100
0000
1000
0100
0000
1000
,
0010
0110
0010
0011
,
0010
0000
0000
0010
0000
1000
0010
0000
1000
0010
0000
0000
;

//---------------dance-single - Copied from----------------
#NOTES:
     dance-single:
     Copied from:
     Hard:
     8:
     0.547,0.509,0.543,0.154,0.462:
0000
0000
0000
0000
,
0000
0000
0000
0000
,
0000
0000
0000
0000
,
0000
0000
0000
0000
,
0001
0000
1000
0001
0000
0100
0001
0000
0010
0001
0000
0000
,
0100
0000
0001
1000
0000
0010
1000
0000
0100
1000
0000
0000
,
0001
0000
0100
0010
0000
0000
1000
0000
0010
0100
0000
0000
,
0010
0000
1000
0100
0000
0010
0001
0000
0001
0100
0000
0100
,
0010
0000
0000
0110
0000
0000
1000
0000
0100
1000
0000
1000
,
0010
0000
0000
0110
0000
0000
0010
0000
0001
0100
0000
0100
,
0010
0000
0000
0110
0000
0000
1000
0000
0001
0100
0000
0001
,
1000
0000
0000
1001
0000
0000
1000
0000
1000
0100
0000
0010
,
0001
0000
0000
0101
0000
0000
0001
0000
1000
0010
0000
0100
,
0010
0000
0000
1001
0000
0000
0001
0000
0100
0010
0000
1000
,
0100
0000
0000
0110
0000
0000
0001
0000
1000
0001
0000
0001
,
0100
0000
0000
1010
0000
0000
0100
0000
0010
0001
0000
0001
,
0200
0000
0000
0310
0000
0000
1000
0000
0100
0010
0000
0001
,
0200
0000
0000
0310
0000
0000
1000
0000
0010
1000
0000
1000
,
0200
0000
0000
0310
0000
0000
0001
0000
1000
0001
0000
0001
,
0020
0000
0000
0130
0000
0000
0010
0000
0001
0010
0000
0100
,
2000
0000
0000
3100
0000
0000
0010
0000
0100
0010
0000
0010
,
0002
0000
0000
1003
0000
0000
0001
0000
1000
0100
0000
0100
,
2000
0000
0000
3010
0000
0000
0100
0000
0001
1000
0000
0001
,
0020
0000
0000
0031
0000
0000
0100
0000
0001
1000
0000
0010
,
0200
0000
0000
0310
0000
0000
1000
0000
0100
0001
0000
0100
,
2000
0000
0000
3001
0000
0000
0010
0000
0010
0001
0000
0010
,
0200
0000
0000
0310
0000
0000
0001
0000
1000
0100
0000
1000
,
0020
0000
0000
1030
0000
0000
0010
0000
1000
0100
0000
0010
,
0200
0000
0000
0310
0000
0000
0001
0000
1000
0010
0000
0100
,
0002
0000
0000
1003
0000
0000
0010
0000
0100
0010
0000
0001
,
2000
0000
0000
3100
0000
0000
0100
0000
1000
0010
0000
0010
,
0100
0000
1000
0001
1000
0001
1000
0000
0100
0001
0000
0001
,
1000
1100
0001
0101
,
1001
0000
0000
0110
0000
0000
0100
0000
1000
0100
0000
0100
,
0010
0011
1010
1100
,
0100
0000
0000
0010
0000
0001
1000
0000
0010
0100
0000
0000
,
0010
0011
0010
1010
,
1100
0000
0000
1001
0000
0000
1000
0000
0100
0010
0000
0010
,
0001
0011
1100
0110
,
0100
0000
0001
0100
0000
0010
0100
0000
0010
1000
0000
1000
,
0100
0000
0010
0100
0000
0000
0100
0000
0010
0100
0000
0000
,
0100
0000
0010
0100
0000
0000
0100
0000
0010
0100
0000
0000
,
1000
1100
0001
0101
,
0010
0110
0100
1100
,
0001
0101
1000
1010
,
0100
0000
0000
0011
0000
0000
0100
0000
0000
0100
0000
0010
,
1000
1001
0010
1001
,
0001
0110
1000
0110
,
0001
0011
0010
1010
,
1000
0000
0000
1100
0000
0000
0001
0000
0000
1000
0000
0001
,
0010
0000
0000
0110
0000
0000
1000
0000
0001
1000
0000
0200
,
0000
0000
0010
0300
0000
0000
1000
0000
1000
0100
0000
0100
,
0010
0000
0000
1001
0000
0000
0001
0000
0100
0010
0000
0020
,
0000
0000
1000
0030
0000
0000
0001
0000
1000
0001
0000
1000
,
0010
0000
0000
1100
0000
0000
0010
0000
0001
0100
0000
0000
,
1000
0000
0000
0010
0000
0000
0100
0000
0001
1000
0000
0000
,
0200
0000
0000
0000
,
0010
0000
0000
0010
0000
0000
0310
0000
0010
0100
0000
0001
,
1000
1100
0010
0110
,
0011
0000
0000
0101
0000
0000
0010
0000
0001
0100
0000
0100
,
1000
1100
0110
0011
,
0100
0000
0000
0010
0000
1000
0100
0000
0010
0001
0000
0001
,
0100
1001
0010
1001
,
1100
0000
0000
0101
0000
0000
0010
0000
1000
0100
0000
0100
,
0010
0101
1001
1010
,
1000
0000
0000
0001
0000
0010
0100
0000
0010
0001
0000
0001
,
1000
1010
1000
1001
,
0101
0000
0000
1001
0000
0000
0010
0000
0100
0001
0000
0100
,
1000
0110
0011
0110
,
1000
0000
0000
0100
0000
0001
1000
0000
0001
0100
0000
0001
,
1000
1100
0001
0101
,
0110
0000
0000
1001
0000
0000
1000
0000
0001
1000
0000
1000
,
0100
1010
0011
1010
,
0010
0000
1000
0010
0000
1000
0100
0010
0001
0200
0000
0300
;

//---------------dance-single - Copied from ----------------
#NOTES:
     dance-single:
     Copied from:
     Challenge:
     9:
     0.598,0.539,0.697,0.000,0.636: // measure 1
0000
0000
0000
0000
,  // measure 2
0000
0000
0000
0000
,  // measure 3
0000
0000
0000
0000
,  // measure 4
0000
0000
0000
0000
,  // measure 5
1000
0000
0100
1000
0000
0100
1000
0000
0100
1000
0000
0010
,  // measure 6
1000
0000
0010
1000
0000
0010
1000
0000
0010
1000
0000
0001
,  // measure 7
1000
0000
0001
1000
0000
0001
1000
0000
0001
1000
0000
0001
,  // measure 8
0010
0000
0001
0010
0000
0001
0010
0000
0010
0100
0000
0100
,  // measure 9
0010
0000
0010
0100
0000
0100
0001
0000
0010
0001
0000
0001
,  // measure 10
0100
0000
0010
1000
0000
1000
0100
0000
0100
0010
0000
0010
,  // measure 11
0001
0000
0001
0100
0000
1000
0100
0000
0100
0010
0000
0010
,  // measure 12
1000
0000
0001
1000
0000
1000
0100
0000
0010
0001
0000
0010
,  // measure 13
0100
0000
0100
0010
0000
0001
1000
0000
0100
0001
0000
0001
,  // measure 14
0100
0000
1000
0001
0000
0001
0100
0000
0100
0010
0000
0100
,  // measure 15
1000
0000
0100
0010
0000
0100
0010
0000
0010
1000
0000
0010
,  // measure 16
0100
0000
0001
0100
0000
0100
0010
0000
0010
1000
0000
1000
,  // measure 17
0010
0000
0000
0110
0000
0000
0010
0000
1000
0100
0000
0100
,  // measure 18
0001
0100
0110
0011
,  // measure 19
0101
0000
0000
0110
0000
0000
0010
0000
0010
1000
0000
1000
,  // measure 20
0100
1000
1010
0110
,  // measure 21
0101
0000
0000
0011
0000
0000
0010
0000
0010
0001
0000
0001
,  // measure 22
0100
0010
1100
1001
,  // measure 23
0101
0000
0000
0110
0000
0000
1000
0000
0100
0010
0000
0100
,  // measure 24
0001
0100
0011
1100
,  // measure 25
0011
0000
0000
1100
0000
0000
1000
0000
0010
0100
0000
0100
,  // measure 26
0001
1000
0110
1100
,  // measure 27
0110
0000
0000
0011
0000
0000
0010
0000
0010
0100
0000
0100
,  // measure 28
1000
1100
0110
0101
,  // measure 29
0011
0000
0000
0001
0000
0100
0001
0000
0001
0010
0000
0010
,  // measure 30
0100
0000
0010
0001
0000
1000
0010
0000
0010
1000
0000
0100
,  // measure 31
0010
0100
1000
0001
,  // measure 32
0100
0000
0001
0010
0001
0010
0001
0000
0001
0100
0000
0100
,  // measure 33
0010
1010
1001
1100
,  // measure 34
1010
0000
0000
0101
0000
0000
0010
0000
0001
0100
0000
0100
,  // measure 35
0010
1100
1010
0110
,  // measure 36
0001
0000
0010
0001
0000
0001
0100
0000
0100
0010
0000
0010
,  // measure 37
1000
1001
0011
1010
,  // measure 38
0101
0000
0000
0110
0000
0000
0010
0000
0001
0100
0000
0100
,  // measure 39
0001
1001
0110
1001
,  // measure 40
0100
0000
1000
0010
0000
0010
0100
0001
0010
0001
0100
0010
,  // measure 41
1000
0000
0001
1000
0000
0001
1000
0000
0001
1000
0000
0001
,  // measure 42
1000
0000
0001
1000
0000
0001
1000
0000
0001
1000
0000
0001
,  // measure 43
0100
0000
0000
0110
0000
0000
0010
0000
1000
0100
0000
0100
,  // measure 44
0010
0000
0000
0011
0000
0000
0010
0000
0100
0001
0000
1000
,  // measure 45
0100
0000
0000
0011
0000
0000
1000
0000
0001
0100
0000
0010
,  // measure 46
1000
0000
0000
1001
0000
0000
0001
0000
0100
0010
0000
0100
,  // measure 47
0001
0000
0000
1100
0000
0000
0001
0000
1000
0010
0000
0010
,  // measure 48
0100
0000
0000
0110
0000
0000
0010
0000
1000
0001
0000
0001
,  // measure 49
0010
0000
0000
0110
0000
0000
0100
0000
1000
0100
0000
0100
,  // measure 50
0010
0000
0000
1001
0000
0000
0001
0000
1000
0010
0000
0100
,  // measure 51
0010
0000
0000
0011
0000
0001
1000
0000
0001
0000
0000
1000
,  // measure 52
0000
0000
1001
0000
0000
0001
1000
0000
1000
0100
0000
0100
,  // measure 53
0010
0000
0000
1100
0000
0001
1000
0000
0001
0000
0000
1000
,  // measure 54
0000
0000
1001
0000
0000
0001
0100
0000
0010
1000
0000
1000
,  // measure 55
0100
0000
0000
0110
0000
0000
0010
0000
0010
0001
0000
0000
,  // measure 56
0100
0000
0001
0100
0000
0000
0010
0000
1000
0100
0000
0000
,  // measure 57
0010
0010
0010
0010
,  // measure 58
0010
0000
1000
0010
0000
0001
0010
0000
1000
0010
0000
0001
,  // measure 59
0010
0110
1100
0011
,  // measure 60
1100
0000
0000
1001
0000
0000
0001
0000
0100
0001
0000
0010
,  // measure 61
0100
1010
0101
0110
,  // measure 62
0001
0000
0100
0010
0000
0010
1000
0000
1000
0100
0000
0100
,  // measure 63
0001
0101
1100
1010
,  // measure 64
0101
0000
0000
1001
0000
0000
0001
0000
0100
0010
0000
0100
,  // measure 65
1000
1100
0110
0101
,  // measure 66
0001
0000
1000
0010
0000
0100
0001
0000
1000
0001
0000
0001
,  // measure 67
1000
1010
0011
0101
,  // measure 68
1100
0000
0000
0101
0000
0000
1000
0000
0010
0100
0000
0100
,  // measure 69
0001
0011
0110
1100
,  // measure 70
1000
0000
0001
0100
0000
0100
0001
0000
1000
0100
0000
0100
,  // measure 71
0010
0011
1100
1010
,  // measure 72
0101
0000
0000
1001
0000
0000
0010
0000
0100
0001
0000
0001
,  // measure 73
0010
1010
1100
0101
,  // measure 74
0100
0000
0010
0100
0000
0010
0100
0001
0010
0100
1000
0010
;
