#TITLE:NCIS THEME SONG;
#SUBTITLE:;
#ARTIST:Numeriklab;
#TITLETRANSLIT:;
#SUBTITLETRANSLIT:;
#ARTISTTRANSLIT:;
#GENRE:;
#CREDIT:;
#MENUCOLOR:;
#NEWMETERSYSTEM:NO;
#BANNER:NCIS THEME SONG-bn.png;
#BACKGROUND:NCIS THEME SONG-bg.png;
#LYRICSPATH:;
#CDTITLE:MixMania III CD Title.png;
#MUSIC:NCIS THEME SONG.mp3;
#OFFSET:-0.380;
#SAMPLESTART:3.940;
#SAMPLELENGTH:12.000;
#SELECTABLE:YES;
#LISTSORT:;
#BPMS:0.000=135.020;
#STOPS:;
#BGCHANGES:;
#ATTACKS:;

//---------------dance-single - ----------------
#NOTES:
     dance-single:
     :
     Easy:
     3:
     0.254,0.321,0.085,0.145,0.000:
0000
0000
0000
0000
,
0000
0000
0000
0000
,
1000
0100
0001
0100
,
1000
0010
0100
0001
,
0020
0001
0030
0100
,
2000
0100
3100
0010
,
1001
0001
0100
0000
,
0010
1000
0100
1000
,
0200
0000
1300
0000
,
0200
0000
1000
0010
,
1300
1000
0100
0000
,
0010
0001
0100
0000
,
0010
0010
0001
1000
,
0001
0100
1000
0100
,
2002
0000
0000
0000
,
0000
0000
0000
3003
,
0100
1000
0100
0010
,
0001
0100
0010
0100
,
0001
0010
0100
1000
,
0100
0001
0100
1000
,
0010
0100
0001
0100
,
0010
1000
0100
0010
,
0001
0001
1000
0010
,
1000
1000
0010
0100
,
0020
0000
1000
0000
,
0100
0000
1000
1030
,
1001
0001
0100
0000
,
0010
1000
0100
0000
,
0010
0001
1000
0000
,
0100
1000
0010
0000
,
0100
0001
1000
0000
,
0010
1000
0001
0000
,
0010
0001
0100
0000
,
0010
1000
0100
0000
,
0200
0000
0010
0000
,
0001
0000
0010
0310
,
1001
0000
0100
0000
,
0100
0000
0100
0000
,
0010
0010
0100
0000
,
0100
0000
0100
0100
,
0001
0001
1000
0000
,
1000
0000
1000
0000
,
0001
0001
1000
0000
,
1000
0001
1000
0100
,
0110
0000
0100
0000
,
0100
0000
0100
0010
,
0002
1000
0000
0003
,
1000
0100
0010
0100
,
0020
0100
0030
0001
,
0002
1000
0100
1003
,
1000
0100
1000
0100
,
1000
0200
0320
0032
,
0023
0000
0100
0030
,
0100
0000
0100
0000
,
0110
0000
0100
1000
,
0100
0000
0010
0000
,
0011
0000
0001
1000
,
0001
0000
1000
0000
,
1100
0000
1000
0010
,
0100
0000
0100
0000
,
0110
0000
0001
1000
,
0010
0000
0010
0000
,
0220
0000
0000
0330
;

//---------------dance-single - Copied from----------------
#NOTES:
     dance-single:
     Copied from:
     Beginner:
     2:
     0.098,0.159,0.068,0.000,0.000:
0000
0000
0000
0000
,
0000
0000
0000
0000
,
0010
0010
0000
0000
,
0000
0000
1000
1000
,
1000
0000
0000
0001
,
0001
0000
0000
0000
,
1001
0000
0000
0000
,
0001
0000
0000
0000
,
0100
0000
0010
0000
,
0100
0000
0010
0010
,
0010
0000
0000
0000
,
1000
0000
0000
0000
,
0001
0000
0000
0000
,
1000
1000
1000
1000
,
1000
0000
0000
0000
,
0000
0000
0000
0000
,
0100
0000
0000
0000
,
0100
0000
0000
0000
,
0010
0000
0000
0000
,
0010
0000
0000
0000
,
0001
0000
0000
0000
,
1000
0000
0000
0000
,
0001
0000
0000
0000
,
0100
0000
0000
0000
,
0010
0000
0000
0000
,
0010
0000
0000
0000
,
1001
0000
0000
0000
,
0100
0000
0000
0000
,
1000
0000
0000
0000
,
0010
0000
0000
0000
,
0100
0000
0000
0000
,
0001
0000
0000
0000
,
1000
0000
0000
0000
,
0100
0000
0000
0000
,
0010
0000
0000
0000
,
0001
0000
0000
0000
,
1001
0000
0000
0000
,
0000
0000
0000
0000
,
0100
0000
0000
0000
,
0000
0000
0000
0000
,
0010
0000
0000
0000
,
0000
0000
0000
0000
,
1000
0000
0000
0000
,
0100
0000
0000
0000
,
1001
0000
0000
0000
,
0000
0000
0000
0000
,
0100
0100
0000
0000
,
0000
0000
0001
0001
,
0001
0000
0000
1000
,
1000
0000
0000
0100
,
0100
0000
0000
0000
,
0000
0010
0010
0010
,
0010
0000
0010
0000
,
0100
0000
0000
0000
,
1001
0000
0000
0000
,
0100
0000
0000
0000
,
1001
0000
0000
0000
,
0010
0000
0000
0000
,
1001
0000
0000
0000
,
1000
0000
0000
0000
,
1001
0000
0000
0000
,
0001
0000
0000
0000
,
0100
0000
0000
0000
;

//---------------dance-single - Copied from----------------
#NOTES:
     dance-single:
     Copied from:
     Medium:
     5:
     0.332,0.375,0.120,0.068,0.000:
0000
0000
0000
0000
,
0000
0000
0000
0000
,
0001
1000
0001
0100
0001
0000
0010
0000
,
0001
0010
0001
1000
0001
0000
1000
0000
,
0100
0000
1001
0000
0100
0000
1000
0010
,
1000
0000
0100
0000
0010
0000
0001
0010
,
0100
0100
1000
0100
,
0010
0001
1000
0001
,
0100
0000
0010
1000
0100
0000
0010
0000
,
0001
0000
0100
0001
0010
0100
1000
0000
,
0100
0100
1000
0010
,
0100
0001
0010
0010
,
0011
0001
1000
0100
,
1100
1000
1010
0110
,
0102
0000
0000
0000
,
0200
0000
0000
0303
,
1001
0001
1000
0100
,
1000
0010
0100
0001
,
1000
0100
0010
0001
,
1000
0001
0100
0010
,
1000
0000
0010
1000
0010
0000
0100
0000
,
0001
0000
0010
0001
0010
0000
0001
0000
,
0100
0000
0010
1000
0100
0000
0100
0000
,
0010
0000
0010
0001
0100
0000
0100
0000
,
0010
0000
0010
1000
0001
0000
0100
0000
,
0100
0000
0001
0010
1000
0010
0001
0000
,
1001
0001
0100
0010
,
1000
0100
0010
0001
,
1001
0100
1000
0010
,
0001
0010
1000
0100
,
0010
0001
1000
0001
,
0100
0010
1000
0100
,
1000
0100
1000
0010
,
0100
0001
0010
0001
,
1000
0000
0000
0001
0100
0000
0001
0000
,
1000
0000
0000
0010
1000
0100
0010
0000
,
0011
0000
0100
0000
,
0010
0000
0100
0000
,
0010
0000
0100
0000
0010
0000
1000
0100
,
0000
0000
0000
0010
0000
0100
0000
0001
,
0100
0000
0010
0000
1000
0000
0001
1000
,
0000
0001
0000
0000
0000
0000
0000
0000
,
1000
0000
0100
0000
0010
0000
0001
0100
,
0001
0000
0010
0000
0100
0000
1000
0100
,
2000
0000
3200
0000
,
0320
0000
0000
0000
0032
0000
0000
0003
,
1001
0001
0010
0001
0000
0000
0000
0000
,
0100
0010
1000
0100
0010
0000
0100
0000
,
0010
0000
0001
0000
0100
0000
0001
0010
,
0001
0000
0100
0000
0010
0000
1000
0100
,
1000
0100
0010
0001
,
1000
0000
0010
0100
0010
0000
0010
0000
,
0110
0000
0010
1000
0100
0000
0010
0000
,
0001
0100
0001
1000
,
1100
0000
1000
0000
0010
0000
0100
0001
,
0000
0010
0000
0000
0001
0000
0100
0000
,
0001
0000
0010
0000
0001
0000
1000
0100
,
0000
1000
0000
0000
0010
0000
0100
0000
,
1000
0000
0100
0000
0010
0000
0001
1000
,
0000
0100
0000
0000
0010
0000
0001
0000
,
1000
0000
0001
0000
0100
0000
0010
1000
,
0000
0100
0000
0000
0010
0000
0010
0000
,
2002
0000
0000
3003
;

//---------------dance-single - Copied from----------------
#NOTES:
     dance-single:
     Copied from:
     Hard:
     6:
     0.413,0.455,0.273,0.120,0.000: // measure 1
0000
0000
0000
0000
,  // measure 2
0000
0000
0000
0000
,  // measure 3
1100
1000
0100
0010
0001
0000
0100
0000
,  // measure 4
0001
0010
0001
0010
0100
1000
0100
1000
,  // measure 5
0020
0000
0230
0000
0310
0000
0001
0100
,  // measure 6
0010
0000
1000
0000
0100
0000
0010
0001
,  // measure 7
0011
0000
0001
0100
0010
0000
1000
0000
,  // measure 8
0100
0000
1000
0010
0100
0000
0001
0010
,  // measure 9
0100
0000
0001
1000
0001
0000
1001
0000
,  // measure 10
0110
0000
0010
1000
0100
0010
0001
0000
,  // measure 11
0101
0000
1100
0000
0010
1000
0100
0000
,  // measure 12
0010
0000
0100
0000
0010
0001
0100
0000
,  // measure 13
0011
0000
0010
0000
0100
0010
0100
0000
,  // measure 14
1100
0000
0010
0100
0011
0000
0110
0000
,  // measure 15
2100
0000
0000
0000
,  // measure 16
0000
0000
0000
3000
,  // measure 17
1001
0000
0001
0000
0100
0010
1000
0000
,  // measure 18
0100
0010
0001
0000
1000
0001
1000
0000
,  // measure 19
1001
0000
0001
0000
0010
0001
0100
0000
,  // measure 20
0010
1000
0100
0000
1000
0010
1000
0000
,  // measure 21
1100
0000
1000
0000
0010
0100
0001
0000
,  // measure 22
0010
0100
1000
0000
0100
0010
0001
0000
,  // measure 23
1010
0000
0010
0000
0001
0100
0010
0000
,  // measure 24
1000
0010
0100
0000
0001
1000
0001
0000
,  // measure 25
0011
0000
0100
0001
0010
0000
0100
0000
,  // measure 26
0010
0000
1000
0010
0100
0001
0010
0000
,  // measure 27
0101
0000
1100
0000
0010
0000
1000
0100
,  // measure 28
0010
0001
0100
0010
,  // measure 29
0001
0000
1000
0000
0001
0000
0100
0010
,  // measure 30
1000
0100
0010
0001
,  // measure 31
0101
0000
1100
0000
0010
0000
1000
0001
,  // measure 32
0100
0010
1000
0100
,  // measure 33
0010
0000
0010
0000
0100
0000
0001
1000
,  // measure 34
0100
0010
0100
0001
,  // measure 35
0110
0000
1001
0100
0100
0000
0001
0000
,  // measure 36
1010
0000
1000
0001
0010
0100
1000
0100
,  // measure 37
1200
0001
1000
1000
,  // measure 38
1000
0001
1000
1300
,  // measure 39
0120
0001
1000
1000
,  // measure 40
0001
1000
1000
0031
,  // measure 41
0210
0001
1000
1000
,  // measure 42
0001
1000
0001
0301
,  // measure 43
0021
1000
0001
0001
,  // measure 44
1000
0001
1000
0031
,  // measure 45
0202
0000
0000
0303
,  // measure 46
0010
1000
0200
1000
,  // measure 47
1300
0100
0010
0001
0100
0000
0001
0000
,  // measure 48
1000
0001
0100
0010
1000
0100
0010
0001
,  // measure 49
0200
0000
0320
0000
1030
0000
0100
0010
,  // measure 50
0001
0000
1000
0000
0100
0000
1000
0010
,  // measure 51
0010
0100
0100
0010
,  // measure 52
0100
0000
0100
0001
0100
0000
0100
0000
,  // measure 53
1100
0000
1000
0100
0010
0000
0010
0000
,  // measure 54
0011
0001
0100
0010
,  // measure 55
0101
0000
0100
0000
0010
0000
0001
0100
,  // measure 56
0010
1000
0100
0000
1000
0000
0100
0000
,  // measure 57
0010
0000
0001
0000
0100
0000
0010
1000
,  // measure 58
0100
0010
0001
0000
0100
0000
0010
0000
,  // measure 59
1000
0000
0001
0000
1000
0000
0100
0010
,  // measure 60
0001
1000
0100
0010
0001
1000
0010
1000
,  // measure 61
0100
0000
0010
0000
0001
0000
0100
0001
,  // measure 62
0010
0001
0100
0000
0001
0000
1000
0000
,  // measure 63
2200
0000
0000
3300
;

//---------------dance-single - Copied from ----------------
#NOTES:
     dance-single:
     Copied from:
     Challenge:
     7:
     0.484,0.482,0.333,0.068,0.034: // measure 1
0000
0000
0000
0000
,  // measure 2
0000
0000
0000
0000
,  // measure 3
0110
0001
1000
0001
0100
0000
0010
0000
,  // measure 4
1000
0100
0010
0001
1000
0001
0100
0010
,  // measure 5
0100
0000
0101
0000
1000
0000
0100
0010
,  // measure 6
1000
0000
1100
0000
0110
0000
0011
0100
,  // measure 7
0010
0000
0000
0010
0000
0000
0100
0000
0001
0000
0000
0000
1000
0000
0000
0000
,  // measure 8
0001
0100
0010
1000
0100
0010
0001
1000
,  // measure 9
0002
0000
0103
0010
0020
0000
0100
0000
,  // measure 10
1030
0000
0100
1000
0010
0100
0001
0100
,  // measure 11
0110
0000
0000
0010
1000
0000
0100
0000
0010
0000
0000
0000
0001
0000
0000
0000
,  // measure 12
1000
0000
0000
0001
0100
0000
0000
0010
1000
0000
0100
0000
0010
0000
0001
0000
,  // measure 13
0100
0000
0000
1000
0100
0000
0000
0100
0010
0000
0010
0000
0001
0000
0100
0000
,  // measure 14
0001
0000
0000
0001
0100
0000
0000
0100
0010
0000
1000
0000
0100
0000
1000
0000
,  // measure 15
2200
0000
0000
0000
,  // measure 16
0000
0000
0000
3300
,  // measure 17
1100
1000
0010
0100
0001
0010
0001
0100
,  // measure 18
0010
1000
0100
0001
0100
1000
0010
0000
,  // measure 19
0100
0001
0010
0100
1000
0010
0100
0001
,  // measure 20
0010
0100
1000
0100
0010
0001
0100
0001
,  // measure 21
0100
0000
0010
1000
0100
0000
1000
0010
,  // measure 22
0100
0000
0001
0100
1000
0100
0001
0010
,  // measure 23
0100
0000
0100
1000
0010
0000
0100
0001
,  // measure 24
0010
0100
1000
0010
0100
0001
0010
0000
,  // measure 25
0100
1000
0010
0000
0100
0001
0010
0000
,  // measure 26
0100
1000
0010
0100
0001
0010
0001
0100
,  // measure 27
0101
0000
1100
0000
1000
0010
0100
0001
,  // measure 28
1000
0001
0100
0010
1000
0100
0010
0001
,  // measure 29
0101
0000
1100
0000
1000
0010
0100
0001
,  // measure 30
0010
0001
0010
1000
0010
0001
0100
0010
,  // measure 31
1010
0000
0011
0000
0100
0001
0010
1000
,  // measure 32
0100
1000
0010
0100
0001
0010
0001
0100
,  // measure 33
0010
0000
1010
0000
1000
0100
0010
0001
,  // measure 34
0100
0001
0010
0100
1000
0010
0100
0001
,  // measure 35
0101
0000
1000
0100
1100
0000
0110
0000
,  // measure 36
0011
0000
0100
0001
0001
0010
0100
1000
,  // measure 37
1001
0000
0100
0000
0001
0000
0100
0001
,  // measure 38
0000
1000
0000
0100
0000
1000
0000
0010
,  // measure 39
0100
0000
0010
0000
0100
0000
0001
0010
,  // measure 40
0000
0100
0000
1000
0000
0100
0000
0010
,  // measure 41
0001
1000
0001
0000
0010
1000
0100
0010
,  // measure 42
0000
0100
0000
0010
0000
0100
0000
0010
,  // measure 43
0001
1000
0010
0000
0100
0001
0010
0000
,  // measure 44
0100
1000
0010
0100
0001
0010
0001
0100
,  // measure 45
2002
0000
0000
0000
,  // measure 46
0000
0000
0000
3003
,  // measure 47
1000
0100
0010
0001
0100
0000
0001
0000
,  // measure 48
0100
0001
0010
0100
1000
0010
0100
0001
,  // measure 49
0100
0000
0110
0000
1000
0000
0100
1000
,  // measure 50
0010
0000
0110
0000
0101
0000
0011
0010
,  // measure 51
0100
0100
1000
1000
,  // measure 52
0100
0000
0100
0010
0001
0000
0001
0000
,  // measure 53
0101
0000
0001
0010
0011
0000
0100
0000
,  // measure 54
1000
0000
1000
0000
0110
1000
0100
0010
,  // measure 55
1001
1000
1100
0000
1010
0000
0100
1000
,  // measure 56
0000
0100
0000
0010
0000
0001
0010
0000
,  // measure 57
0011
0010
0110
0000
1100
0000
1000
0010
,  // measure 58
0000
0100
0000
0001
0000
1000
0000
0001
,  // measure 59
0110
1000
1001
0000
0100
0000
0010
1000
,  // measure 60
0000
0100
0000
0010
0000
0001
0000
0100
,  // measure 61
0101
0100
1100
0000
0001
0000
1000
0100
,  // measure 62
0010
0001
1000
0000
0001
1000
0010
0000
,  // measure 63
2002
0000
0000
3003
;
