#TITLE:Lolitabot (Initial P Remix);
#SUBTITLE:;
#ARTIST:Lolitabot;
#TITLETRANSLIT:;
#SUBTITLETRANSLIT:;
#ARTISTTRANSLIT:;
#GENRE:;
#CREDIT:;
#MENUCOLOR:;
#NEWMETERSYSTEM:NO;
#BANNER:Lolitabot-bn.png;
#BACKGROUND:Lolitabot-bg.png;
#LYRICSPATH:;
#CDTITLE:MixMania III CD Title.png;
#MUSIC:Lolitabot (Initial P Remix).mp3;
#OFFSET:-0.020;
#SAMPLESTART:10.780;
#SAMPLELENGTH:11.960;
#SELECTABLE:YES;
#LISTSORT:;
#BPMS:0.000=178.000;
#STOPS:;
#BGCHANGES:;
#ATTACKS:;

//---------------dance-single - ----------------
#NOTES:
     dance-single:
     :
     Easy:
     4:
     0.386,0.397,0.072,0.289,0.000:
0000
0000
0000
0000
,
0000
0000
0000
0000
,
0000
0000
0000
0000
,
0000
0000
0000
0000
,
1000
0001
1000
0001
,
0010
0100
1000
0001
,
2000
0010
3020
0030
,
0100
0001
0020
0030
,
0100
1000
0100
1000
,
0200
0320
0230
0300
,
0001
0100
0001
0100
,
0002
0023
0230
0300
,
1000
0100
1000
0100
,
0020
0032
2003
3000
,
0001
0001
1000
1000
,
0001
1000
1001
0000
,
0010
0010
0100
0010
,
1000
1000
0100
0000
,
1000
0100
0010
0100
,
1000
0001
0001
0000
,
0010
0001
0010
0001
,
0100
0001
0100
0001
,
1000
0001
1000
0001
,
0100
0100
0200
0000
,
0310
1000
0100
0010
,
0000
0001
0100
0001
,
0000
1000
0100
1000
,
0000
0010
0100
0010
,
0000
1000
0001
0100
,
0000
0001
1000
0100
,
0000
0010
0100
0010
,
0000
1000
0200
1300
,
1100
1000
0100
0010
,
0001
0100
1000
0100
,
0002
1000
0203
0300
,
0001
1000
0020
0030
,
1000
0010
0100
0001
,
0100
0010
0010
1000
,
0200
0010
0320
0030
,
0001
0010
0200
0300
,
1000
1000
0100
1000
,
0010
0100
0001
0000
,
0010
0001
0100
0010
,
1000
0100
1000
0000
,
1000
1001
0001
1001
,
1000
0100
0010
0000
,
0010
0110
0100
0110
,
0010
1000
0001
1000
,
0100
0010
0100
0010
,
2000
3000
0002
0003
,
0100
0001
0100
1000
,
0200
0300
0020
0030
,
0100
0100
0100
0100
,
0001
0001
0001
0001
,
1000
1000
0100
0100
,
0010
0100
0020
0000
,
0130
1000
0001
1000
,
0000
0010
0001
1000
,
0000
0100
1000
0010
,
0000
0100
0010
0100
,
0000
0001
0010
0001
,
0000
1000
0010
1000
,
0000
0001
0100
0010
,
0000
0010
0200
0301
,
1001
1000
0100
0010
,
0000
0100
0001
0010
,
0000
0001
1000
0100
,
0000
0010
0100
1000
,
0000
0100
1000
0001
,
0000
0010
0100
0001
,
0000
0010
0010
0100
,
0000
0001
0100
1000
,
0100
0001
0100
0010
,
1000
0100
0100
0010
,
0002
0100
0023
0030
,
1000
0100
2000
3000
,
0010
0100
0001
1000
,
0100
0010
0001
1000
,
0020
0100
0230
0300
,
0010
0100
0002
0003
,
0110
0000
0000
0000
;

//---------------dance-single - Copied from----------------
#NOTES:
     dance-single:
     Copied from:
     Beginner:
     2:
     0.160,0.217,0.072,0.000,0.000:
0000
0000
0000
0000
,
0000
0000
0000
0000
,
0000
0000
0000
0000
,
0000
0000
0000
0000
,
0000
0000
0000
0000
,
0000
0000
0000
0000
,
0000
0000
0000
0000
,
0000
0000
0000
0000
,
0100
0000
0000
0000
,
0100
0100
0100
0000
,
0010
0000
0000
0000
,
0010
0010
0010
0000
,
0001
0000
0000
0000
,
0001
0001
0001
0000
,
1000
0000
0000
0000
,
1000
1000
1000
0000
,
1001
0000
0000
0000
,
1001
0000
0000
0000
,
0100
0000
0010
0000
,
0100
0000
0010
0000
,
1001
0000
0000
0000
,
1001
0000
0000
0000
,
1000
1000
1000
0000
,
0001
0001
0001
0000
,
0000
0100
0100
0000
,
0000
0010
0010
0000
,
0000
1000
1000
0000
,
0000
0001
0001
0000
,
0000
0100
0100
0000
,
0000
0010
0010
0000
,
0000
1000
1000
0000
,
0000
0001
0001
0000
,
0001
0000
0000
0000
,
0000
0000
0000
0000
,
0000
0000
0000
0000
,
0000
0000
0000
0000
,
1000
0000
0000
0000
,
0000
0000
0000
0000
,
0000
0000
0000
0000
,
0010
0000
0010
0000
,
0010
0000
0000
0000
,
0001
0001
0001
0000
,
1000
0000
0000
0000
,
1000
1000
1000
0000
,
0100
0000
0000
0000
,
0100
0100
0100
0000
,
0010
0000
0000
0000
,
0010
0000
0010
0000
,
0110
0000
0000
0000
,
0110
0000
0000
0000
,
1000
0000
0001
0000
,
1000
0000
0001
0000
,
0110
0000
0000
0000
,
0110
0000
0000
0000
,
0001
0001
0001
0000
,
1000
1000
1000
0000
,
0000
0100
0100
0000
,
0000
1000
1000
0000
,
0000
0001
0001
0000
,
0000
0010
0010
0000
,
0000
0100
0100
0000
,
0000
1000
1000
0000
,
0000
0001
0001
0000
,
0000
0010
0010
0000
,
0000
0100
0100
0000
,
0000
0010
0010
0000
,
0000
1000
1000
0000
,
0000
0001
0001
0000
,
0000
0100
0100
0000
,
0000
0010
0010
0000
,
0000
1000
1000
0000
,
0000
0001
0001
0000
,
0001
0000
0000
0000
,
0000
0000
0000
0000
,
0000
0000
0000
0000
,
0000
0000
0000
0000
,
1000
0000
0000
0000
,
0000
0000
0000
0000
,
0000
0000
0000
0000
,
0100
0000
0100
0000
,
0100
0000
0000
0000
;

//---------------dance-single - Copied from----------------
#NOTES:
     dance-single:
     Copied from:
     Medium:
     6:
     0.502,0.542,0.226,0.172,0.000:
0000
0000
0000
0000
,
0000
0000
0000
0000
,
0000
0000
0000
0000
,
0000
0000
0000
0000
,
0200
0000
0310
0000
0001
0100
0010
0000
,
1000
0100
0010
0001
,
2000
0001
3001
0110
,
0002
0000
1000
0000
1000
0003
0110
0000
,
0001
0100
0010
0000
1000
0100
0010
0000
,
1000
0001
0100
0010
,
0001
1000
0100
0000
0010
0001
1000
0000
,
0100
0100
1000
0100
,
0010
1000
0100
0000
0010
0001
0100
0000
,
0001
0001
1000
0001
,
1000
0100
0010
0000
0001
0010
0100
0000
,
0010
1000
0010
1000
0010
0000
1010
0000
,
1000
0100
0010
0001
,
0100
0001
1000
0010
,
0100
0100
0001
0001
,
0010
0001
1000
0100
,
0010
0010
0010
0010
,
0100
0100
0100
0100
,
0001
1000
0001
0000
1000
0001
1000
0000
,
0010
0110
1002
0103
,
1000
0100
0010
0001
,
0010
0100
1000
0001
,
0100
0010
1000
0100
,
0001
0100
1000
0010
,
0100
0001
0010
0001
,
0100
0010
0100
0001
,
0010
0100
1000
0100
,
0010
1000
1001
1001
,
0020
0000
1030
0000
0100
1000
0001
0000
,
0010
0001
0100
0010
,
2000
0100
3100
1001
,
2000
0010
3010
1001
,
0002
0000
0013
0000
0001
1000
0100
0000
,
0010
0100
0001
1000
,
0020
1000
0031
1001
,
0020
0001
1030
1001
,
0100
0010
1000
0000
0100
0010
0001
0000
,
0100
0001
0100
0010
0100
0000
0100
0000
,
0001
0010
0100
0000
1000
0010
0100
0000
,
0001
0010
0001
1000
0001
0000
0100
0000
,
0001
1000
0100
0000
0100
1000
0001
0000
,
0100
0010
0100
0001
0100
0000
0010
0000
,
1000
0001
0010
0000
1000
0001
0100
0000
,
0010
0100
0001
0100
0010
0100
0010
0000
,
1001
1100
0101
0020
,
0130
0000
1000
0000
0100
0010
0001
0000
,
0100
0000
0010
0000
1000
0000
0100
0001
,
0100
0000
0010
0000
1000
0001
0100
0000
,
1100
0110
0011
0200
,
0301
0000
0100
0000
0001
1000
0001
0000
,
0100
0000
0010
0000
1000
0000
0001
0100
,
0010
1000
0100
0000
1020
0000
0031
0000
,
1001
0010
0100
1000
,
0001
0100
0010
1000
,
0001
0100
0001
1000
,
0100
0010
0001
1000
,
0010
0100
0001
0010
,
0100
0010
1000
0001
,
0100
0010
0001
0010
,
1000
0010
0001
0100
,
0110
1000
0100
0010
,
0001
1000
0001
0100
,
0100
0010
1000
0001
,
0010
0001
0100
0010
,
1000
0010
0100
0001
,
0010
0001
0100
0010
,
1000
1000
0100
0010
,
1000
0001
1000
0010
,
0200
0000
0310
0000
1000
0001
0100
0000
,
0010
1000
0001
0100
,
0020
1000
1030
1001
,
0020
0001
0031
1001
,
2000
0000
3010
0000
0100
0010
1000
0000
,
0001
0010
0100
1000
,
0200
0010
1300
1001
,
0200
0010
0301
1001
,
0110
0000
0000
0000
;

//---------------dance-single - Copied from----------------
#NOTES:
     dance-single:
     Copied from:
     Hard:
     8:
     0.614,0.578,0.244,0.208,0.108:
0000
0000
0000
0000
,
0000
0000
0000
0000
,
0000
0000
0000
0000
,
0000
0000
0000
0000
,
1000
0000
0000
0000
0010
0000
0000
0010
1000
0000
0000
1000
0001
0000
0000
0000
,
0110
0000
0100
0000
0001
0000
0010
0100
,
1000
0000
0000
0000
0100
0000
0000
0000
0010
0000
0000
0010
0000
0000
0000
0000
,
0001
0000
1000
0000
0001
0000
0000
0000
0100
0000
0000
0100
0000
0000
0000
0000
,
0010
1000
0001
0000
0100
0001
1000
0000
,
0100
0100
0010
0010
0100
0010
0100
0000
,
0001
1000
0100
0000
0010
0001
1000
0000
,
0100
0100
1000
1000
0010
1000
0001
0000
,
0100
0010
1000
0000
0001
0100
0010
0000
,
0100
0100
0001
0001
0010
0100
1000
0000
,
0100
0010
0100
0000
0001
1000
0001
0000
,
1000
0010
0100
0001
1000
0100
0010
0001
,
1001
0101
1010
1001
,
0020
0000
0130
0000
1000
0100
0010
0001
,
0020
0001
0031
1001
,
0010
0001
0010
0100
1000
0000
0100
0000
,
0011
1010
1100
0101
,
0002
0000
1003
0000
0100
1000
0010
0200
,
0010
0000
0001
0000
0310
0000
0001
2000
,
0010
0100
3020
0130
,
1001
0000
0100
0010
0100
0001
2000
0000
,
3010
0000
0100
0001
0010
0100
2000
0000
,
3010
0000
1000
0001
0010
0001
0200
0000
,
0301
0000
0001
0010
1000
0010
0002
0000
,
1003
0000
0100
1000
0010
0100
0002
0000
,
0013
0000
0001
0010
0100
1000
0010
0100
,
0000
0110
0000
0010
1000
0100
0010
0200
,
0000
0000
0300
0000
0100
0000
0000
1000
0001
0000
0000
0100
0010
0000
1000
0000
,
0001
0000
0000
0000
1000
0000
0000
0001
0100
0000
0000
0001
1000
0000
0000
0000
,
1001
0100
0010
1000
,
1000
0000
0001
0000
0100
0000
0000
0000
0010
0000
0000
1000
0000
0000
0000
0000
,
0100
0000
0010
0000
0001
0000
0000
0000
0010
0000
0000
0100
0000
0000
0000
0000
,
1000
0000
0000
0000
0100
0000
0000
1000
0100
0000
0000
0100
0010
0000
0000
0000
,
1001
0010
0001
1000
,
0010
0000
0100
0000
0010
0000
0000
0000
1000
0000
0000
0001
0000
0000
0000
0000
,
0100
0000
0010
0000
0100
0000
0000
0000
0001
0000
0000
1000
0000
0000
0000
0000
,
1000
0001
0100
0000
0010
1000
0001
0000
,
0010
0010
0001
0001
0100
0010
1000
0000
,
1000
0100
0010
0000
0001
0100
0010
0000
,
0001
0001
0100
0100
0010
1000
0100
0000
,
1000
0010
0001
0000
0001
0010
0100
0000
,
0010
0010
1000
1000
0100
0010
0001
0000
,
0100
0010
0100
0000
0001
1000
0001
0000
,
1000
0010
0001
0010
1000
0100
0010
0001
,
1001
0101
1010
1001
,
0200
0000
1300
0000
0001
0100
0001
1000
,
0200
1000
1300
1001
,
0100
0010
0001
1000
0100
0000
1000
0000
,
0001
0100
0001
0000
1000
0100
1000
0000
,
0100
0010
0001
0000
0001
1000
0010
2000
,
0100
0000
0010
0000
3100
0000
1000
0002
,
0010
0100
0023
0130
,
1001
0000
0100
1000
0010
0100
0002
0000
,
0013
0000
0100
0010
1000
0100
0020
0000
,
0130
0000
0001
1000
0010
0100
0002
0000
,
1003
0000
0010
0001
0010
0100
2000
0000
,
3010
0000
1000
0001
0100
0001
0020
0000
,
0130
0000
0001
1000
0100
0010
0001
1000
,
0000
0110
0000
0001
1000
0001
1000
0020
,
0000
0000
0030
0000
0001
0000
0000
1000
0100
0000
0000
0001
0100
0000
0010
0000
,
1000
0000
0100
0100
0010
0000
0001
0000
,
1000
0000
0001
0001
1000
0000
0100
0000
,
0010
0000
1000
1000
0100
0000
0010
0000
,
0001
0000
0010
0010
0001
0000
0100
0000
,
1001
0000
0010
0010
0100
0000
0001
0000
,
1000
0000
0100
0100
1000
0000
0001
0000
,
0010
0000
0100
0100
0001
0000
0010
0000
,
1000
0000
0001
0001
0010
0000
0001
0000
,
1001
0000
0000
0000
0100
0000
0000
1000
0010
0000
0000
0100
0001
0000
0000
0000
,
1001
0000
0100
0000
1000
0000
0100
1000
,
0010
0000
0000
0000
0100
0000
0000
0000
0001
0000
0000
1000
0000
0000
0000
0000
,
0100
0000
0010
0000
0100
0000
0000
0000
0010
0000
0000
0001
0000
0000
0000
0000
,
1001
0000
0000
0000
0010
0000
0000
0001
0100
0000
0000
0100
1000
0000
0000
0000
,
0110
0000
0001
0000
0010
0000
0100
1000
,
0010
0000
0000
0000
0100
0000
0000
0000
0001
0000
0000
0010
0000
0000
0000
0000
,
0100
0000
0001
0000
1000
0000
0000
0000
0010
0000
0000
0100
0000
0000
0000
0000
,
1001
0000
0000
0000
;

//---------------dance-single - Copied from Copied f----------------
#NOTES:
     dance-single:
     Copied from Copied f:
     Challenge:
     9:
     0.721,0.686,0.352,0.334,0.126: // measure 1
0000
0000
0000
0000
,  // measure 2
0000
0000
0000
0000
,  // measure 3
0000
0000
0000
0000
,  // measure 4
0000
0000
0000
0000
,  // measure 5
1000
0000
0000
0000
0001
0000
1000
0000
0001
0000
1000
0001
0000
0000
0000
0200
,  // measure 6
0000
0000
0020
0000
0000
0330
0000
0000
0010
0000
0000
0000
1000
0000
0100
0000
,  // measure 7
0010
0000
0001
0000
0100
0000
0001
0000
0200
0000
0000
0010
0000
0300
0000
0000
,  // measure 8
0010
0000
1000
0000
0100
0000
0010
0000
0002
0000
0000
0010
0000
0003
0000
0000
,  // measure 9
1001
1000
0001
1000
0100
0010
0001
1000
,  // measure 10
0001
0010
0001
0100
0002
0000
0013
0000
,  // measure 11
0110
0100
0010
1000
0100
0010
0001
0010
,  // measure 12
0100
0010
0001
0010
0200
0000
1300
0000
,  // measure 13
0011
0001
0100
0010
1000
0001
0100
0010
,  // measure 14
1000
0010
0100
0010
0200
0000
0310
0000
,  // measure 15
1001
0001
1000
1000
0010
0100
0010
1000
,  // measure 16
0100
0001
0100
1000
0001
1000
0010
0100
,  // measure 17
0110
1100
0101
1100
,  // measure 18
0001
1000
0001
0100
0010
0000
1000
1000
,  // measure 19
0100
0010
0001
0010
0100
1000
0100
0001
,  // measure 20
0100
0010
0010
0200
0000
0310
0010
0100
,  // measure 21
0110
1100
0011
1100
,  // measure 22
1001
0000
0001
0000
0010
0001
0100
0010
,  // measure 23
0100
0001
0020
0000
0001
0000
1030
0000
,  // measure 24
1001
1000
0200
0000
1000
1000
0310
0000
,  // measure 25
1001
0000
1000
0100
0001
0100
1000
0000
,  // measure 26
0110
0000
0001
0010
1000
0010
0001
0000
,  // measure 27
0110
0000
1000
0001
0010
0001
0100
0020
,  // measure 28
1000
1000
1030
0000
0010
0100
0010
0100
,  // measure 29
0011
0000
1000
0100
0001
0100
1000
0000
,  // measure 30
0110
0000
1000
0010
0100
0001
0010
0002
,  // measure 31
0100
0203
0000
0310
1000
1000
0100
0010
,  // measure 32
0001
0001
1000
0000
0010
1000
0001
1000
,  // measure 33
1001
0000
0000
0000
0100
0000
0001
0000
1000
0000
0001
0010
0000
0000
0000
0002
,  // measure 34
0000
0000
2000
0000
0000
3003
0000
0000
0100
0000
0000
0000
0010
0000
1000
0000
,  // measure 35
0010
0000
0100
0000
0100
0000
0010
0000
2000
0000
0000
0100
0000
3000
0000
0000
,  // measure 36
0100
0000
1000
0000
0001
0000
0010
0000
0002
0000
0000
0010
0000
0003
0000
0000
,  // measure 37
1001
0000
0000
0000
0100
0000
0010
0000
0100
0000
0001
1000
0000
0000
0000
2000
,  // measure 38
0000
0000
0200
0000
0000
3300
0000
0000
0010
0000
0000
0000
0001
0000
1000
0000
,  // measure 39
0001
0000
0001
0000
0010
0000
0100
0000
0020
0000
0000
0100
0000
0030
0000
0000
,  // measure 40
1000
0000
0100
0000
0001
0000
0100
0000
2000
0000
0000
0010
0000
3000
0000
0000
,  // measure 41
0011
0010
0001
0100
0010
1000
0100
0010
,  // measure 42
0100
1000
0001
0100
0002
0000
1003
0000
,  // measure 43
0110
0010
1000
0100
0010
0001
0010
0100
,  // measure 44
1000
0001
0100
0001
0200
0000
0301
0000
,  // measure 45
1010
0010
0100
0010
1000
0100
0001
0100
,  // measure 46
0010
0001
0100
0010
2000
0000
3010
0000
,  // measure 47
1001
0001
1000
0001
0010
0010
0010
0100
,  // measure 48
0010
0001
0100
0010
1000
0100
0020
0100
,  // measure 49
0130
1100
0101
1100
,  // measure 50
0010
0001
0100
0010
1000
0000
0100
0020
,  // measure 51
0100
0030
0001
0000
1000
0000
0010
0100
,  // measure 52
0001
1000
0001
0100
0010
0010
0010
0000
,  // measure 53
1000
0000
0000
0001
0100
0000
0000
0010
1000
0000
0000
1000
0100
0000
0000
0100
,  // measure 54
0010
0000
0000
0001
0010
0000
0000
0010
0100
0000
0000
1000
0001
0000
0000
1000
,  // measure 55
0100
0100
1000
0001
0100
0100
0010
0000
,  // measure 56
1001
0001
0100
0000
0010
0100
0010
0100
,  // measure 57
0110
0000
1000
0010
0100
0001
0010
0000
,  // measure 58
1001
0000
0010
0100
0001
1000
0100
0000
,  // measure 59
0110
0000
0001
0100
1000
0100
0001
0000
,  // measure 60
0110
0000
0100
0010
0001
0010
0100
0000
,  // measure 61
1100
0000
0010
0100
1000
0010
0100
0000
,  // measure 62
0011
0000
0100
1000
0010
0100
0001
2000
,  // measure 63
0100
3200
0000
0310
0001
1000
0001
0100
,  // measure 64
0020
0000
0130
0000
0001
1000
0010
1000
,  // measure 65
1001
0000
1000
0001
1000
0001
1000
0000
,  // measure 66
0010
0000
0100
0001
0100
0001
0100
0000
,  // measure 67
1000
0000
0010
0100
0010
0100
0010
0000
,  // measure 68
0001
0000
1000
0100
1000
0100
1000
0000
,  // measure 69
0010
0000
0001
0100
0001
0100
0001
0000
,  // measure 70
1000
0000
1000
0001
1000
0001
1000
0000
,  // measure 71
0100
0000
0010
0001
1000
0001
0010
0000
,  // measure 72
0100
0000
0010
1000
0001
1000
0010
0000
,  // measure 73
1001
0000
0000
0000
1000
0000
0010
0000
0100
0000
0001
0010
0000
0000
0000
2000
,  // measure 74
0000
0000
0200
0000
0000
3300
0000
0000
0010
0000
0000
0000
0100
0000
0010
0000
,  // measure 75
1000
0000
0100
0000
0010
0000
0001
0000
0020
0000
0000
0100
0000
0030
0000
0000
,  // measure 76
0100
0000
0010
0000
0001
0000
1000
0000
0200
0000
0000
1000
0000
0300
0000
0000
,  // measure 77
1001
0000
0000
0000
0001
0000
1000
0000
0010
0000
0100
0010
0000
0000
0000
0200
,  // measure 78
0000
0000
0002
0000
0000
0303
0000
0000
0010
0000
0000
0000
1000
0000
0001
0000
,  // measure 79
1000
0000
0001
0000
0010
0000
0100
0000
2000
0000
0000
0001
0000
3000
0000
0000
,  // measure 80
0100
0000
1000
0000
0001
0000
1000
0000
0002
0000
0000
1000
0000
0003
0000
0000
,  // measure 81
0101
0000
0000
0000
;
