#TITLE:Kuushinn Zennkaiten!;
#SUBTITLE:;
#ARTIST:Maron-chan;
#TITLETRANSLIT:;
#SUBTITLETRANSLIT:;
#ARTISTTRANSLIT:;
#GENRE:;
#CREDIT:;
#MENUCOLOR:;
#NEWMETERSYSTEM:NO;
#BANNER:Kuushinn Zennkaiten!-bn.png;
#BACKGROUND:Kuushinn Zennkaiten!-bg.png;
#LYRICSPATH:;
#CDTITLE:MixMania III CD Title.png;
#MUSIC:Kuushinn Zennkaiten!.mp3;
#OFFSET:-0.080;
#SAMPLESTART:71.080;
#SAMPLELENGTH:12.000;
#SELECTABLE:YES;
#LISTSORT:;
#BPMS:0.000=196.000;
#STOPS:;
#BGCHANGES:;
#ATTACKS:;

//---------------dance-single - ----------------
#NOTES:
     dance-single:
     :
     Easy:
     4:
     0.274,0.357,0.069,0.069,0.000:
0000
0000
0000
0000
,
0000
0000
0000
0000
,
0000
0000
0000
0000
,
0000
0000
0000
0000
,
0000
0000
0000
0000
,
0000
0000
0000
0000
,
0000
0000
0010
0000
,
0001
0000
1000
0000
,
0001
0000
1000
0000
,
1000
0001
0000
1000
,
0000
0001
0000
0100
,
0100
0100
0100
0110
,
1001
0000
1000
0000
,
1000
0001
1000
0000
,
1000
0000
0001
0001
,
0000
0001
0000
0001
,
1000
0001
0000
0000
,
1000
0001
0010
0000
,
0010
0000
0010
0100
,
1000
0000
1000
0000
,
0001
0010
0000
0100
,
0000
0010
0001
1000
,
0000
0010
0002
0000
,
0013
0000
0100
0100
,
0000
1000
0100
0010
,
0000
0001
0000
0100
,
0001
0000
0100
0100
,
0000
0010
1000
0100
,
1000
0010
0000
0000
,
0100
0001
0010
0001
,
0000
0100
0100
1000
,
0000
0000
0000
0010
,
0100
0010
0000
0000
,
0100
0100
0100
0000
,
0000
0000
1000
0100
,
0010
0000
0010
0001
,
0000
0001
0100
0000
,
0010
1000
0000
1000
,
0100
0000
0100
0010
,
0000
0010
0001
0000
,
0001
2000
0000
3000
,
0100
1000
0100
1000
,
0000
0000
0001
1000
,
0001
1000
0000
0000
,
0001
0100
0001
0100
,
0000
0000
0100
0010
,
0100
0020
0000
0000
,
0130
0000
0010
0000
,
0010
0000
1000
0000
,
0001
0000
1000
0000
,
0100
0000
0010
0000
,
0001
1000
0001
0000
,
0000
0000
0000
1000
,
0000
0001
0000
1000
,
0000
0001
0000
1000
,
0000
0010
0000
0100
,
0000
0001
0000
1001
,
0000
1001
0000
1001
,
1001
0000
1000
0000
,
0001
0000
1000
0000
,
0100
0010
0000
0100
,
0000
0010
0000
0100
,
0000
0010
1000
0000
,
0001
0100
0000
0010
,
0000
0100
0000
0010
,
0001
0000
1000
0100
,
0000
0010
0100
0000
,
0010
0100
0000
2000
,
0000
0000
3002
0000
,
0000
0103
0000
0100
,
0000
0010
0000
0100
,
0000
0010
1000
1000
,
0100
0000
1000
0000
,
0001
0000
0100
0000
,
0001
0010
0010
0001
,
0000
0100
0000
0010
,
0000
1000
0000
0001
,
1000
1000
0001
0000
,
0100
0000
0010
0000
,
0100
0100
0100
0100
,
2002
3003
0000
0000
;

//---------------dance-single - Copied from----------------
#NOTES:
     dance-single:
     Copied from:
     Beginner:
     2:
     0.117,0.158,0.030,0.010,0.000:
0000
0000
0000
0000
,
0000
0000
0000
0000
,
0000
0000
0000
0000
,
0000
0000
0000
0000
,
0000
0000
0000
0000
,
0000
0000
0000
0000
,
0000
0000
1000
0000
,
0000
0000
0000
0000
,
0001
0000
0000
0000
,
0100
0100
0000
0000
,
0000
0000
0000
0020
,
0000
0000
0030
0000
,
0010
0000
0000
0000
,
0000
0100
0100
0000
,
0000
0000
1000
1000
,
0000
0000
0000
0000
,
0001
0001
0000
0000
,
0000
0000
1001
0000
,
0000
0000
0000
0000
,
0100
0000
0000
0000
,
0010
0010
0000
0000
,
0000
0000
0000
0100
,
0000
0000
0100
0000
,
0100
0000
0000
0001
,
0000
0000
1000
0000
,
0000
0000
0000
0000
,
1000
0000
0000
0100
,
0000
0000
0010
0000
,
0000
0001
0000
0000
,
0100
0000
0000
0000
,
0000
0000
0010
0000
,
0000
0000
0000
0000
,
0100
0000
0000
0000
,
0000
0001
0001
0000
,
0000
0000
0000
0000
,
1000
0000
0000
0100
,
0000
0000
0010
0000
,
0000
0001
0000
0000
,
1000
0000
0000
0100
,
0000
0000
0010
0000
,
0000
0001
0000
0000
,
1000
0000
0000
0000
,
0000
0000
0001
0000
,
0000
0000
0000
0000
,
0100
0000
0000
0000
,
0000
0000
0010
0000
,
0000
0100
0000
0000
,
0100
0000
0000
0000
,
0000
0000
0001
0000
,
0000
1000
0000
0000
,
0000
0000
0000
0000
,
0000
1000
1000
0000
,
0000
0000
0000
0100
,
0000
0000
0000
0000
,
0010
0000
0000
0010
,
0000
0000
0001
0000
,
0000
0000
0000
1000
,
0000
0001
0000
1001
,
0000
0001
0000
0000
,
0000
0000
1000
0000
,
0000
0010
0000
0000
,
0100
0000
0000
0000
,
0000
0001
0000
0000
,
0010
0000
0000
0100
,
0000
0000
0010
0000
,
1000
0000
0000
0000
,
0100
0000
0100
0000
,
0000
0000
0000
1001
,
0000
0000
0000
0000
,
0000
0010
0000
0000
,
0000
0000
0000
0100
,
0000
0000
0000
0001
,
0001
0000
0000
0000
,
0000
0000
1000
0000
,
0000
0000
1000
1000
,
0000
0000
0000
0000
,
0000
0010
0000
0000
,
0000
0100
0100
0000
,
0000
0000
0000
0000
,
0001
0000
0000
0000
,
1000
0000
0000
0000
;

//---------------dance-single - Copied from----------------
#NOTES:
     dance-single:
     Copied from:
     Medium:
     6:
     0.451,0.476,0.158,0.297,0.000:
0000
0000
0000
0000
,
0000
0000
0000
0000
,
0000
0000
0000
0000
,
0000
0000
0000
0000
,
0000
0000
0000
0000
,
0000
0000
0000
0000
,
0000
0000
1000
0000
,
1000
0001
0000
0001
,
1000
0000
1000
0001
,
0010
0001
0000
0001
,
1000
0000
0001
0010
,
0010
0010
0010
1001
,
0100
0000
0100
0001
,
0010
0000
0010
1000
,
0100
0000
0100
1000
,
0001
0000
0010
0001
,
0100
0000
0010
1000
,
0001
0000
1001
0000
1001
0000
0000
1000
,
0000
0001
2000
0000
,
3010
0000
0000
0010
0000
0000
0002
0000
,
0100
0000
0103
0000
0000
1000
0000
0000
,
0001
0200
0010
0310
,
0100
0010
2000
0001
,
3010
1000
0100
0010
,
0000
0001
1000
0020
,
0200
0330
1000
0100
,
0001
0100
1000
0010
,
0000
0100
0001
0001
,
0100
1000
0000
0000
,
0010
0100
0001
0010
,
0000
0100
1000
0020
,
2000
3030
1000
0100
,
0001
0100
1000
0010
,
0100
0020
0100
0100
,
0130
0001
0010
0100
,
0200
0000
1000
2300
,
0000
0010
3020
0000
,
0100
0230
0000
0001
,
0302
0000
1000
2003
,
0000
0010
3020
0000
,
0100
0230
0000
0001
,
1300
0010
0001
0010
,
1000
0100
0010
0001
,
0010
1000
0010
0001
,
0010
0100
1000
0100
,
0020
0000
0030
0001
1000
0000
0001
0000
,
0100
0020
0200
0330
,
0110
1000
0001
1000
,
0001
0000
0010
0000
0001
0000
0001
1000
,
0000
1000
0010
0000
0110
0000
1000
0000
,
0100
0000
0100
0010
0000
0010
0001
0000
,
0001
2000
3100
0010
,
2002
3000
0103
0010
,
1000
0100
0010
0001
,
1000
0000
1000
0100
0000
0100
0010
0000
,
0110
0001
0010
0100
,
1000
0100
0010
1001
,
0000
1001
0000
0000
0110
0000
1001
0000
,
0010
0001
1000
0001
,
1000
0000
0001
0000
0010
0000
0010
0100
,
0000
0100
1000
0000
1001
0000
1000
0000
,
0001
0000
0001
1000
0000
1000
0010
0000
,
0010
0200
0301
0010
,
2002
0003
3010
0001
,
1000
0100
0010
0100
,
0001
0010
0100
1000
,
0100
0000
0000
1000
0001
0000
1000
0000
,
0010
0100
0001
0020
,
0000
0000
0200
0000
,
0330
0000
1001
0000
1000
0001
0000
0001
,
1000
0001
1000
0010
,
0100
0001
0000
0001
0100
0000
0200
0000
,
1300
0000
1000
0010
0000
0010
1000
0000
,
0001
0000
1000
0000
0100
0000
0010
0001
,
0000
0001
0010
0000
0011
0000
0001
0000
,
1000
0100
0000
0100
0010
0000
0001
0000
,
1000
0000
0001
0000
0001
0010
0000
0010
,
0100
0000
0110
0000
0010
0000
0010
0100
,
0000
0100
1000
0000
0100
0000
1000
0000
,
0001
1000
0001
1000
0001
1000
0001
0000
,
0020
0030
0000
0000
;

//---------------dance-single - Copied from----------------
#NOTES:
     dance-single:
     Copied from:
     Hard:
     7:
     0.587,0.635,0.139,0.693,0.005: // measure 1
0000
0000
0000
0000
,  // measure 2
0000
0000
0000
0000
,  // measure 3
0000
0000
0000
0000
,  // measure 4
0000
0000
0000
0000
,  // measure 5
0000
0000
0000
0000
,  // measure 6
0000
0000
0000
0000
,  // measure 7
0000
0000
2000
0000
3001
1000
0010
0100
,  // measure 8
0000
0001
1000
0000
0200
0000
0320
0000
,  // measure 9
0130
0000
0001
1000
0000
1000
0100
0000
,  // measure 10
0120
0000
0031
1000
0100
1000
0000
0001
,  // measure 11
0010
0000
0200
0000
0320
0000
1030
0100
,  // measure 12
1000
0100
1000
0100
1000
0000
1010
0000
,  // measure 13
1001
1000
0010
1000
,  // measure 14
0010
2000
3100
1000
,  // measure 15
0100
1000
0020
0130
,  // measure 16
0001
0100
0001
0100
,  // measure 17
0002
0013
0100
0010
,  // measure 18
0100
0010
0100
0001
1000
0000
1000
0001
,  // measure 19
0000
0001
0100
0000
0020
0000
0230
0000
,  // measure 20
0301
0000
0001
1000
0000
1000
0100
0000
,  // measure 21
0020
0000
1030
0000
1000
0100
0000
0100
,  // measure 22
0010
0000
0002
0000
2003
0000
3001
0010
,  // measure 23
0100
1000
0001
0010
0200
0000
2000
0300
,  // measure 24
3100
0000
1000
0010
0001
0000
0100
0000
,  // measure 25
0000
0000
0001
0000
1000
0001
1000
0000
,  // measure 26
0020
0000
0130
0000
0000
1000
0100
0000
,  // measure 27
0010
0000
0100
0000
1000
0001
1000
0000
,  // measure 28
0000
0000
0000
0100
0010
0000
0001
0000
,  // measure 29
0010
0200
0010
0310
,  // measure 30
1001
0000
0001
0010
1000
0000
1000
0000
,  // measure 31
0000
0000
0010
0000
1000
0001
1000
0000
,  // measure 32
0200
0000
0310
0000
0000
0010
0100
0000
,  // measure 33
1000
0001
0100
0100
,  // measure 34
0001
0010
2000
0000
,  // measure 35
3100
0000
0000
0001
0010
0100
1000
0001
,  // measure 36
2000
0100
0100
3200
,  // measure 37
0010
0010
0320
0001
,  // measure 38
0001
0032
1000
1000
,  // measure 39
2003
0001
0001
3002
,  // measure 40
0100
0100
0203
0010
,  // measure 41
0010
0320
1000
0001
,  // measure 42
1030
0100
0010
0001
,  // measure 43
0010
0100
1000
0100
,  // measure 44
0010
0001
0010
0100
,  // measure 45
1000
0001
0001
1000
,  // measure 46
0002
0000
0003
1000
0001
0000
0010
0000
,  // measure 47
0100
0000
0000
1000
0002
0000
0000
0000
0020
0000
0000
0000
0033
0000
0000
0000
,  // measure 48
1001
0000
1000
0001
0000
0001
1000
0001
,  // measure 49
0000
1000
0001
0000
0001
0000
0001
1000
,  // measure 50
0000
1000
0010
0000
0110
0000
2000
0000
,  // measure 51
3001
0200
0000
0310
2000
0000
3001
0000
,  // measure 52
0100
0020
0230
0320
,  // measure 53
2030
0000
0002
0000
3003
0000
1000
0001
,  // measure 54
0000
0001
1000
0001
0000
1000
0001
0000
,  // measure 55
1000
0000
0001
1000
0000
1000
0100
0000
,  // measure 56
0110
0000
0001
0000
0020
0000
1030
0002
,  // measure 57
0000
1003
0200
0000
0310
0000
0011
0000
,  // measure 58
0000
1001
0000
0000
1100
0000
0110
0000
,  // measure 59
1001
0000
1000
0100
0000
0100
1000
0100
,  // measure 60
0000
1000
0100
0000
2000
0000
0000
3002
,  // measure 61
0000
0103
1001
0000
,  // measure 62
2000
0000
3010
0200
0000
0301
0020
0000
,  // measure 63
0031
2000
3200
0320
,  // measure 64
0032
0200
0303
1000
,  // measure 65
0001
0000
0100
0001
0100
0000
0001
0000
,  // measure 66
0010
0001
0010
0100
,  // measure 67
1000
0100
0000
0100
1000
0000
0100
0000
,  // measure 68
0010
0001
0010
0002
,  // measure 69
0010
0100
2000
0000
,  // measure 70
3003
0000
0100
0000
0100
0010
0000
0010
,  // measure 71
0100
0020
2030
3100
,  // measure 72
0100
0010
0000
0010
0002
0000
2003
0000
,  // measure 73
3001
0000
0001
0100
0000
0100
0010
0000
,  // measure 74
2000
0000
3200
0000
0310
0000
0010
0001
,  // measure 75
0000
0001
2000
0000
3002
0000
0103
0000
,  // measure 76
0100
1000
0000
1000
0010
0000
0200
0000
,  // measure 77
0320
0000
0130
0000
0100
0001
0000
0001
,  // measure 78
0020
0000
0032
0000
1003
0000
1000
0001
,  // measure 79
0000
0001
1000
0000
0020
0000
0230
0000
,  // measure 80
0310
1000
0001
1000
0001
1000
0010
0000
,  // measure 81
0022
0033
0000
0000
;

//---------------dance-single - Copied from----------------
#NOTES:
     dance-single:
     Copied from:
     Challenge:
     8:
     0.642,0.635,0.267,0.277,0.049: // measure 1
0000
0000
0000
0000
,  // measure 2
0000
0000
0000
0000
,  // measure 3
0000
0000
0000
0000
,  // measure 4
0000
0000
0000
0000
,  // measure 5
0000
0000
0000
0000
,  // measure 6
0000
0000
0000
0000
,  // measure 7
0000
0000
0120
0000
1030
0100
0010
0001
,  // measure 8
0010
0100
1000
0000
0001
0000
1000
0000
,  // measure 9
0001
0010
0100
1000
0100
0010
0001
0000
,  // measure 10
1000
0000
0001
0010
0100
1000
0100
0010
,  // measure 11
0001
0000
1000
0000
0001
0000
0100
0010
,  // measure 12
0100
0010
0100
0010
0100
0000
1001
0000
,  // measure 13
0110
0010
0010
0010
,  // measure 14
0010
1010
1100
1000
,  // measure 15
1000
1000
1010
1001
,  // measure 16
0001
0001
0001
0001
,  // measure 17
0011
0101
0100
0100
,  // measure 18
0100
0010
0100
1000
0100
0000
0100
0010
,  // measure 19
0000
0010
0001
0000
1000
0000
0001
0000
,  // measure 20
1000
0000
1000
0010
0000
0010
0100
0000
,  // measure 21
0002
0000
1003
0000
1000
0100
0000
0100
,  // measure 22
0010
0000
0001
0000
1000
0000
0100
0010
,  // measure 23
0001
0010
0100
1000
0200
0000
2300
0000
,  // measure 24
3010
0000
0100
0001
0100
0000
0120
0000
,  // measure 25
1030
0000
0100
0000
1000
0100
0010
0000
,  // measure 26
0002
0000
1003
0000
0000
0001
1000
0001
,  // measure 27
0100
0010
1000
0001
,  // measure 28
1000
0000
0100
0010
0100
0000
0010
0000
,  // measure 29
1000
1001
0011
1001
,  // measure 30
1000
0000
0100
0010
0100
0000
2001
0000
,  // measure 31
3010
0000
1000
0000
0001
1000
0001
0000
,  // measure 32
0200
0000
0310
0000
0000
1000
0001
0010
,  // measure 33
0100
1000
0100
0001
,  // measure 34
0100
1000
2000
0000
,  // measure 35
0001
0010
0010
3100
,  // measure 36
2100
0100
3001
0012
,  // measure 37
0010
0103
0210
0010
,  // measure 38
1300
1200
1000
0301
,  // measure 39
1002
0010
0103
1020
,  // measure 40
1000
0130
0201
0010
,  // measure 41
1300
0120
0100
0031
,  // measure 42
1000
0100
0001
0100
1000
0000
0010
0000
,  // measure 43
0100
0000
0010
0000
0001
0100
1000
0100
,  // measure 44
0001
1000
0001
0100
,  // measure 45
0010
2000
3100
0020
,  // measure 46
0130
0000
0001
1000
0002
0000
0103
0000
,  // measure 47
0001
0000
0000
0001
2000
0000
0000
0000
0200
0000
0000
0000
3300
0000
0000
0000
,  // measure 48
1001
0000
1000
0001
1000
0001
0010
0001
,  // measure 49
0000
0001
0100
0001
1000
0000
1000
0010
,  // measure 50
0000
0100
0001
0000
1001
0000
0010
0000
,  // measure 51
0001
0100
1000
0001
0010
1000
0001
0100
,  // measure 52
1000
0001
1000
0010
,  // measure 53
0100
0000
0000
0000
0001
0000
0000
0000
1000
0000
0000
0000
0100
0000
0000
0000
0000
0000
0100
0000
0000
1000
0000
0000
,  // measure 54
0001
0100
0010
1000
0000
1000
0100
0010
,  // measure 55
0001
0000
0001
0010
0000
0010
0100
0000
,  // measure 56
1100
0000
0100
0000
1000
0010
0001
1000
,  // measure 57
0100
0001
1000
0010
0001
1000
0001
0001
,  // measure 58
0000
1000
1000
0000
0001
1000
0001
1000
,  // measure 59
0100
0000
0010
0100
0001
1000
0100
1000
,  // measure 60
0000
0010
0100
0001
0100
0000
0100
0010
,  // measure 61
0000
0001
2000
0000
3010
0000
0100
0000
,  // measure 62
0001
0010
0100
1000
0100
0010
0001
0010
,  // measure 63
0100
1000
0001
0100
0001
0000
1000
0001
,  // measure 64
1000
0000
0000
0000
0010
0000
0000
0000
1000
0000
0000
0000
0000
0000
0000
0001
0000
0000
1000
0000
0000
0000
0000
0000
,  // measure 65
0001
1000
0001
0000
1000
0100
0010
0001
,  // measure 66
0010
0100
1000
0000
0001
0010
0100
1000
,  // measure 67
0100
0010
0000
0010
0100
0000
0010
0001
,  // measure 68
0010
0000
0000
0000
0000
0000
0100
0000
0000
1000
0000
0000
0100
0000
0000
1000
0000
0000
0100
0000
0000
0000
1000
0000
,  // measure 69
0100
0000
0100
0010
0000
0010
0001
0000
0001
0100
0000
0100
,  // measure 70
0010
0000
1001
0000
1000
0001
0000
0001
,  // measure 71
1000
0010
0100
0010
1000
0000
1000
0000
,  // measure 72
0100
0010
0000
0010
0001
0100
0020
0000
,  // measure 73
0130
0000
0001
0100
0000
0010
1000
0100
,  // measure 74
0010
0001
0100
0000
0001
0000
0001
1000
,  // measure 75
0000
1000
0100
0010
0002
0000
1003
0000
,  // measure 76
1000
0010
0000
0100
0001
0100
1000
0100
,  // measure 77
0010
0000
0100
0000
0100
0001
0000
0001
,  // measure 78
1000
0100
0020
0000
0130
0000
0100
1000
,  // measure 79
0000
1000
0010
0100
0001
1000
0010
0000
,  // measure 80
0001
1000
0001
1000
0001
1000
0001
0000
,  // measure 81
0220
0330
0000
0000
;
