#TITLE:INFERNO;
#SUBTITLE:;
#ARTIST:Caldeira feat. Kanako Hoshino;
#TITLETRANSLIT:;
#SUBTITLETRANSLIT:;
#ARTISTTRANSLIT:;
#GENRE:;
#CREDIT:;
#MENUCOLOR:;
#NEWMETERSYSTEM:NO;
#BANNER:INFERNO-bn.png;
#BACKGROUND:INFERNO-bg.png;
#LYRICSPATH:;
#CDTITLE:MixMania III CD Title.png;
#MUSIC:INFERNO.mp3;
#OFFSET:-0.440;
#SAMPLESTART:65.320;
#SAMPLELENGTH:12.000;
#SELECTABLE:YES;
#LISTSORT:;
#BPMS:0.000=135.000;
#STOPS:;
#BGCHANGES:;
#ATTACKS:;

//---------------dance-single - ----------------
#NOTES:
     dance-single:
     :
     Easy:
     4:
     0.297,0.326,0.171,0.140,0.000:
0000
0000
0000
0000
,
0000
0000
0000
0000
,
0000
0000
0000
0000
,
0000
0000
0000
0000
,
0010
0010
1000
0100
,
0010
0010
0001
0100
,
0010
0010
1000
0100
,
0010
0010
0001
0100
,
0010
1000
0100
0010
,
0001
1000
0100
0010
,
0002
0000
2003
0000
,
3200
0000
0310
0000
,
0110
0001
0100
1000
,
0100
0001
0010
0100
,
1000
0100
1000
0010
,
0100
0010
0010
1000
,
1001
0001
0010
0100
,
1000
0100
0010
0100
,
2000
0000
3002
0000
,
0023
0000
0031
1001
,
0100
0000
0010
1000
,
0100
0100
0020
0030
,
0001
0100
0001
0010
,
0020
0000
1030
0000
,
1000
0001
0100
0000
,
0010
0010
0100
0010
,
1000
0100
0010
0001
,
0200
0310
0100
0010
,
1001
0100
0100
1000
,
0200
0300
0001
1000
,
0101
0001
1000
0100
,
0200
0300
0010
0010
,
1010
0100
0010
1000
,
0100
0010
0001
1000
,
2000
0000
3020
0000
,
0130
0010
1100
1010
,
0000
0000
0000
0000
,
0001
1000
0001
0100
,
0010
1000
0100
0010
,
0100
0010
0001
1000
,
0001
0100
1000
0100
,
0001
0010
0100
1000
,
0010
0100
0010
0100
,
1001
0100
1001
0100
,
0002
0023
0230
2300
,
3100
0000
0100
0010
,
0100
0000
0001
0010
,
0001
0000
1000
0100
,
1000
0000
0010
0100
,
0010
0000
1000
0001
,
1000
0000
0001
0010
,
0001
0000
0100
0010
,
0100
0000
0010
1000
,
0020
0000
0100
0130
,
0110
0000
0100
0001
,
1000
0000
1000
0100
,
0110
0000
0010
0001
,
1000
0000
0010
0001
,
0101
0000
0010
1000
,
0100
0000
0010
0100
,
1100
0000
1010
0000
,
0101
1001
0010
0100
,
0110
1000
0100
0010
,
0001
1000
0010
0100
,
0001
0010
1000
0010
,
0001
0100
0010
1000
,
0100
0010
0001
1000
,
0100
1000
0010
0100
,
0001
0001
0100
0100
,
1001
1001
1010
0101
;

//---------------dance-single - Copied from----------------
#NOTES:
     dance-single:
     Copied from:
     Beginner:
     1:
     0.086,0.163,0.000,0.023,0.000:
0000
0000
0000
0000
,
0000
0000
0000
0000
,
0000
0000
0000
0000
,
0000
0000
0000
0000
,
0010
0000
0000
0000
,
0010
0000
0000
0000
,
0010
0000
0000
0000
,
0010
0000
0000
0000
,
2000
0000
0000
0000
,
0000
0000
3000
0000
,
0200
0000
0000
0000
,
0000
0000
0300
0000
,
0100
0000
0000
0000
,
0010
0000
0000
0000
,
0001
0000
0000
0000
,
1000
0000
0000
0000
,
0010
0000
0000
0000
,
0100
0000
0000
0000
,
0001
0000
0000
0000
,
1000
0000
1000
0000
,
0100
0000
0000
0000
,
0010
0000
0000
0000
,
0001
0000
0000
0000
,
0200
0000
0300
0000
,
0100
0000
0000
0000
,
0010
0000
0000
0000
,
1000
0000
0000
0000
,
0010
0000
0010
0000
,
0010
0000
0000
0000
,
0100
0000
0100
0000
,
0100
0000
0000
0000
,
0001
0000
0001
0000
,
0001
0000
0000
0000
,
1000
0000
0000
0000
,
0010
0000
0010
0000
,
0010
0010
0010
0010
,
0000
0000
0000
0000
,
0100
0000
0000
0000
,
1000
0000
0000
0000
,
0001
0000
0000
0000
,
0010
0000
0000
0000
,
0001
0000
0000
0000
,
0100
0000
0000
0000
,
0010
0000
0000
0000
,
1000
0000
0000
0000
,
0100
0000
0000
0000
,
0100
0000
0000
0000
,
0100
0000
0000
0000
,
0100
0000
0000
0000
,
0010
0000
0000
0000
,
0010
0000
0000
0000
,
0010
0000
0000
0000
,
0010
0000
0000
0000
,
0000
0000
0000
0000
,
0001
0000
0000
0000
,
0000
0000
0000
0000
,
1000
0000
0000
0000
,
0000
0000
0000
0000
,
0100
0000
0000
0000
,
0000
0000
0000
0000
,
0010
0000
0000
0000
,
0100
0100
0100
0100
,
0100
0000
0000
0000
,
0010
0000
0000
0000
,
1000
0000
0000
0000
,
0001
0000
0000
0000
,
0010
0000
0000
0000
,
0001
0000
0000
0000
,
0100
0000
0100
0000
,
0100
0100
0100
0100
;

//---------------dance-single - Copied from----------------
#NOTES:
     dance-single:
     Copied from:
     Medium:
     5:
     0.364,0.408,0.164,0.070,0.000:
0000
0000
0000
0000
,
0000
0000
0000
0000
,
0000
0000
0000
0000
,
0000
0000
0000
0000
,
0110
0001
0100
0010
,
1000
0100
0010
0001
,
0100
0010
1000
0010
,
0100
0000
0001
0000
0010
0000
1000
0010
,
0200
0010
1000
0001
,
0010
0001
1000
0010
,
0310
0000
0001
1000
0001
0000
0100
0010
,
0100
0010
0220
0330
,
0001
1000
0100
0010
,
0001
0000
1000
0000
0001
0100
0010
0000
,
1000
0010
0100
0001
,
0010
0000
0001
0000
0100
0001
0010
0000
,
0100
1000
0010
0100
,
0001
0000
1000
0000
0001
0010
0001
0000
,
0100
0010
1000
0100
,
0010
0000
0100
0000
0010
0010
0010
0000
,
0110
0001
1000
0001
,
0100
0001
0010
0001
,
0100
0000
0001
0000
0010
0000
0001
0100
,
0010
1000
1000
0100
,
0001
0100
1000
0010
,
0100
0000
0010
0000
1000
0000
0001
1000
,
0001
0000
0100
0000
0010
0000
0100
0010
,
0010
0000
1000
0000
0010
0010
0010
0000
,
0011
0000
0100
0000
0010
0000
1000
0001
,
0100
0000
0010
0000
0100
0100
0100
0000
,
1100
0000
0100
0000
0010
0000
0100
1000
,
0001
0000
0100
0000
0001
0001
0001
0000
,
0011
0000
0001
0000
0100
0000
0010
1000
,
0010
0000
0100
0000
0010
0000
0100
0001
,
0001
0101
1000
1100
,
0010
0110
1001
0110
,
0000
0000
0001
1000
,
1100
0000
0001
0000
1000
0100
1000
0000
,
0010
0000
0100
0000
0010
0100
0010
0000
,
0001
0000
0010
0000
0001
0010
0001
0000
,
1000
0000
0010
0000
1000
0100
1000
0000
,
0010
0000
0100
0000
0001
1000
0001
0000
,
0010
0000
0100
0000
1000
0001
1000
0000
,
0020
0130
0200
0310
,
1000
0000
0001
0000
1000
1000
1000
0000
,
1001
0000
0100
0000
0001
0000
0001
0200
,
0010
0010
0001
0310
,
0001
1000
0100
0010
,
0100
0000
0010
0000
0001
0100
1000
0000
,
0001
0000
0010
0000
0001
0000
0010
0002
,
1000
0010
0100
0103
,
0010
1000
0010
0000
0100
0000
0100
0000
,
0001
0100
0001
0000
0010
0000
0010
0000
,
0110
0000
0000
0000
,
1001
0000
0001
0000
1000
0000
0001
0100
,
0010
0100
0010
0010
,
1000
0000
1000
0000
0100
0000
1000
0010
,
0100
0100
0001
0010
,
1001
0001
0100
1000
,
0100
0001
0100
1000
,
0100
0100
0010
0010
,
0100
0000
0010
0000
1000
1000
1000
0000
,
1001
0001
0010
0001
,
1000
0000
0001
0000
1000
0100
1000
0100
,
1000
1000
0100
1000
,
0001
0000
0100
0000
0010
0100
0010
0100
,
0010
0010
0100
1000
,
0010
0000
0100
0000
0001
1000
0001
1000
,
0002
0103
0020
1030
,
1100
0000
1001
0000
0101
0001
1001
0000
;

//---------------dance-single - Copied from----------------
#NOTES:
     dance-single:
     Copied from:
     Hard:
     7:
     0.450,0.516,0.234,0.117,0.000: // measure 1
0000
0000
0000
0000
,  // measure 2
0000
0000
0000
0000
,  // measure 3
0000
0000
0000
0000
,  // measure 4
0000
0000
0000
0000
,  // measure 5
1001
0000
0101
0000
1000
0010
0100
0010
,  // measure 6
0110
0000
1001
0000
0001
0010
0100
0010
,  // measure 7
0110
0000
1001
0000
0001
0100
1000
0100
,  // measure 8
0101
0000
1100
0000
0010
1000
0100
0010
,  // measure 9
0002
0100
1000
0100
,  // measure 10
2003
0100
0010
0100
,  // measure 11
3001
1000
0001
1000
0001
0100
0001
0100
,  // measure 12
0010
1000
0010
1000
1100
0000
1100
0000
,  // measure 13
1001
0000
0100
0000
0010
0100
0010
0100
,  // measure 14
0001
0000
1000
0000
0100
1000
0010
0100
,  // measure 15
0001
0000
0010
0000
0001
1000
0001
0100
,  // measure 16
0010
0000
0100
0000
0010
0010
1000
1000
,  // measure 17
0100
0000
1000
0000
0001
0100
0010
1000
,  // measure 18
0100
0000
0010
0000
0001
1000
0010
0100
,  // measure 19
0020
2030
3200
0320
,  // measure 20
0031
1000
0001
0100
0010
0110
0110
0000
,  // measure 21
0001
1000
0100
0000
0010
0000
0001
0000
,  // measure 22
1000
0001
0100
0001
0100
0000
1000
0000
,  // measure 23
0100
0000
0010
0001
1000
0000
0100
1000
,  // measure 24
1000
1000
0010
0100
,  // measure 25
0010
0100
0010
0000
1000
0001
1000
0000
,  // measure 26
0100
1000
0001
1000
0010
0000
0100
0000
,  // measure 27
0001
0000
1000
0010
0100
0000
0001
0010
,  // measure 28
0002
0000
0203
0000
0310
0010
0100
0100
,  // measure 29
0001
0000
0100
0000
1000
0000
0100
0010
,  // measure 30
0001
0000
0100
0000
0001
0001
1000
1000
,  // measure 31
0100
0000
1000
0000
0010
0000
0100
0001
,  // measure 32
0010
0000
0100
0000
1000
1000
0100
0100
,  // measure 33
0001
0000
0001
0000
1000
0000
0010
0100
,  // measure 34
0010
0000
0010
0000
0001
0000
1000
0001
,  // measure 35
1000
1100
0001
0101
,  // measure 36
0010
0110
1001
0110
,  // measure 37
0000
0000
0000
0000
0010
0100
0010
0100
,  // measure 38
0010
0000
1000
0000
0100
0000
0010
0001
,  // measure 39
1000
0000
0010
0000
0100
0001
0100
0001
,  // measure 40
0010
0000
0001
0000
1000
0000
0010
1000
,  // measure 41
0001
0000
1000
0000
0010
1000
0100
1000
,  // measure 42
0100
0000
0010
0000
0001
1000
0001
0000
,  // measure 43
0100
0000
0001
0000
0010
0100
0001
1000
,  // measure 44
0001
0101
1000
1100
,  // measure 45
0110
0000
1001
0000
0101
1000
1100
0000
,  // measure 46
1000
0000
0100
0000
0010
0000
0001
2000
,  // measure 47
0001
0010
0100
0010
,  // measure 48
3001
0100
0001
1000
,  // measure 49
0010
0100
0010
0000
1000
0001
1000
0000
,  // measure 50
0001
0000
0100
0000
0010
0000
1000
0020
,  // measure 51
0001
0001
0100
0100
,  // measure 52
0031
0000
1000
0000
0100
0010
0001
0000
,  // measure 53
1000
0000
0001
0000
0100
0010
2000
0000
,  // measure 54
3000
0000
0100
0100
,  // measure 55
0010
0000
1000
0000
0100
1000
0010
0000
,  // measure 56
0100
0000
0001
0000
0010
0001
1000
0001
,  // measure 57
0100
0000
0010
0000
1000
0000
0100
0001
,  // measure 58
0100
0000
0010
0000
1000
0001
1000
0001
,  // measure 59
0100
0000
0010
0000
1000
0000
0100
1000
,  // measure 60
0100
0000
0010
0000
0001
1000
0001
0010
,  // measure 61
0002
0203
0320
2030
,  // measure 62
3100
0100
1000
1000
0011
1010
1001
0000
,  // measure 63
0100
0000
0010
0000
1000
0001
0100
0010
,  // measure 64
1000
0000
0100
0000
0010
0010
1000
1000
,  // measure 65
0001
0000
0100
0000
0001
0010
0001
1000
,  // measure 66
0010
0000
0100
0000
0001
0001
0010
0010
,  // measure 67
0001
0000
0100
0000
0010
1000
0001
0100
,  // measure 68
0010
0000
0100
0000
0001
0001
1000
1000
,  // measure 69
0100
1000
0100
1000
0010
1000
0010
1000
,  // measure 70
0010
0010
0100
0100
1010
1001
0101
0000
;

//---------------dance-single - Copied from----------------
#NOTES:
     dance-single:
     Copied from:
     Challenge:
     8:
     0.555,0.543,0.327,0.070,0.284: // measure 1
0000
0000
0000
0000
,  // measure 2
0000
0000
0000
0000
,  // measure 3
0000
0000
0000
0000
,  // measure 4
0000
0000
0000
0000
,  // measure 5
1010
0000
0000
0000
1000
0000
0000
0100
0010
0000
0001
0000
1000
0000
0001
0000
,  // measure 6
0100
0000
0000
0000
0100
0000
0000
0010
1000
0000
0001
0000
0001
0000
0100
0000
,  // measure 7
0010
0000
0000
0000
0010
0000
0000
1000
0010
0000
0100
0000
0100
0000
0010
0000
,  // measure 8
1000
0000
0000
0000
0100
0000
0000
0001
0100
0000
0010
0000
0100
0000
0010
0000
,  // measure 9
1000
0000
0000
1000
0100
0000
0000
0000
0010
0000
0000
0001
0100
0000
0000
0000
,  // measure 10
0010
0000
0000
1000
0100
0000
0000
0000
0010
0000
0000
0001
0010
0000
0000
0000
,  // measure 11
0100
0010
0100
0010
1000
0001
1000
0001
,  // measure 12
0100
0000
0010
0000
0100
0010
0100
0010
0200
0000
0000
0000
0000
0000
0300
0000
,  // measure 13
1001
0000
0000
0000
1000
0000
0000
0001
1000
0000
0000
0100
1000
0000
0010
0000
,  // measure 14
0100
0000
0000
0000
0001
0000
0000
1000
0100
0000
0000
0010
0100
0000
0010
0000
,  // measure 15
0001
0000
0000
0000
1000
0000
0000
1000
0010
0000
0000
0100
0001
0000
0010
0000
,  // measure 16
0001
0000
0000
0000
0100
0000
0000
0010
0100
0000
0000
0010
1000
0000
0100
0000
,  // measure 17
0110
0000
0000
0000
0010
0000
0000
0100
0001
0000
0000
0100
1000
0000
0100
0000
,  // measure 18
0010
0000
0000
0000
0010
0000
0000
0100
0001
0000
0000
0010
0100
0000
0100
0000
,  // measure 19
1000
0100
1000
0100
1000
0010
1000
0010
,  // measure 20
0100
0010
0100
0010
1001
1001
1001
0000
,  // measure 21
0110
0000
0001
1000
0100
0000
0010
0100
,  // measure 22
0010
1000
0001
0001
0020
0000
0032
0000
,  // measure 23
0103
0010
1000
0001
0200
0000
0310
1000
,  // measure 24
0100
1100
0110
0011
,  // measure 25
0100
0001
1000
0000
1000
0001
0010
0100
,  // measure 26
0010
1000
0001
0001
0020
0000
0230
0000
,  // measure 27
0310
0001
1000
0001
0100
0000
0010
1000
,  // measure 28
1001
0000
0101
0000
1000
1000
0100
0100
,  // measure 29
0010
0100
0001
0010
1000
0100
0010
0001
,  // measure 30
0100
0000
1001
0000
0001
0001
1000
1000
,  // measure 31
0010
0100
0010
1000
0100
0010
0001
0100
,  // measure 32
0002
0000
0023
0000
0130
0100
0001
0001
,  // measure 33
0011
0000
0001
1000
0010
0000
0100
0010
,  // measure 34
1000
0000
1000
0001
0010
0000
0001
0100
,  // measure 35
0101
1000
1100
0010
,  // measure 36
1000
0100
0010
0001
0010
0100
1000
0000
0000
0110
0000
0000
,  // measure 37
0000
0000
0000
0000
0000
0000
0000
0000
1000
0000
0001
0100
0000
0010
0000
0010
,  // measure 38
0100
0000
0000
0000
1001
0000
0000
1000
0000
0100
0000
0010
0001
0000
0100
0000
,  // measure 39
0001
0000
0000
0000
1001
0000
0000
0010
0000
0100
0000
0010
1000
0000
0100
0000
,  // measure 40
0010
0000
0000
0000
1001
0000
0000
0010
0000
0010
0000
1000
0100
0000
0010
0000
,  // measure 41
0110
0000
0000
0000
0011
0000
0000
0000
0001
0000
1000
0100
0000
0001
0000
0100
,  // measure 42
0010
0000
0000
0000
0001
0000
0000
1000
0000
0001
0000
0100
0010
0000
1000
0000
,  // measure 43
0100
0000
0000
0000
0110
0000
0000
0001
0000
1000
0000
0001
0010
0000
0001
0000
,  // measure 44
0001
0100
0001
0100
1000
0100
1000
0100
,  // measure 45
0010
0100
0010
0100
1001
1001
1001
0000
,  // measure 46
1000
0100
0010
0001
1000
0001
0010
0001
,  // measure 47
0100
0010
1000
0100
0010
0001
1000
0000
,  // measure 48
0010
0100
0001
0010
0001
1000
0100
1000
,  // measure 49
0010
0100
0010
1000
0100
0010
0001
0000
,  // measure 50
0100
0010
1000
0001
0010
0100
1000
0010
,  // measure 51
0100
0001
0010
0001
0100
0001
1000
0000
,  // measure 52
1000
0010
0100
0001
1000
0010
0010
0100
,  // measure 53
0100
0001
1000
0001
0100
0001
0010
0100
,  // measure 54
0020
0000
0100
0001
,  // measure 55
0130
0000
0000
0000
0010
0000
0000
1000
0000
1000
0000
0100
0000
0000
0010
0000
,  // measure 56
0100
0000
0000
1000
0001
0000
0000
0000
0010
0000
0000
0001
1000
0000
0100
0000
,  // measure 57
0100
0000
0000
0000
0010
0000
0000
0100
0000
0010
0000
1000
0000
0000
0001
0000
,  // measure 58
0100
0000
0000
0010
1000
0000
0000
0000
0100
0000
0000
0010
0001
0000
0000
0000
,  // measure 59
1001
0000
0110
0000
0001
0100
1000
0100
,  // measure 60
0011
0000
1100
0000
0001
1000
0001
0100
,  // measure 61
0010
1000
0010
1000
0001
0100
0001
0100
,  // measure 62
0001
0010
0001
0010
0110
1100
1100
0000
,  // measure 63
1001
0000
0000
0000
0010
0000
0000
0100
0000
0001
0000
1000
0100
0000
0100
0000
,  // measure 64
0010
0000
0000
0000
1100
0000
0000
0010
0000
0010
0000
0001
0100
0000
0100
0000
,  // measure 65
0010
0000
0000
0000
1001
0000
0000
0100
0000
0100
0000
0010
0001
0000
1000
0000
,  // measure 66
0100
0000
0000
0000
1010
0000
0000
0010
1000
0000
0100
0000
0010
0000
0001
0000
,  // measure 67
0100
0000
0000
0000
0110
0000
0000
0010
0000
1000
0000
0001
0100
0000
0010
0000
,  // measure 68
0010
0000
0000
0000
1001
0000
0000
0100
0000
0010
0000
1000
0100
0000
0010
0000
,  // measure 69
0001
0010
1000
0010
0001
0010
1000
0010
,  // measure 70
0001
1000
0001
1000
1100
0011
1100
0000
;
