#TITLE:DoLL;
#SUBTITLE:L.E.D. Style Mix;
#ARTIST:TERRA remix by L.E.D.;
#TITLETRANSLIT:;
#SUBTITLETRANSLIT:;
#ARTISTTRANSLIT:;
#GENRE:;
#CREDIT:;
#MENUCOLOR:;
#NEWMETERSYSTEM:NO;
#BANNER:DoLL L.E.D. Style Mix-bn.png;
#BACKGROUND:DoLL L.E.D. Style Mix-bg.png;
#LYRICSPATH:;
#CDTITLE:MixMania III CD Title.png;
#MUSIC:DoLL L.E.D. Style Mix.mp3;
#OFFSET:2.060;
#SAMPLESTART:50.840;
#SAMPLELENGTH:12.000;
#SELECTABLE:YES;
#LISTSORT:;
#BPMS:0.000=170.000;
#STOPS:;
#BGCHANGES:;
#ATTACKS:;

//---------------dance-single - ----------------
#NOTES:
     dance-single:
     :
     Easy:
     6:
     0.377,0.497,0.053,0.182,0.000:
0000
0000
0000
0000
,
0000
0000
0000
0000
,
1000
0000
0000
0100
0000
0000
0010
0000
,
0001
0000
0000
0100
0000
0000
0001
0000
,
1000
0000
0001
1000
0000
0000
0000
0000
,
0000
1000
0100
0000
0010
0000
0001
0000
,
0100
0000
0000
0010
0000
0000
1000
0000
,
0100
0000
0000
0010
0000
0000
0001
0000
,
1000
0000
0000
0010
0100
0000
0000
0000
,
0000
0000
0100
0100
,
1001
0100
1000
0100
,
0020
0032
2003
3020
,
0130
0010
0100
1000
,
0200
0302
0023
0230
,
1300
0100
0010
0001
,
0001
1000
0001
1000
,
0010
0000
1000
0000
,
0100
0010
0200
2300
,
3100
0000
1000
0100
0010
0000
0001
0000
,
0100
0001
1000
0010
,
0100
0000
0010
1000
0100
0000
0010
0000
,
0001
1000
0002
1000
,
1003
0000
0100
1000
0010
0000
0100
0000
,
0010
0001
0100
0001
,
0010
0001
0100
0000
0010
0000
1000
0000
,
0100
0000
1000
0000
0100
0100
0100
0000
,
1000
0000
0100
0010
0000
0000
0100
0000
,
0010
0000
0001
0100
0000
0000
0010
0000
,
1000
0000
1000
0010
0000
0000
1000
0000
,
0100
0010
0001
0100
,
0002
1003
0100
0010
,
0200
0310
0100
0001
,
0200
0000
0310
0000
0100
0000
0010
1000
,
0001
0000
1000
1000
,
1001
0000
0000
1000
0000
0000
0100
0000
,
0110
0000
0000
0010
0000
0000
0001
0000
,
0101
0000
0010
0010
,
0020
0000
0001
0001
,
0031
0000
0100
0001
0100
0000
0010
0000
,
1000
0000
0100
1000
0100
0000
1000
0000
,
0200
0300
0020
0030
,
0100
0010
0001
1000
,
0001
0000
1000
0010
0000
0000
1000
0000
,
0100
1000
0100
0010
,
0100
0000
0010
0100
0000
0000
0010
0000
,
0100
0010
0001
1000
,
0001
0000
0001
0100
0000
0000
0010
0000
,
1000
0100
0010
0001
,
1000
0000
0000
1000
0100
0000
0010
0000
,
0010
0100
1000
0001
,
0001
0000
0100
0000
0010
0000
0000
1000
,
0000
1000
0000
0100
0000
0000
0000
0000
,
1000
0000
0010
0000
0100
0000
0000
0010
,
0000
0010
0000
0001
0000
0000
0000
0000
,
0001
0000
0010
0000
0100
0000
0000
0001
,
0000
1000
0000
0001
0000
0000
0000
0000
,
0010
1000
0100
0000
,
0200
0000
0000
0300
,
1000
0000
0001
0000
0100
0000
0000
0010
,
0000
1000
0000
0001
0000
0000
0000
0000
,
0100
0000
0001
0000
1000
0000
0000
0010
,
0000
0001
0000
0100
0000
0000
0000
0000
,
1000
0000
0100
0000
1000
0000
0000
0001
,
0000
0100
0000
0001
0000
0000
0000
0000
,
0010
0000
0100
0000
0010
0000
0000
1000
,
0000
0100
0000
0010
0000
0000
0000
0000
,
1001
0000
0000
0100
0000
0000
0000
0000
,
1000
0000
0000
0100
0000
0000
0010
0000
,
0020
0000
0000
0000
,
0200
0000
0000
0330
,
0001
0100
0010
1000
,
0001
0100
0010
1000
,
0200
0000
0000
0000
,
0310
0000
0010
0010
,
0001
0100
0001
0100
,
0010
1000
0010
1000
,
0020
1000
0230
0010
,
0301
0001
0100
0100
,
0010
0000
0000
1000
0000
0000
0100
0000
,
0010
0000
0001
0000
1000
0000
0001
1000
,
0001
0000
0000
0100
0000
0000
0010
0000
,
0100
0000
0001
0000
0010
0000
0100
1000
,
0010
0000
0000
0010
0000
0000
0001
0000
,
1000
0001
0010
0001
,
0200
0000
0010
0000
,
0301
1000
0001
0010
,
1001
0000
0000
0100
0000
0000
0010
0000
,
1000
0000
0000
0100
0000
0000
0010
0000
,
0001
0000
0000
0100
0000
0000
0001
0000
,
1000
0000
0000
0010
0000
0000
0100
0000
,
0010
0000
0000
1000
0000
0000
0001
0000
,
1000
0000
0000
0100
0000
0000
0010
0000
,
0001
0000
0000
0100
0001
0000
0000
0000
,
1000
0001
0110
0000
;

//---------------dance-single - Copied from----------------
#NOTES:
     dance-single:
     Copied from:
     Beginner:
     1:
     0.089,0.142,0.015,0.046,0.000:
0000
0000
0000
0000
,
0000
0000
0000
0000
,
1000
0000
0000
0000
,
0000
0000
0000
0000
,
0100
0000
0000
0000
,
0000
0000
0000
0010
,
0010
0000
0000
0000
,
0000
0000
0000
0000
,
0001
0000
0000
0000
,
0000
0000
0000
0000
,
1000
0000
0000
0000
,
0001
0000
0000
0000
,
0001
0000
0000
0000
,
0100
0000
0000
0000
,
0010
0000
0000
0000
,
0100
0000
0000
0000
,
0100
0000
0000
0000
,
0200
0000
0000
0000
,
0300
0000
0000
0000
,
0000
0000
0000
0000
,
0010
0000
0000
0000
,
0000
0000
1000
0000
,
1000
0000
0000
0000
,
0000
0000
0000
0000
,
0100
0000
0000
0000
,
0010
0000
0001
0000
,
0001
0000
0000
0000
,
0100
0000
0000
0000
,
0010
0000
0000
0000
,
2000
0000
0000
0000
,
3000
0000
0000
0000
,
0001
0000
0000
0000
,
0100
0000
0000
0000
,
1001
0000
0000
0000
,
0010
0000
0000
0000
,
0010
0000
0000
0000
,
0020
0000
0030
0000
,
0000
0000
0000
0000
,
0100
0000
0000
0000
,
0100
0000
0000
0000
,
2000
0000
0000
0000
,
3000
0000
0000
0000
,
0001
0000
0000
0000
,
1000
0000
0000
0000
,
0010
0000
0000
0000
,
1000
0000
0000
0000
,
0100
0000
0000
0000
,
0001
0000
0000
0000
,
0001
0000
0000
0000
,
0000
0000
0000
0000
,
0010
0000
0000
0000
,
0000
0000
0000
0100
,
0100
0000
0000
0000
,
0000
0000
0000
0001
,
0001
0000
0000
0000
,
0000
0000
0000
1000
,
1000
0000
0000
0000
,
0000
0000
0000
0000
,
0100
0000
0000
0000
,
0000
0000
0000
0000
,
0010
0000
0000
0000
,
0000
0000
0000
0000
,
0001
0000
0000
0000
,
0000
0000
0000
0000
,
1000
0000
0000
0000
,
0000
0000
0000
0000
,
1001
0000
0000
0000
,
0000
0000
0000
0000
,
0100
0000
0000
0000
,
0020
0000
0000
0000
,
0030
0000
0000
0000
,
0100
0000
0000
0000
,
0010
0000
0000
0000
,
0000
0000
0000
0000
,
0001
0000
0000
0000
,
1000
0000
0000
0000
,
0001
0000
0000
0000
,
0000
0000
0000
0000
,
1000
0000
0000
0000
,
0010
0000
0000
0000
,
1000
0000
0000
0000
,
0100
0000
0000
0000
,
1000
0000
0000
0000
,
0001
0000
0000
0000
,
0020
0000
0000
0000
,
0000
0000
0030
0000
,
0010
0000
0000
0000
,
0100
0000
0000
0000
,
0010
0000
0000
0000
,
0001
0000
0000
0000
,
1000
0000
0000
0000
,
0010
0000
0000
0000
,
0100
0000
0000
0000
,
0001
0000
0001
0000
;

//---------------dance-single - Copied from----------------
#NOTES:
     dance-single:
     Copied from:
     Medium:
     7:
     0.449,0.497,0.182,0.091,0.000:
0000
0000
0000
0000
,
0000
0000
0000
0000
,
0000
0000
0000
0000
,
0000
0000
0000
0000
,
0010
0100
0010
0100
0000
0000
0000
0000
,
0000
1000
0100
0010
0001
0000
0010
0000
,
0001
0000
0100
0010
0000
0010
1000
0000
,
0100
0000
1000
0100
0000
0100
1000
0010
,
0100
0000
0000
0001
0001
0000
0000
0000
,
0000
0000
1000
0001
,
0101
0000
0000
0001
0000
1000
0010
0000
,
1000
0100
0010
0001
,
1001
0000
0001
1000
0000
0000
0010
0000
,
1000
0100
0010
0001
,
1001
0000
0001
1000
0010
0000
0100
0000
,
0010
1000
0100
0010
,
1001
0000
1001
0000
,
1001
0110
0002
0023
,
0130
0000
1000
0100
0010
0000
0001
0000
,
1000
0000
0001
0010
0001
0100
0001
0000
,
0100
0000
0010
1000
0100
0000
0010
0000
,
0001
0000
1000
0001
0020
0000
0030
0000
,
0100
0010
0100
0000
0010
0000
1000
0000
,
0100
0000
0010
0000
0001
0100
0010
0000
,
0100
0000
1000
0000
0100
0000
0001
1000
,
0001
0100
1001
1001
,
0010
0000
1000
0100
0010
0000
0001
0000
,
0100
0000
0001
0010
0100
0000
1000
0000
,
0002
0013
2000
3010
,
0010
0000
0100
0000
0001
0000
1000
0010
,
0100
0000
0100
0000
1000
0000
0100
0010
,
0001
0100
0001
1000
,
0001
0000
1000
0000
0010
0000
0100
0010
,
0020
0000
0000
0000
1000
0000
0100
0030
,
0110
0000
0000
0110
0000
0001
1000
0000
,
1001
0000
0000
1001
0000
1000
0001
0000
,
0101
0000
0000
0101
0000
0001
0100
0000
,
1010
0000
1010
0101
,
1001
0000
1000
0100
0010
0000
0001
0000
,
1000
0000
0001
1000
0001
0000
0010
0000
,
0100
0000
1000
0100
0200
0000
0010
0300
,
0010
0000
0001
0000
0100
0010
1000
0000
,
1000
0000
0100
0010
0000
0010
0001
0100
,
0001
0010
0001
0100
,
0010
0000
0010
1000
0000
1000
0100
1000
,
0010
0100
0010
0100
,
0001
0000
0001
0010
0000
0010
0100
1000
,
0100
0010
0001
1000
,
0001
0000
1000
0010
0020
0000
0000
0000
,
0100
0000
0100
0130
,
0001
0000
0001
0000
0100
0000
0001
1000
,
0000
0010
0000
1000
0000
0100
0000
0000
,
1000
0000
0100
0000
0010
0000
0001
1000
,
0000
0001
0000
1000
0000
0010
0000
0000
,
0100
0000
0001
0000
0010
0000
0001
0100
,
0000
0010
0000
1000
0000
0100
0000
0000
,
1000
0000
0100
0000
0010
0000
0001
1000
,
0002
0000
0100
0000
,
0013
0000
0100
0000
0001
0000
1000
0010
,
0000
1000
0000
0100
0000
0010
0000
0000
,
0100
0000
0010
0000
0001
0000
0100
0001
,
0000
0010
0000
0001
0000
0100
0000
0000
,
0010
0000
1000
0000
0001
0000
1000
0001
,
0000
0010
0000
0001
0000
1000
0000
0000
,
0100
0000
1000
0000
0010
0000
1000
0100
,
0020
0000
0100
0000
,
0031
0000
0000
0100
0000
0001
0100
0000
,
0010
0000
0000
1000
0000
0100
1000
0000
,
0100
0000
0000
1000
0000
0010
1000
0010
,
0002
0000
1000
0010
,
1003
0000
1000
0100
0010
0000
0001
0000
,
1000
0000
0001
1000
0010
0000
0100
0000
,
0001
0010
0100
1000
,
0001
0000
1000
0001
,
1000
0000
0010
0100
0001
0000
0010
0000
,
0001
0000
0100
0010
1000
0000
0100
0000
,
1000
0000
0000
0001
1000
0000
0000
0000
,
0001
1000
1100
0011
,
1001
0000
0100
1000
0000
1000
0100
0000
,
0010
0000
0001
0000
0100
0000
0001
0100
,
0010
0000
0000
1000
0000
0000
0100
0000
,
1000
0000
0100
0000
0010
0000
0001
1000
,
0001
0000
0001
0100
0000
0000
0010
0000
,
1000
0100
0010
0001
,
1000
0100
0010
0100
,
2000
0001
0001
0100
,
3001
0000
0000
0100
0000
0000
0010
0000
,
1000
0000
0000
0100
0000
0000
0010
0000
,
0001
0000
0000
0100
0000
0000
0010
0000
,
1000
0000
0000
0001
0000
0000
0001
0000
,
1000
0000
0100
0010
0000
0010
0001
0000
,
0001
0000
0001
0100
0000
0100
0010
0000
,
0010
0000
0000
1000
0100
0000
0100
0000
,
1100
0001
1001
0000
;

//---------------dance-single - Copied from----------------
#NOTES:
     dance-single:
     Copied from:
     Hard:
     7:
     0.521,0.532,0.251,0.091,0.000:
0000
0000
0000
0000
,
0000
0000
0000
0000
,
1001
0000
0000
1010
0000
1000
0100
0010
,
0001
0000
0000
0100
0000
0000
0001
0000
,
0100
0001
0100
0010
0000
0000
0000
0000
,
0000
1000
0100
0010
0002
0000
2003
0000
,
3001
0000
0010
0001
0000
0001
0100
0010
,
1000
0000
0000
1000
0000
0000
0100
0000
,
1000
0000
0010
0100
0010
0000
0000
0000
,
0100
0000
0010
0100
,
1001
0000
0000
0001
0000
0000
1000
0000
,
0100
1000
0010
0000
0100
0001
0010
0000
,
1001
0000
0000
1001
0000
0000
0100
0000
,
1000
0010
0100
0000
0001
0010
0100
0000
,
1001
0000
0000
0110
0000
0000
1000
0000
,
1001
0010
1000
0100
,
1001
0000
0110
0000
,
1001
0011
0110
1100
,
1000
0000
0100
0010
0001
0000
0100
0001
,
1000
0000
0010
1000
0100
0000
0100
0000
,
1000
0000
0010
0100
0001
0000
0010
0001
,
0100
0010
0020
0100
,
0130
0010
1000
0000
0100
0000
1000
0100
,
0010
0000
0001
1000
0010
0000
0100
0000
,
0001
0000
0010
0001
0100
0000
0010
1000
,
0100
0000
1000
0000
0001
0020
1000
0030
,
0100
0000
0001
0100
0000
0010
0000
1000
,
0000
0100
0000
0010
0000
0001
0010
0100
,
0010
0001
0100
0010
,
1000
0100
0010
0001
,
1000
0000
0001
0000
1000
0010
0100
0010
,
1000
0000
0100
0000
0010
0001
0010
0100
,
0010
0000
0001
0000
1000
0001
1000
0010
,
0220
0000
0000
0330
,
1001
0000
0000
0100
0000
1000
0100
0000
,
1001
0000
0000
0010
0000
0001
0100
0000
,
0110
0000
0000
1000
0000
0001
1000
0000
,
1001
0000
1001
1001
,
0010
0001
0010
0100
0000
0100
1000
0100
,
0010
0001
1000
0001
0000
0010
0001
0100
,
0001
0000
0100
0010
1000
0000
0100
0000
,
1000
0100
1001
1001
,
0110
0000
0001
0100
0000
0100
0010
0000
,
1000
0100
0010
0000
0010
0001
0010
0000
,
0001
0000
0001
0100
0000
0100
0010
0000
,
1000
0100
0010
0000
0001
0010
0100
0000
,
0001
0000
1000
0001
0000
0001
0100
0000
,
0010
1000
0100
0000
0010
0001
0100
0000
,
1001
0010
1001
0100
,
0002
1000
0203
0000
,
1300
0000
0100
0000
0010
0000
0001
1000
,
0000
0100
0000
1000
0000
0010
0000
0100
,
0001
0000
0010
0000
0001
0000
0100
0010
,
0000
1000
0000
0100
0000
1000
0000
0001
,
0100
0000
0010
0000
1000
0000
0100
0010
,
0000
0001
0000
1000
0000
0001
0000
0001
,
0100
0000
0010
0000
1000
0000
0100
1000
,
0020
0000
0000
0030
,
1001
0000
0100
0000
1000
0000
0100
0010
,
0000
0001
0000
1000
0000
0001
0000
0100
,
0010
0000
1000
0000
0100
0000
1000
0010
,
0000
0100
0000
0001
0000
1000
0000
0001
,
1000
0000
0100
0000
1000
0000
0001
0010
,
0000
0001
0000
0100
0000
0001
0000
0010
,
0001
0000
0100
0000
0001
0000
1000
0001
,
0000
0010
0000
0001
0000
0100
0000
0100
,
1000
0000
0100
1000
0000
1000
0100
0010
,
0001
0000
0100
0001
0000
0001
0010
0001
,
2000
0000
0000
0100
0000
0000
0010
0000
,
0002
3003
1100
0110
,
1001
0000
0001
0100
0000
0100
0010
1000
,
0100
0000
0100
0010
0000
0010
0001
1000
,
0001
0000
1000
0000
0100
0000
0010
0001
,
2000
0000
0010
3000
0100
0000
1000
0000
,
0100
1000
0010
0100
0000
0100
0001
0000
,
0010
0001
0100
0010
0000
0010
1000
0001
,
1000
0000
0100
0010
0001
0000
0100
0000
,
0001
0000
1000
0000
0010
1000
0100
0000
,
1000
0000
0100
0010
0000
0001
0100
0010
,
1000
0001
1000
0001
,
0010
0000
0001
0010
0000
0010
0100
1000
,
0100
1000
0010
0100
,
0001
0000
1000
0100
0000
1000
0100
1000
,
0001
0010
0001
0100
,
0010
1000
0001
0100
,
1000
0100
0001
0010
,
1000
0000
0100
0010
0000
0010
0001
0100
,
0001
0000
0001
0100
0000
0100
0010
1000
,
0100
0000
0100
0010
0000
0010
0001
1000
,
0010
0000
0010
0100
0000
0100
0001
1000
,
0001
0000
1000
0001
0000
0001
1000
0100
,
0010
0000
0010
0001
0000
0001
0100
0010
,
1000
0000
1000
0100
0100
0000
0010
0000
,
1001
1100
0011
0000
;

//---------------dance-single - Copied from----------------
#NOTES:
     dance-single:
     Copied from:
     Challenge:
     9:
     0.658,0.677,0.288,0.311,0.000: // measure 1
0000
0000
0000
0000
,  // measure 2
0000
0000
0000
0000
,  // measure 3
1000
0100
0010
0001
0000
1000
0001
1000
,  // measure 4
0001
1000
0010
0100
0000
0000
1000
0000
,  // measure 5
0100
0010
0001
1000
0000
0000
0000
0000
,  // measure 6
0000
0001
0010
0100
1000
0000
1001
0000
,  // measure 7
0110
1000
0100
0010
0000
0001
0100
0001
,  // measure 8
0010
0100
1000
0100
0000
0010
0001
1000
,  // measure 9
0001
0000
0001
0100
0100
0000
0010
0000
,  // measure 10
0000
0000
1100
0011
,  // measure 11
1001
0000
0001
0100
0000
0100
0010
1000
,  // measure 12
0200
0320
0032
2003
,  // measure 13
3001
0100
0010
1000
0000
0000
0001
0000
,  // measure 14
2000
3200
0320
0230
,  // measure 15
0301
0100
0010
1000
0000
0000
0001
0000
,  // measure 16
1001
1000
1010
0100
,  // measure 17
0110
0000
0001
1000
1001
0000
1000
0010
,  // measure 18
0110
0000
0101
0000
0011
0001
0010
0001
,  // measure 19
0101
0000
0100
1000
0100
0010
0001
0100
,  // measure 20
0000
0001
1000
0010
0200
0000
0320
0000
,  // measure 21
1030
0100
0010
0001
1000
0001
0010
0001
,  // measure 22
0100
0010
2002
3003
,  // measure 23
0010
0001
0100
0010
1000
0000
1000
0001
,  // measure 24
0100
0001
0010
0100
0020
0000
0230
0000
,  // measure 25
1300
0100
0010
0001
1000
0001
0100
0010
,  // measure 26
0100
0010
1001
1001
,  // measure 27
0001
0010
0100
1000
0000
0001
1000
0001
,  // measure 28
0000
1000
0000
0010
0000
0001
1000
0001
,  // measure 29
0010
0001
0100
0010
1000
0001
1000
0010
,  // measure 30
0100
0001
1000
0001
0010
1000
0010
0001
,  // measure 31
1000
0000
0100
0000
0010
0001
2000
0000
,  // measure 32
3002
0203
0302
0023
,  // measure 33
0032
0000
0100
0000
0010
0000
0100
0103
,  // measure 34
0101
0000
0000
0100
0001
1000
0100
0010
,  // measure 35
0001
1000
0001
0200
0000
0000
0300
0000
,  // measure 36
1000
0100
0010
0002
0000
0003
2000
0000
,  // measure 37
3010
0010
0010
0010
,  // measure 38
1001
0000
1001
1001
,  // measure 39
0001
0010
0100
0001
0000
0100
0001
0100
,  // measure 40
0010
1000
0100
0010
0000
0010
1000
0001
,  // measure 41
0100
0000
0010
0001
1000
0000
1000
0000
,  // measure 42
0001
0001
0011
1100
,  // measure 43
0001
1000
0100
0010
0000
0010
0001
1000
,  // measure 44
0001
0100
0010
0000
0010
1000
0100
0000
,  // measure 45
0100
0010
0001
1000
0000
0001
1000
0001
,  // measure 46
0010
0100
0100
0000
0010
1000
1000
0000
,  // measure 47
0100
1000
0010
0100
0000
0100
0100
0000
,  // measure 48
0001
1000
0010
0000
0010
0001
1000
0000
,  // measure 49
0010
0000
1000
0100
0100
0000
0010
0000
,  // measure 50
0001
0010
0001
0100
0010
0000
1001
0000
,  // measure 51
0001
0100
1000
0100
0001
0010
0001
0100
,  // measure 52
0000
0001
0000
1000
0000
0100
0000
0010
,  // measure 53
0001
1000
0100
1000
0010
1000
0001
0001
,  // measure 54
0000
0100
0000
0010
0000
1000
0000
0001
,  // measure 55
0100
0010
1000
0100
0001
0100
1000
0010
,  // measure 56
0000
0100
0000
0001
0000
1000
0000
0001
,  // measure 57
0010
0100
0001
1000
0010
0100
1000
0001
,  // measure 58
0100
0010
0000
0100
0000
0001
0000
0100
,  // measure 59
0010
1000
0001
0100
0010
0001
0010
1000
,  // measure 60
0000
0100
0000
1000
0000
0010
0000
1000
,  // measure 61
0100
0010
0001
1000
0001
0010
0001
0100
,  // measure 62
0000
0010
0000
0100
0000
1000
0000
0100
,  // measure 63
0010
1000
0001
0010
0001
1000
0010
0100
,  // measure 64
0000
0001
0000
0010
0000
0001
0000
0100
,  // measure 65
0001
1000
0100
0010
0001
1000
0100
0010
,  // measure 66
0002
0010
0010
0013
,  // measure 67
0110
0000
1000
0100
0000
0100
0010
0001
,  // measure 68
0100
0000
0010
1000
0000
0100
0010
1000
,  // measure 69
0100
0000
0001
0010
0000
0010
1000
0001
,  // measure 70
0200
0000
0300
0000
0100
0002
0103
0002
,  // measure 71
1003
0000
0001
0100
1000
0000
1001
0000
,  // measure 72
0110
0000
1000
0100
0001
0000
1001
0000
,  // measure 73
0110
0000
0001
0010
0000
0100
1000
0100
,  // measure 74
0010
0000
0001
0000
1000
0001
1000
0001
,  // measure 75
1001
0000
0100
1000
1010
0000
1100
0000
,  // measure 76
1010
0000
1000
0010
0001
0000
0101
0000
,  // measure 77
0011
0000
0001
0100
1000
0000
0001
0000
,  // measure 78
1000
0000
0001
0000
0100
0001
0010
0000
,  // measure 79
0011
0000
0001
0100
0010
1000
0100
1000
,  // measure 80
0020
0230
0302
0203
,  // measure 81
0310
1000
0100
0010
0001
1000
0001
0100
,  // measure 82
0020
2030
3200
0320
,  // measure 83
0031
0100
0001
0010
1000
0100
1000
0010
,  // measure 84
0200
0302
0023
0230
,  // measure 85
0310
0100
0010
0100
1000
0100
0010
0001
,  // measure 86
0010
0001
0010
0100
1000
0010
0100
0001
,  // measure 87
0100
0010
1000
0100
0000
0100
0010
0001
,  // measure 88
1000
0001
0010
0100
0000
1000
0100
0010
,  // measure 89
0001
1000
0001
0010
0000
0100
0000
0010
,  // measure 90
0001
1000
0001
0100
0000
0010
0001
1000
,  // measure 91
1000
0100
0010
0001
0000
0001
0100
0010
,  // measure 92
1000
0100
1000
0001
0000
0100
0001
1000
,  // measure 93
0100
0000
0100
0010
0010
0000
1000
0000
,  // measure 94
1100
0000
0011
0000
0220
0000
0000
0330
;
