#TITLE:Circus;
#SUBTITLE:;
#ARTIST:Britney Spears;
#TITLETRANSLIT:;
#SUBTITLETRANSLIT:;
#ARTISTTRANSLIT:;
#GENRE:;
#CREDIT:;
#MENUCOLOR:;
#NEWMETERSYSTEM:NO;
#BANNER:Circus-bn.png;
#BACKGROUND:Circus-bg.png;
#LYRICSPATH:;
#CDTITLE:MixMania III CD Title.png;
#MUSIC:Circus.mp3;
#OFFSET:-0.400;
#SAMPLESTART:52.560;
#SAMPLELENGTH:18.000;
#SELECTABLE:YES;
#LISTSORT:;
#BPMS:0.000=115.000;
#STOPS:;
#BGCHANGES:;
#ATTACKS:;

//---------------dance-single - ----------------
#NOTES:
     dance-single:
     :
     Easy:
     3:
     0.252,0.257,0.079,0.237,0.000:
0000
0000
0000
0000
,
0000
0000
0000
0000
,
0010
0000
0010
0000
,
0010
0000
0010
1001
,
0100
0000
1000
0100
,
1000
0000
0000
1000
,
0100
0100
0000
1000
,
0010
0001
0000
0001
,
1001
1000
0001
0000
,
0010
0100
0010
0000
,
1000
1100
0000
0001
,
0011
0000
0200
0010
,
0310
0000
1000
0100
,
1000
0001
0100
0000
,
1001
0000
0001
0010
,
0001
0000
2000
3000
,
0100
0100
0100
0100
,
0010
0010
0010
0010
,
0100
0100
0100
0100
,
0002
0003
2000
3000
,
0100
0100
0100
0100
,
1000
1000
1000
1000
,
0001
0001
0001
0001
,
0010
0010
0010
0010
,
2002
0000
0000
3003
,
0110
0000
0100
1000
,
0001
0000
0020
0032
,
1003
0000
0100
1000
,
0010
0000
0200
0320
,
0130
0000
0001
0100
,
1000
0000
1000
0100
,
0001
0000
1000
0010
,
0100
0000
0002
2003
,
3100
0100
0100
0100
,
0200
0000
0000
0300
,
1000
0000
0100
0000
,
0010
0001
1000
0001
,
1001
0000
0100
0000
,
0010
0000
0100
0010
,
1001
1000
0200
0300
,
1000
0100
0020
0032
,
0013
0000
0001
0100
,
0200
0010
0020
0330
,
0110
0010
1000
0100
,
0010
0001
2000
3200
,
0300
0010
0100
0001
,
1000
0001
0020
0032
,
0003
0010
0100
0001
,
0001
1000
0100
1000
,
0010
0100
0001
0010
,
0100
1000
0020
2030
,
3000
0100
1000
0001
,
0100
0001
0020
0230
,
0300
0001
1000
0001
,
0100
0010
2000
3020
,
0030
0001
0010
0001
,
0010
0100
1000
0100
,
0010
1000
0001
0100
,
0010
1000
0002
2003
,
3100
0000
0000
0000
;

//---------------dance-single - Copied from----------------
#NOTES:
     dance-single:
     Copied from:
     Beginner:
     1:
     0.096,0.140,0.008,0.087,0.000:
0000
0000
0000
0000
,
0000
0000
0000
0000
,
1000
0000
0000
0000
,
0000
0000
0000
0010
,
0010
0000
0000
0000
,
0010
0000
0000
0000
,
1000
0000
0000
0000
,
0001
0000
0000
0000
,
0001
0000
0000
0000
,
1000
0000
0000
0000
,
0100
0000
0000
0000
,
0010
0000
0000
0000
,
0100
0000
0000
0000
,
0000
0000
0000
0000
,
0010
0000
0000
0000
,
0000
0000
0000
0001
,
0002
0000
0003
0000
,
2000
0000
3000
0000
,
0200
0000
0300
0000
,
0020
0000
0030
0000
,
0002
0000
0003
0000
,
0200
0000
0300
0000
,
0020
0000
0030
0000
,
2000
0000
3000
0000
,
2002
0000
3003
0000
,
1000
0000
0000
0000
,
0100
0000
0100
0000
,
0100
0000
0000
0000
,
0001
0000
0001
0000
,
0001
0000
0000
0000
,
1000
0000
1000
0000
,
1000
0000
0000
0000
,
0100
0000
0100
0000
,
0200
0000
0000
0000
,
0300
0000
0000
0000
,
0010
0000
0000
0000
,
0000
0000
0000
1000
,
1000
0000
0000
0000
,
0010
0000
0000
0010
,
0010
0000
0000
0000
,
0100
0000
0100
0100
,
0100
0000
0000
0000
,
0001
0000
0001
0000
,
0001
0000
1000
0000
,
0001
0000
0100
0000
,
0000
0000
0010
0000
,
1000
0000
0100
0000
,
0000
0000
0001
0000
,
0010
0000
0001
0000
,
0000
0000
1000
0000
,
0100
0000
0010
0000
,
0000
0000
1000
0000
,
0001
0000
1000
0000
,
0000
0000
0001
0000
,
1000
0000
0001
0000
,
0000
0000
0010
0000
,
0100
0000
0010
0000
,
0000
0000
1000
0000
,
0001
0000
1000
0000
,
0001
0000
0000
0000
;

//---------------dance-single - Copied from----------------
#NOTES:
     dance-single:
     Copied from:
     Medium:
     5:
     0.270,0.280,0.063,0.103,0.000:
0000
0000
0000
0000
,
0000
0000
0000
0000
,
1001
0000
0001
0001
,
1000
0000
0000
0000
1000
1000
0010
0000
,
0100
0000
0010
1000
,
0200
0000
1000
0001
,
1300
0000
1000
0001
,
0020
0000
0001
1000
,
0031
0000
0000
0000
0100
0001
0010
0000
,
0200
0000
0010
0310
,
0110
1001
0100
1000
,
0002
0000
0013
0010
,
0100
0000
0000
0000
0010
1000
0001
0000
,
0100
0000
0010
0100
,
0010
0000
0000
0000
1000
0000
0001
1000
,
0100
0000
0000
0000
1000
0000
0010
0010
,
0100
0010
0100
0010
,
0100
0001
0100
0001
,
1000
0001
1000
0001
,
0010
0001
0010
0001
,
1000
0100
1000
0100
,
1000
0010
1000
0010
,
0100
0010
0100
0010
,
0100
0001
0100
0001
,
0022
0000
0000
0033
,
1001
0000
1000
0000
0001
1000
0001
0000
,
0010
0000
0001
0000
0100
0010
1000
0000
,
0100
0000
0100
0000
1000
0000
0100
1000
,
0010
0100
0002
0003
,
1000
0000
0100
0000
0010
0001
1000
0000
,
0100
0010
0200
0300
,
0010
1000
0001
0000
0100
0000
0100
0000
,
0010
0100
0020
0030
,
1000
0000
1000
1000
,
0001
0000
0001
0000
,
1001
0000
0100
0000
,
0010
1000
0100
0001
,
0010
0000
0100
0010
,
0100
0000
0000
0000
0001
0000
1000
1000
,
0100
0000
0010
1000
,
0100
0010
0200
0301
,
0010
0001
0100
0010
,
0100
0000
0000
0000
0100
0000
1000
1000
,
0001
0100
0001
0010
,
0001
1000
0020
1030
,
0100
0000
1000
0010
1000
0000
0001
0100
,
0001
0010
0200
0310
,
0100
0001
1000
0100
,
0010
0000
0001
0000
1000
0100
1000
0000
,
1100
1000
0001
0100
,
0001
0010
0200
0310
,
1000
0001
0100
0010
,
1000
0100
0010
0001
,
1000
0000
0010
0000
0100
0000
0001
0001
,
1000
0010
0100
0001
,
1000
0100
0010
0001
,
1000
0000
0100
0000
0010
0010
0001
0000
,
1000
0010
0100
0001
,
0010
0001
0100
0010
,
1010
0000
0000
0000
;

//---------------dance-single - Copied from----------------
#NOTES:
     dance-single:
     Copied from:
     Hard:
     6:
     0.390,0.396,0.190,0.071,0.000:
0000
0000
0000
0000
,
0000
0000
0000
0000
,
1010
0000
1000
0000
1000
0100
1000
0000
,
1000
0100
1000
0000
1000
0100
1000
1000
,
1010
0000
1000
0100
0000
0100
0010
0000
,
0011
0000
0001
0100
0000
0100
0001
0000
,
0011
0000
1000
0001
0000
0001
1000
0010
,
0100
0000
0010
0100
0000
0100
0010
0000
,
1001
0000
0100
0010
0000
0100
1000
0100
,
1100
0000
0001
1000
0000
1000
0100
0000
,
0101
0000
0100
0001
0000
0010
0001
0000
,
1001
0010
1001
0100
,
1000
0000
0001
0100
0000
1000
0001
0000
,
1000
0000
0010
0100
0010
0100
0010
0000
,
1000
0000
0100
1000
0000
0010
0001
0000
,
0100
0000
0001
0010
0100
1000
0001
0000
,
1001
0100
0010
0001
,
1000
0000
0100
0000
0010
0000
0001
1000
,
0001
0010
0100
1000
,
0001
0010
0001
0000
1000
0100
1000
0010
,
1000
0100
0010
0001
,
1000
0000
0100
0000
0010
0001
1000
0001
,
0001
0010
0100
1000
,
0001
0000
0010
0000
0100
0100
1000
0010
,
2000
0100
0100
3100
,
1001
0100
0100
1000
0100
0000
0001
1000
,
0100
0000
0010
0001
0200
0010
0310
0000
,
0001
0010
0100
0000
0001
1000
0010
0000
,
0001
0010
0100
1000
0020
1000
1030
0000
,
1000
0100
0010
0000
0001
0010
0100
0000
,
1000
0001
1000
0000
0001
1000
0001
0000
,
0010
0001
1000
0010
0100
0000
0100
0010
,
0001
0000
1000
0010
0002
0010
0013
0000
,
0011
1001
1010
1100
,
0101
1001
0012
1003
,
0100
0001
1000
0100
,
1000
0000
0010
0000
0100
0000
0010
0100
,
0010
1000
0001
0010
,
0100
0000
1000
0000
0010
0000
0100
1000
,
0001
0100
0001
0010
,
0001
0000
0100
0000
0020
1000
1030
0000
,
1100
1000
0001
0100
,
0001
0000
0001
0000
1000
1000
0010
0010
,
1000
0000
0100
0000
0010
0000
0001
0001
,
1000
0000
0100
0000
1000
0010
0100
0000
,
0001
1000
0100
0000
0010
0001
1000
0000
,
0010
0100
0010
0100
0002
0000
0013
0000
,
0100
1000
0010
0000
0100
0001
0010
0000
,
0100
1000
0010
0100
0001
0010
0100
0010
,
0100
0000
1000
0000
0100
0010
0001
0000
,
1001
0100
1001
0010
,
1001
0001
0100
0000
1000
1000
0100
0000
,
0010
0001
1000
0100
2000
0010
3010
0000
,
0100
1000
0010
0000
0100
0001
0010
0000
,
0001
1000
0100
0100
0020
0001
0031
0000
,
1001
0000
0001
1000
0100
0000
0010
0001
,
1000
0000
0100
1000
0010
0000
0100
0000
,
0001
0010
0100
0000
1000
0010
0100
0000
,
1000
0100
0010
0001
0010
0100
1000
1000
,
1001
0000
0000
0000
;

//---------------dance-single - Copied from Copied f----------------
#NOTES:
     dance-single:
     Copied from Copied f:
     Challenge:
     8:
     0.517,0.490,0.308,0.095,0.071: // measure 1
0000
0000
0000
0000
,  // measure 2
0000
0000
0000
0000
,  // measure 3
1000
0001
1000
0001
1000
0001
1000
0001
,  // measure 4
1000
0001
1000
0001
1000
0001
1001
0000
,  // measure 5
0001
0000
1000
0001
0100
0001
0010
0100
,  // measure 6
2000
0000
3100
0100
0000
1000
0010
0000
,  // measure 7
0101
0000
1000
0001
0000
0100
0001
0010
,  // measure 8
0200
0000
1000
0001
0000
1000
1300
0000
,  // measure 9
1100
1000
0010
0100
0001
0010
0010
0001
,  // measure 10
0100
0000
0001
1000
0000
0100
0100
0010
,  // measure 11
0100
0000
1001
0000
0100
1000
0100
0010
,  // measure 12
0002
0000
1000
0100
0103
0011
0101
0000
,  // measure 13
1000
0000
0001
0100
0000
0010
1000
0001
,  // measure 14
2000
0000
0100
0100
3100
0010
0100
0100
,  // measure 15
1000
0000
0100
0100
0000
0010
0001
1000
,  // measure 16
0001
0000
0001
0100
0010
0100
1002
0000
,  // measure 17
1003
0100
1000
0100
1000
0100
1000
0100
,  // measure 18
0010
0001
0010
0001
0010
0001
0010
0001
,  // measure 19
0100
0010
0100
0010
0100
0010
0100
0010
,  // measure 20
1000
0001
1000
0001
0100
0001
0100
0001
,  // measure 21
1000
0010
1000
0010
1000
0010
1000
0010
,  // measure 22
0100
0001
0100
0001
0100
0001
0100
0001
,  // measure 23
0010
0100
0010
0100
0010
0100
0010
0100
,  // measure 24
1000
0001
1000
0001
0010
0001
0010
0100
,  // measure 25
0220
0000
0000
0030
,  // measure 26
1300
1000
0100
0010
0001
0001
0010
0001
,  // measure 27
0100
0100
0010
1000
1100
0010
0101
0000
,  // measure 28
1001
0001
1000
0010
0100
0001
0010
0010
,  // measure 29
0001
1000
0100
1000
0011
0100
1010
0000
,  // measure 30
1001
0100
0010
0100
1001
0100
0010
1001
,  // measure 31
0100
0010
0001
1000
0001
0100
0010
0020
,  // measure 32
0000
1030
0001
0100
0010
0100
0100
0010
,  // measure 33
1000
0100
0001
0100
0010
0001
1000
1000
,  // measure 34
1100
0011
1010
0101
,  // measure 35
0011
0000
1100
0000
1001
0010
0210
0000
,  // measure 36
0310
0000
0000
1000
0001
0000
0000
0100
0000
0000
0100
0000
0001
0000
0010
0000
,  // measure 37
0001
0000
0000
0001
0100
0000
0010
0000
0000
1000
0000
0000
0001
0100
0001
0000
,  // measure 38
0010
0000
0000
0001
0100
0000
0010
0000
0000
1000
0100
0000
1000
0000
0000
0000
,  // measure 39
0010
0000
0000
1000
0100
0000
0010
0000
0000
0001
0000
0000
0100
0010
0100
0000
,  // measure 40
0010
0000
0000
1000
0100
0000
0001
0000
0010
0001
0010
0000
0100
0000
0000
0100
,  // measure 41
0000
0001
1000
0001
0101
0010
1100
0000
,  // measure 42
0001
0000
1000
0000
0100
0000
0000
0010
0000
0001
0100
0000
0010
0000
0000
1000
,  // measure 43
0000
0000
0100
0000
0010
0000
0001
0000
0100
0000
0000
0010
0100
0010
0200
0000
,  // measure 44
0310
1000
0100
0100
0010
0001
1000
0001
,  // measure 45
1000
1000
0100
1000
1010
0100
0011
0000
,  // measure 46
0000
0100
0001
0100
0010
1000
0001
0001
,  // measure 47
1000
0100
0010
0001
1010
0100
1001
0000
,  // measure 48
0011
0001
1000
0100
1000
0010
0001
1000
,  // measure 49
0100
0001
1000
0001
0100
0001
1000
0010
,  // measure 50
0110
0001
0001
1000
0002
0000
1003
1000
,  // measure 51
0200
0000
1300
1000
0010
1000
0010
0010
,  // measure 52
0001
0010
0001
0100
0100
0010
1000
0100
,  // measure 53
0010
0001
1000
0001
0011
0100
0011
0000
,  // measure 54
0100
0001
1000
1000
0100
1000
0010
0100
,  // measure 55
0001
0010
0100
1000
1010
0100
1010
0000
,  // measure 56
1000
0100
0010
0001
1100
0100
0001
0011
,  // measure 57
0010
1000
0100
1000
0010
0100
0001
0010
,  // measure 58
0001
1000
0100
0100
0010
0001
0100
0100
,  // measure 59
0001
1000
0010
0100
0001
0001
1000
0001
,  // measure 60
0101
0000
0000
0000
;
