#TITLE:Caramelldancing;
#SUBTITLE:;
#ARTIST:Caramell;
#TITLETRANSLIT:;
#SUBTITLETRANSLIT:;
#ARTISTTRANSLIT:;
#GENRE:;
#CREDIT:;
#MENUCOLOR:;
#NEWMETERSYSTEM:NO;
#BANNER:Caramelldancing-bn.png;
#BACKGROUND:Caramelldancing-bg.png;
#LYRICSPATH:;
#CDTITLE:MixMania III CD Title.png;
#MUSIC:Caramelldancing.mp3;
#OFFSET:-0.040;
#SAMPLESTART:33.520;
#SAMPLELENGTH:12.000;
#SELECTABLE:YES;
#LISTSORT:;
#BPMS:0.000=164.800,288.000=163.600,296.000=164.800;
#DISPLAYBPM:165.000;
#STOPS:;
#BGCHANGES:;
#ATTACKS:;

//---------------dance-single - ----------------
#NOTES:
     dance-single:
     :
     Easy:
     3:
     0.260,0.337,0.147,0.139,0.000:
0000
0000
0000
0000
,
0000
0000
0000
0000
,
0000
0000
0000
0000
,
0000
0000
0000
0000
,
1000
0000
0001
0010
,
0001
0000
1000
0100
,
1000
0000
0010
0100
,
0020
0000
0030
0000
,
0100
0000
0100
0000
,
0100
0001
0100
0000
,
1000
0000
1000
0000
,
1000
0010
1000
0000
,
0100
0000
0100
0000
,
0100
0010
0100
0000
,
0010
0000
0010
0000
,
0001
0010
0100
1000
,
0001
0000
0001
0000
,
1001
0000
1001
0000
,
1000
0100
1000
0000
,
1001
0000
1001
0000
,
0010
0000
0000
0000
,
0100
0000
0100
0010
,
0100
0000
0000
0000
,
2002
0000
3003
0000
,
1000
0100
1000
0000
,
0100
0010
0001
0000
,
1000
0001
1000
0000
,
0001
0010
0100
0000
,
0010
0010
0010
0000
,
0001
0100
0001
0000
,
0100
0010
1000
0000
,
0100
0100
0100
0100
,
1001
0000
1001
0000
,
0100
0000
0000
0000
,
0110
0000
0110
0000
,
0001
0000
0000
0000
,
1001
0000
1001
0000
,
0020
0000
0030
0000
,
0110
0000
0110
0000
,
2000
0000
3000
0000
,
0001
0000
0001
0000
,
0001
1000
0001
0000
,
1000
0000
1000
0000
,
1000
0010
1000
0000
,
0100
0000
0100
0000
,
0010
0010
0001
0000
,
0010
0000
0010
0000
,
0100
0100
1000
0000
,
1000
0100
1000
0000
,
0001
0100
0001
0000
,
0010
0001
0010
0000
,
1000
0100
1000
0000
,
0002
0000
1003
0000
,
2000
0000
3100
0000
,
0220
0000
0000
0330
,
2002
0000
0000
3003
,
0010
0010
0001
0000
,
1000
0001
1000
0000
,
0100
1000
0010
0000
,
0200
0320
0230
0300
,
0010
0010
0001
0000
,
1000
1000
0100
0000
,
1000
0100
0010
0000
,
0001
1000
0001
1000
,
1001
0010
0000
0010
,
0000
0010
0000
0010
,
0000
0010
0000
0010
,
0000
0010
0000
0010
,
1001
0000
0000
0000
,
1000
0000
1000
0000
,
0100
0000
0000
0000
,
0001
0000
0001
0000
,
2002
0000
0000
0000
,
3003
0000
0000
0000
,
0010
0010
0010
0000
,
0001
0100
0001
0000
,
1000
1000
1000
0000
,
0010
1000
0010
0000
,
0100
0100
0100
0000
,
0010
0001
1000
0000
,
0010
0010
0010
0000
,
0100
1000
0001
1000
,
0002
0000
0003
0000
;

//---------------dance-single - Copied from----------------
#NOTES:
     dance-single:
     Copied from:
     Beginner:
     1:
     0.092,0.167,0.057,0.016,0.000:
0000
0000
0000
0000
,
0000
0000
0000
0000
,
0000
0000
0000
0000
,
0000
0000
0000
0000
,
1000
0000
0000
0000
,
1000
0000
0000
0000
,
0001
0000
0000
0000
,
0001
0000
0000
0000
,
0010
0000
0000
0000
,
0000
0000
0000
0000
,
0100
0000
0000
0000
,
0100
0000
0000
0000
,
1000
0000
0000
0000
,
0000
0000
0000
0000
,
0001
0000
0000
0000
,
0010
0000
0000
0000
,
0001
0000
0000
0000
,
0000
0000
0000
0000
,
1000
0000
0000
0000
,
0000
0000
0000
0000
,
0100
0000
0000
0000
,
0100
0000
0000
0000
,
0100
0000
0000
0000
,
0010
0000
0000
0000
,
1001
0000
0000
0000
,
0010
0000
0000
0000
,
1001
0000
0000
0000
,
0100
0000
0000
0000
,
0100
0000
0000
0000
,
0010
0000
0000
0000
,
0100
0000
0000
0000
,
0100
0000
0000
0000
,
1000
0000
0000
0000
,
0001
0000
0000
0000
,
1000
0000
0000
0000
,
0001
0000
0000
0000
,
0010
0000
0000
0000
,
0100
0000
0000
0000
,
0010
0000
0000
0000
,
0100
0000
0000
0000
,
0001
0000
0001
0000
,
0001
0000
0000
0000
,
1000
0000
1000
0000
,
1000
0000
0000
0000
,
0020
0000
0000
0000
,
0030
0000
0000
0000
,
0200
0000
0000
0000
,
0300
0000
0000
0000
,
0001
0000
0000
0000
,
1000
0000
0000
0000
,
1000
0000
0000
0000
,
0001
0000
0000
0000
,
0010
0000
0010
0000
,
0000
0000
0100
0000
,
0100
0000
0000
0000
,
1001
0000
0000
0000
,
1001
0000
0000
0000
,
1000
0000
0000
0000
,
1001
0000
0000
0000
,
0001
0000
0000
0000
,
0110
0000
0000
0000
,
0100
0000
0000
0000
,
0110
0000
0000
0000
,
0010
0000
0000
0000
,
1000
0000
0000
0000
,
0000
0000
0000
0000
,
0000
0000
0000
0000
,
0000
0000
0000
0000
,
0001
0000
0000
0000
,
0000
0000
0000
0000
,
0000
0000
0000
0000
,
0100
0000
0000
0000
,
0100
0000
0000
0000
,
0000
0000
0000
0000
,
0010
0000
0000
0000
,
1000
0000
0000
0000
,
0100
0000
0000
0000
,
0100
0000
0000
0000
,
0010
0000
0000
0000
,
0001
0000
0000
0000
,
1000
0000
0000
0000
,
0001
0000
0000
0000
,
0100
0000
0000
0000
;

//---------------dance-single - Copied from----------------
#NOTES:
     dance-single:
     Copied from:
     Medium:
     7:
     0.417,0.438,0.114,0.057,0.000:
0000
0000
0000
0000
,
0000
0000
0000
0000
,
0000
0000
0000
0000
,
0000
0000
0000
0000
,
1000
0000
0000
0000
0001
0000
1000
0100
,
0010
0000
0000
0000
0010
0000
0001
1000
,
0001
0000
0000
0000
0100
0000
0001
0010
,
0200
0000
0000
0000
,
1300
0000
0100
0010
0001
0000
0100
0000
,
0001
1000
0010
0100
,
0010
0000
1000
0010
0100
0000
0001
0000
,
0010
0100
1000
0001
,
0100
0000
0001
0100
0010
0000
1000
0000
,
0001
1000
0100
0010
,
0001
0000
1000
0100
1000
0000
0010
0000
,
0200
0000
0010
0000
0010
0300
0000
0000
,
0001
0010
0100
0000
1000
0000
0001
0000
,
1000
0100
0000
0100
0000
0000
0010
0000
,
1000
0010
0100
0000
1000
0000
0100
0000
,
0010
0001
0000
0001
0000
0000
0000
0000
,
1001
0000
0001
0100
1000
0000
0001
0000
,
1000
0000
0100
0000
0010
0000
0001
1000
,
0100
0010
0001
1000
,
0000
0010
0100
0010
0001
0000
0010
0000
,
0100
0000
1000
0010
0001
0000
0100
0000
,
0001
0000
0010
0001
0100
0000
0010
0000
,
1000
0000
0001
0100
1000
0000
0001
0000
,
0100
0000
0010
1000
0100
0000
1000
0000
,
0010
0000
0100
0010
1000
0000
0100
0000
,
0010
0000
0001
0100
0010
0000
0001
0000
,
1000
0000
0010
1000
0010
0000
0100
0000
,
0001
0100
0010
0000
1001
0000
1001
0000
,
1000
0000
0100
0000
0010
0001
0100
0001
,
0000
0000
0100
0000
0010
0100
0010
0000
,
1000
0000
0100
0000
0001
0010
0001
0100
,
0000
0010
1000
0000
0000
0000
1000
0000
,
0001
0000
1000
0000
0100
0010
0100
0010
,
0000
0001
1000
0001
,
0100
0000
0001
0000
0010
0001
0100
0010
,
0000
1000
0010
0000
0000
0000
0000
0000
,
1001
1000
0100
0001
,
0100
0000
1000
0000
0010
0100
0010
0000
,
0001
0010
0001
0100
,
0010
0000
1000
0000
0100
0010
0001
0000
,
0100
0001
0010
0001
,
0100
0000
0010
0000
1000
0000
0001
1000
,
0001
0000
1000
0001
0000
0000
0010
0000
,
0001
0000
0100
0010
0100
0000
1001
0000
,
0100
1000
0100
0000
0010
0000
0001
0000
,
0100
0001
0000
1000
0000
0000
0010
0000
,
0001
0100
0010
0000
1000
0000
0010
0000
,
0100
0010
0000
0100
0000
0000
1000
0000
,
0100
0000
0010
0001
0000
0000
0000
0000
,
0100
0000
0001
1000
0010
0000
1001
0000
,
1001
1000
0100
0010
,
0001
0200
0320
2030
,
3100
0000
0010
0001
1000
0000
0100
0000
,
0010
0000
0100
0010
1000
0000
0100
0000
,
0001
0000
1000
0001
0010
0000
0001
0000
,
0010
0001
0010
0000
0100
0000
1100
0000
,
1000
0000
0010
0100
0001
0000
1000
0000
,
0010
0000
0001
0100
0010
0000
0100
0000
,
1000
0000
0010
1000
0100
0000
0010
0000
,
1000
0001
1000
0000
1001
0000
1001
0000
,
0010
0000
0001
0100
0001
0000
0000
0000
,
1000
0000
0001
1000
0001
0000
0000
0000
,
0010
0000
0100
1000
0100
0000
0000
0000
,
0010
0000
0100
0010
0100
0000
0000
0000
,
1001
0000
0000
0000
,
0100
0100
0010
0000
,
0100
0000
0000
0000
,
0001
0000
0001
0000
1000
0001
1000
0000
,
0020
0000
0000
0000
,
0030
0000
0000
0000
,
1001
0000
1000
0100
0001
0000
0000
0000
,
0010
0000
0001
0100
0010
0000
1000
0000
,
0001
0000
0100
0001
0100
0000
0000
0000
,
1000
0100
0010
0000
0001
1000
0001
0000
,
0010
0000
0001
0100
0010
0000
0000
0000
,
1000
0010
0001
0000
1000
0100
0001
0000
,
1000
0000
0001
0010
0001
0000
0000
0000
,
0100
0001
0010
0001
1000
0000
0101
0000
,
2010
0000
3000
0000
;

//---------------dance-single - Copied from Copied f----------------
#NOTES:
     dance-single:
     Copied from Copied f:
     Hard:
     8:
     0.499,0.505,0.188,0.024,0.016:
0000
0000
0000
0000
,
0000
0000
0000
0000
,
0000
0000
0000
0000
,
0000
0000
0000
0000
,
1000
0000
0000
0010
0000
0000
1000
0000
0000
0000
0001
0000
1000
0000
0000
0000
,
0100
0000
0000
0010
0000
0000
0100
0000
0000
0000
0010
0000
0100
0000
0000
0000
,
0001
0000
0000
1000
0000
0000
0100
0000
0000
0000
0010
0000
0001
0000
0000
0000
,
0100
0000
0000
0001
0000
0000
1000
0000
0000
0000
0010
0000
0100
0000
0000
0000
,
1000
0100
0001
0000
1000
0000
0010
0000
,
0100
0000
0001
0000
0010
0001
0100
0000
,
1001
0100
0001
1000
,
0010
0000
0100
0000
1000
0100
0010
0000
,
0001
0000
1000
0001
0010
0000
0100
0000
,
0001
0000
1000
0000
0001
0100
0010
0000
,
1001
0000
1000
0100
0010
0000
0100
0000
,
1000
0000
0001
0000
0100
0000
0001
0010
,
1000
0010
0001
0000
0100
0000
0001
0000
,
1000
0001
0100
0001
1000
0000
1001
0000
,
1000
0010
0001
0000
0100
0000
0001
0000
,
0010
0001
0100
0010
1000
0000
1001
0000
,
1000
0010
0100
0001
0000
0000
0010
0000
,
0001
0010
0100
1000
0000
0100
1000
0000
,
1001
1000
0100
0010
,
1000
0010
0100
0001
0010
0000
0001
0100
,
0010
0000
1000
0001
1000
0000
0100
0000
,
0010
0000
0001
0010
0001
0000
0100
0000
,
0010
0000
1000
0010
0100
0000
0001
0000
,
1000
0010
0001
0010
1000
0000
0100
0000
,
1000
0000
0010
0100
0001
0000
0010
0000
,
0001
0000
1000
0010
0001
0000
0010
0000
,
0001
0000
0100
0010
1000
0000
0001
0000
,
0100
0010
0001
0010
0100
0000
0010
0000
,
0100
0000
0010
0000
1000
0010
0100
0001
,
0000
0010
0000
0001
0000
1000
0001
0000
,
1000
0000
0001
0000
0010
0100
1000
0100
,
0000
0010
0001
0000
0101
0000
1010
0000
,
0001
0000
1000
0000
0001
0010
0100
1000
,
0000
0100
0000
1000
0000
0010
0100
0000
,
0001
0000
1000
0000
0001
0010
0001
1000
,
0000
0100
1000
0000
0100
0000
0100
0000
,
0010
1000
0100
0010
0001
0000
0100
0000
,
0001
1000
0001
0010
0000
0000
0001
0000
,
1000
0100
0010
0001
1000
0001
0010
0000
,
1001
1001
0010
0001
,
0100
0010
1000
0100
0000
0000
0010
0000
,
0001
0100
0001
0010
0000
0010
0001
0000
,
1001
0010
1001
0100
,
0001
0100
1000
0100
0001
0000
0010
0000
,
0001
1000
0100
1000
0001
0000
0010
0000
,
0001
1000
0001
0010
0001
0000
0100
0000
,
0010
1000
0010
0100
0001
0000
0100
0000
,
0010
0001
1000
0100
1000
0000
0010
0000
,
0100
0010
0100
0010
0100
0000
1000
0000
,
0001
1000
0001
1000
0001
0000
0010
0000
,
0001
0010
0100
1000
0100
0010
0001
0010
,
0200
0010
0010
0310
,
0001
1000
0100
1000
0010
0000
0100
0000
,
0001
0010
1000
0000
0100
0000
1000
0000
,
0010
0100
1000
0100
0010
0000
0100
0000
,
0010
1000
0010
0000
0001
0010
0001
0000
,
0100
0010
0001
0000
1100
0000
0011
0000
,
1000
0100
0001
0010
0100
0000
0100
0000
,
1000
0010
0100
0000
0001
0010
0100
0000
,
0001
1000
0001
1000
0001
0000
1001
0000
,
0010
0000
0100
1000
0010
0000
0100
0000
,
0001
0010
0001
0000
1000
0000
0010
0000
,
0001
0000
0100
0010
1000
0000
0100
0000
,
0001
0010
0001
0000
1000
0100
1000
0000
,
1001
0000
0000
0000
,
1000
0100
0001
0100
,
1000
0000
0010
0000
,
0100
0001
0010
0100
,
0110
0000
0000
0000
,
1000
0000
0001
0000
,
1001
0000
1000
0100
0001
0000
1000
0000
,
0001
0010
0001
0100
0010
0000
1000
0000
,
0010
0000
0100
0001
0010
0000
0100
0000
,
1000
0010
1000
0100
0010
0000
0001
0000
,
1000
0001
0010
0000
0001
1000
0010
0000
,
1010
0101
0011
1100
,
1000
0100
0010
0001
0010
0000
0100
0000
,
0001
1000
0010
0100
0010
0000
0110
0000
,
2002
0000
3003
0000
;

//---------------dance-single - Copied from Copied from Copied f----------------
#NOTES:
     dance-single:
     Copied from Copied from Copied f:
     Challenge:
     8:
     0.550,0.572,0.155,0.065,0.033: // measure 1
0000
0000
0000
0000
,  // measure 2
0000
0000
0000
0000
,  // measure 3
0000
0000
0000
0000
,  // measure 4
0000
0000
0000
0000
,  // measure 5
1000
0000
0000
0010
0000
0000
0100
0000
0000
0001
0000
0000
0010
0000
0001
0000
,  // measure 6
0100
0000
0000
0010
0000
0000
1000
0000
0000
0001
0000
0000
0100
0000
0001
0000
,  // measure 7
0010
0000
0000
0100
0000
0000
1000
0000
0000
0010
0000
0000
0100
0000
0001
0000
,  // measure 8
0010
0000
0000
0001
0000
0000
1000
0000
0000
0001
0000
0000
1000
0000
0001
0000
,  // measure 9
1001
0000
0010
0001
0100
0000
0010
1000
,  // measure 10
0100
0000
0010
0000
0001
1000
0100
1000
,  // measure 11
0010
0000
0100
0001
0010
0000
0100
1000
,  // measure 12
0010
0000
0100
0000
0010
0001
0010
0001
,  // measure 13
0100
0000
0010
1000
0001
0000
0100
0000
,  // measure 14
0010
0000
1000
0000
0100
0010
0001
0010
,  // measure 15
0200
0000
1300
0100
1000
0000
0010
0000
,  // measure 16
0200
0000
0301
0010
0001
0000
0100
0000
,  // measure 17
0001
1000
0001
0000
1001
0000
0010
0000
,  // measure 18
0001
1000
0100
0010
0001
0000
1000
0000
,  // measure 19
0010
1000
0100
0000
0010
0000
0001
0000
,  // measure 20
0100
0001
0010
0001
0100
0000
0010
0000
,  // measure 21
1000
0001
1000
0100
0000
0010
0001
0000
,  // measure 22
0100
0001
0010
0001
0000
0100
0010
0000
,  // measure 23
1000
0100
0010
0001
0010
0100
1000
0100
,  // measure 24
0020
1000
0001
1030
,  // measure 25
1000
0001
0001
0000
0100
1000
1000
0000
,  // measure 26
0010
1000
0100
0010
0001
0010
0001
0000
,  // measure 27
0100
0010
0010
0000
0001
1000
1000
0000
,  // measure 28
0001
0010
0100
1000
0100
0010
0001
0000
,  // measure 29
1000
0100
0100
0000
0001
0010
0010
0000
,  // measure 30
0100
0010
0100
0010
1000
0100
0010
0000
,  // measure 31
0001
1000
0001
0000
0010
0001
0010
0100
,  // measure 32
0000
1000
0100
0000
0011
0000
1100
0000
,  // measure 33
0001
0100
0010
0000
1000
0100
0010
0000
,  // measure 34
0001
1000
0100
0010
0001
0010
0100
0000
,  // measure 35
1000
0001
1000
0000
0010
0100
0010
0000
,  // measure 36
0001
0100
0010
0000
0100
0010
1000
0000
,  // measure 37
0100
0000
1000
0000
0100
0010
0001
0100
,  // measure 38
0010
0000
1000
0100
1000
0000
0001
0100
,  // measure 39
0001
0000
0010
0000
0001
0100
0010
1000
,  // measure 40
0100
0010
0001
0000
0100
0010
0001
0000
,  // measure 41
0100
0001
0010
0000
0100
1000
0010
0000
,  // measure 42
0100
0010
0100
0001
0010
0100
1000
0000
,  // measure 43
0100
1000
0100
0000
0010
0001
0010
0000
,  // measure 44
0001
0100
0001
1000
0010
0100
0001
0000
,  // measure 45
1000
0000
0100
0010
0001
0000
0100
0000
,  // measure 46
0001
0000
0010
0100
1000
0000
0001
0000
,  // measure 47
1000
0001
0010
0000
0100
1000
0001
0000
,  // measure 48
0100
0010
0100
0001
0020
0000
0130
1000
,  // measure 49
0100
0000
1000
0010
0100
0000
0001
1000
,  // measure 50
0010
0100
0000
0001
0000
1000
0001
0000
,  // measure 51
1000
0001
0010
0100
1000
0000
0010
0100
,  // measure 52
0010
1000
0000
0100
0000
1000
0001
0000
,  // measure 53
0100
0001
0010
0000
0100
1000
0010
0000
,  // measure 54
0100
0010
0001
0010
0001
1000
0001
0000
,  // measure 55
1000
0100
1000
0010
0100
0001
0010
0001
,  // measure 56
0001
1010
1100
0011
,  // measure 57
0100
0001
0100
0010
1000
0000
0100
0010
,  // measure 58
0001
0000
1000
0001
1000
0000
1010
0000
,  // measure 59
1000
0100
0010
0001
1000
0000
0001
0100
,  // measure 60
0010
0000
1000
0100
0010
0000
1000
0100
,  // measure 61
0010
0001
0010
0001
0100
0000
0010
1000
,  // measure 62
0001
0000
0010
0001
1000
0000
0100
0000
,  // measure 63
0010
0001
1000
0001
1000
0000
0100
1000
,  // measure 64
0010
0100
0001
0000
0011
0000
1100
0000
,  // measure 65
0001
0000
0100
0001
0100
0000
0000
0000
,  // measure 66
1000
0100
1000
0000
1010
0000
0101
0000
,  // measure 67
1000
0000
0010
0100
0001
0000
1000
0000
,  // measure 68
0001
0100
0100
1001
,  // measure 69
0110
0100
0100
0000
,  // measure 70
1000
0100
0001
0000
,  // measure 71
0001
0010
0001
0000
,  // measure 72
1000
0000
0001
0000
1000
0001
1000
0000
,  // measure 73
1001
0000
0000
0000
,  // measure 74
0100
0000
0100
0000
,  // measure 75
0110
0000
1000
0100
0001
0000
0010
0001
,  // measure 76
0100
0001
0010
0100
1000
0000
0100
0000
,  // measure 77
1000
0100
0010
0001
1000
0000
0001
0010
,  // measure 78
0001
0100
0010
1000
0100
0000
1001
0000
,  // measure 79
1000
0100
0010
0000
0001
0010
0100
0000
,  // measure 80
0010
0100
1000
0100
0001
0000
0100
0000
,  // measure 81
1000
0010
0100
0001
0010
0100
1000
0002
,  // measure 82
0000
1003
0200
0000
0310
0000
1001
0000
,  // measure 83
2002
0000
3003
0000
;
