#TITLE:CHOCO;
#SUBTITLE:;
#ARTIST:OSTER project;
#TITLETRANSLIT:;
#SUBTITLETRANSLIT:;
#ARTISTTRANSLIT:;
#GENRE:;
#CREDIT:;
#MENUCOLOR:;
#NEWMETERSYSTEM:NO;
#BANNER:CHOCO-bn.png;
#BACKGROUND:CHOCO-bg.png;
#LYRICSPATH:;
#CDTITLE:MixMania III CD Title.png;
#MUSIC:CHOCO.mp3;
#OFFSET:-0.080;
#SAMPLESTART:55.280;
#SAMPLELENGTH:12.000;
#SELECTABLE:YES;
#LISTSORT:;
#BPMS:0.000=200.000;
#STOPS:;
#BGCHANGES:;
#ATTACKS:;

//---------------dance-single - ----------------
#NOTES:
     dance-single:
     :
     Easy:
     3:
     0.222,0.244,0.017,0.000,0.000:
0000
0000
0000
0000
,
0000
0000
0000
0000
,
1001
0000
0000
0000
,
0000
0000
0000
0000
,
0000
0000
0000
0000
,
0000
1000
1000
0100
,
0010
0000
0000
0001
,
1000
0000
0000
1000
,
0100
0000
0000
0100
,
0010
0000
0001
0000
,
1000
0000
0000
0001
,
0001
0000
0000
1000
,
1000
0000
0100
0000
,
0010
0000
0000
0000
,
0010
0000
0000
0100
,
1000
0000
0000
0100
,
0100
0000
0000
0100
,
0010
0000
0001
0000
,
0001
0000
0000
0001
,
0100
0000
0000
0100
,
0010
0000
0000
0010
,
1000
0000
0001
0000
,
1001
0000
0000
0010
,
0010
0000
0001
0000
,
0100
0000
0000
0000
,
0010
0000
0000
1000
,
0100
0000
0010
0000
,
0001
0000
0100
0000
,
0001
1000
0001
1000
,
0010
0000
0000
0000
,
0100
0000
0001
0000
,
0010
0000
0001
0000
,
1000
0000
0100
0000
,
0010
0000
0000
0000
,
0100
0000
1000
0000
,
0010
0100
0010
0000
,
0001
0000
0010
0000
,
0000
0001
0001
1000
,
0001
0000
1000
0000
,
0100
0000
1000
0000
,
0010
0000
1000
0100
,
0010
0000
0100
0000
,
0100
0000
0000
0010
,
0010
0000
0000
0001
,
0001
0000
0000
0000
,
1000
0000
1000
0000
,
0001
0000
0000
0001
,
1000
0000
0000
1000
,
0010
0000
0100
0000
,
0010
0000
0001
0001
,
1000
0000
0000
0100
,
1000
0000
0000
0100
,
0010
0000
0010
0000
,
0001
0000
0100
0000
,
0010
0000
0000
1000
,
0001
0000
0000
0001
,
0010
0000
0000
0010
,
0100
0000
0010
0010
,
0100
0000
0000
1000
,
0100
0000
0000
0010
,
0001
0000
0000
0100
,
0001
0000
1000
0000
,
0001
0000
0000
0000
,
1000
0000
0000
0000
,
0010
0000
0000
0000
,
0100
0000
0001
0010
,
0100
0000
0000
0000
,
1000
0000
0000
0000
,
0010
0000
0000
0000
,
0100
0000
0100
0000
,
0001
0000
1000
0000
,
0100
0000
0010
0000
,
0001
0000
1000
0000
,
0001
0000
0100
0000
,
0010
0000
1000
0000
,
0100
0000
0100
0000
,
1000
0000
0001
0000
,
0000
0100
0100
0010
,
0100
0000
0000
0001
,
0010
0000
0000
0001
,
0100
0000
0000
0010
,
1000
0000
1000
1000
,
0100
0000
0000
0100
,
0010
0000
0000
0100
,
0001
0000
0000
0000
,
0010
0000
0100
0000
,
0010
0000
0000
1000
,
0100
0000
0000
0010
,
0001
0000
0000
0001
,
0100
0000
0010
0010
,
0100
0000
0000
0010
,
1000
0000
0000
0100
,
0001
0000
0000
0010
,
0001
0000
0100
0000
,
0010
0000
0000
0000
,
0010
0000
0000
0000
,
0010
0000
0000
0000
,
0010
0000
0000
0000
0000
0000
0010
0100
;

//---------------dance-single - Copied from----------------
#NOTES:
     dance-single:
     Copied from:
     Beginner:
     1:
     0.107,0.203,0.058,0.042,0.000:
0000
0000
0000
0000
,
0000
0000
0000
0000
,
0000
0000
0000
0000
,
0000
0000
0000
0000
,
0000
0000
0000
0000
,
0000
0000
0000
0000
,
1001
0000
0000
0000
,
0000
0000
0000
0000
,
0010
0000
0000
0000
,
0000
0000
0000
0000
,
1000
0000
0000
0000
,
0000
0000
0000
0000
,
0100
0000
0000
0000
,
0000
0000
0000
0000
,
0010
0000
0000
0000
,
0000
0000
0000
0000
,
0001
0000
0000
0000
,
0000
0000
0000
0000
,
0001
0000
0000
0000
,
0000
0000
0000
0000
,
0100
0000
0000
0000
,
0000
0000
0000
0000
,
1001
0000
0000
0000
,
0000
0000
0000
0000
,
0100
0000
0100
0000
,
0100
0000
0000
0000
,
1001
0000
0000
0000
,
0000
0000
0000
0000
,
0010
0000
0010
0000
,
0010
0000
0000
0000
,
1100
0000
0000
0000
,
0000
0000
0000
0000
,
1000
0000
1000
0000
,
1000
0000
0000
0000
,
0011
0000
0000
0000
,
0000
0000
0000
0000
,
0001
0000
0001
0000
,
0001
0000
0000
0000
,
0200
0000
0000
0000
,
0300
0000
0000
0000
,
0020
0000
0000
0000
,
0030
0000
0000
0000
,
2000
0000
0000
0000
,
3000
0000
0000
0000
,
0002
0000
0000
0000
,
0003
0000
0000
0000
,
0010
0000
0000
0000
,
1000
0000
0000
0000
,
0100
0000
0000
0000
,
0010
0000
0010
0000
,
0010
0000
0000
0000
,
0001
0000
0000
0000
,
0100
0000
0000
0000
,
0001
0000
0000
0000
,
1000
0000
0000
0000
,
0100
0000
0000
0000
,
0010
0000
0000
0000
,
0001
0000
0010
0000
,
0001
0000
0000
0000
,
0100
0000
0000
0000
,
0010
0000
0000
0000
,
1000
0000
0000
0000
,
1001
0000
0000
0000
,
0000
0000
0000
0000
,
0000
0000
0000
0000
,
0000
0000
0000
0100
,
0100
0000
0000
0000
,
0000
0000
0000
0000
,
0000
0000
0000
0000
,
0010
0000
0010
0000
,
0010
0000
0000
0000
,
1000
0000
0000
0000
,
0100
0000
0000
0000
,
0100
0000
0000
0000
,
0010
0000
0000
0000
,
0001
0000
0000
0000
,
1000
0000
0000
0000
,
0001
0000
0000
0000
,
1001
0000
0000
0000
,
0010
0000
0000
0000
,
1000
0000
0000
0000
,
0100
0000
0100
0000
,
0100
0000
0000
0000
,
0010
0000
0000
0000
,
0001
0000
0000
0000
,
0001
0000
0000
0000
,
1000
0000
0000
0000
,
1000
0000
0000
0000
,
0100
0000
0000
0000
,
0010
0000
0010
0000
,
0001
0000
0000
0000
,
0001
0000
0000
0000
,
0001
0000
0000
0000
,
0001
0000
0000
0000
,
0200
0000
0000
0000
,
0000
0000
0000
0000
,
0000
0000
0000
0000
,
0000
0000
0000
0000
0000
0000
0000
0300
;

//---------------dance-single - Copied from----------------
#NOTES:
     dance-single:
     Copied from:
     Medium:
     6:
     0.467,0.650,0.490,0.141,0.000:
0000
0000
0000
0000
,
0000
0000
0000
0000
,
2002
0000
0000
0000
,
0000
0000
0000
3000
,
0020
0000
0000
0033
,
0000
0001
1000
0001
1000
0000
0100
0000
,
1001
0100
0010
0001
,
0011
0001
0100
0001
,
1001
1000
0100
1000
,
0020
1000
2030
3100
,
0100
0010
1000
1001
,
1001
0000
0001
1001
,
1001
1000
0100
0010
,
0002
0100
0200
0303
,
0011
0001
0100
0010
,
1000
1000
0010
1000
,
1001
1000
0100
0010
,
0002
0010
0203
0310
,
0010
1000
0100
1100
,
1100
0000
0010
0011
,
0012
0000
0100
0000
,
0010
0010
0010
0000
,
0103
0100
0010
1000
,
0100
0000
0010
0000
,
0001
0100
0001
0010
,
0001
0000
0000
0100
,
0100
1000
0100
0010
,
0001
0100
0001
0010
,
0001
0000
0001
0100
,
0010
0010
1000
0100
,
0010
0001
0100
0001
,
1000
0001
1000
0010
,
0100
0010
0000
0100
,
0010
0001
0100
0001
,
1000
0000
0001
0000
,
0100
0010
1000
0000
,
0100
0010
0001
0001
,
0000
0100
0100
1001
,
1001
0000
0010
1000
,
0100
0000
0010
0000
,
0100
0100
1000
0000
,
0001
0000
0100
0000
,
0001
0000
0000
0010
0000
0000
0100
0000
,
1000
0000
0000
0100
0000
0000
1000
0000
,
0010
0000
0000
0100
0000
0000
0001
0000
,
0000
1001
1001
0010
,
1001
0000
0001
0100
,
0100
0000
0010
1000
,
0100
0010
0001
1000
,
0001
0000
0000
1000
0001
0000
1001
0000
,
0011
0000
0000
0101
,
1010
0000
0000
1100
,
0011
0000
0100
0000
,
0001
1000
0001
1000
,
1001
0000
0010
0001
,
0001
0000
0100
1000
,
0010
0100
0001
0010
,
0001
0000
0000
0001
0100
0000
0101
0000
,
0101
0000
1000
0110
,
1001
0000
0010
1001
,
0110
0010
0010
0010
,
0011
0110
1100
1001
,
0120
0000
1000
0000
,
0001
0000
1000
0130
,
0210
0000
0001
0000
,
1000
0000
0001
0310
,
0120
0000
1000
0000
,
0001
0000
1000
0130
,
0210
0000
1000
0000
,
0001
0001
1000
0310
,
0100
0000
0100
0000
0010
0000
0001
0100
,
0000
0000
0010
1000
0000
0000
0100
0000
,
1000
0000
0001
0000
1000
0000
0100
0001
,
0000
0000
1000
0010
0000
0000
0100
0000
,
1001
0000
0100
0001
0000
0100
0001
0000
,
0010
0001
0000
0100
0001
0000
0100
0000
,
0010
0000
0100
0010
0000
0100
0010
0000
,
0000
0100
0010
0100
0010
0000
0110
0000
,
1001
0000
0001
0100
,
0001
0100
1000
0010
,
0010
0000
1000
0100
,
0020
1000
0032
0000
,
0103
0000
0100
0010
,
1010
0000
0100
0010
,
0011
0001
0100
0010
,
1001
1001
0011
0000
,
0100
0001
0010
0100
,
1000
0100
0010
0001
,
1000
0001
0100
0010
,
1000
0001
0011
0011
,
0101
0001
0100
0010
,
1010
1000
0100
0010
,
0110
0001
1001
0001
,
0101
0011
1010
1100
,
2010
0000
0100
0000
,
0100
0000
0100
0000
,
0100
0000
0100
0000
,
0100
0000
0000
3000
0000
1000
0001
1000
;

//---------------dance-single - Copied from Copied f----------------
#NOTES:
     dance-single:
     Copied from Copied f:
     Hard:
     8:
     0.547,0.569,0.191,0.091,0.000:
0000
0000
0000
0000
,
0000
0000
0000
0000
,
2002
0000
0000
0000
,
0000
0000
0000
0003
,
0200
0000
0000
3300
,
0000
1000
0001
1000
0001
0000
0010
0000
,
1001
0000
0100
0000
0100
0000
0100
0010
,
0001
0000
0100
0000
0001
0000
0010
0001
,
0100
0010
1000
0001
,
1000
0000
0000
0100
1000
0000
0100
0000
,
0010
0000
0001
0100
0000
0001
0000
1000
,
0000
0000
0100
1000
0000
0010
0000
0100
,
0000
0000
0001
1000
0000
0010
0000
0100
,
0010
1000
0200
0310
,
0011
0000
0100
0000
0001
0000
1000
0010
,
1000
0000
0100
0000
1000
0000
0100
0010
,
0001
0000
0100
0000
0001
0000
0010
1000
,
0001
0100
0001
0010
,
0001
0000
0100
0010
0000
1000
0000
0001
,
0000
0000
0100
0010
0000
0001
0000
1000
,
0000
0010
1000
0100
,
0010
0001
1000
0001
,
1001
1000
0100
0010
,
0100
0010
0000
0100
0000
1000
0000
0100
,
0000
0001
0010
0000
0100
0000
0001
1000
,
0000
0000
0000
0000
0000
0001
0000
1000
,
0100
0000
0010
0000
0001
0000
0100
0010
,
0000
1000
0100
0000
0010
0000
0001
0000
,
1000
0001
1000
0001
,
0010
0001
0100
0010
0000
0000
1000
0000
,
0011
1000
0100
0100
,
0001
0100
0000
0010
0000
1000
0000
0100
,
0000
0000
0000
0000
0000
0010
0001
0000
,
0100
0010
1000
0001
,
0100
0010
1000
0100
,
0010
0001
1000
0001
,
1000
0000
0001
0000
0100
0000
0010
1000
,
0000
0100
0010
0001
0100
0000
0010
0000
,
1000
0000
0001
0000
0100
0000
0010
0001
,
0000
0100
0010
1000
0000
0100
0010
0000
,
0001
0000
1000
0000
0001
0000
0100
0010
,
0000
0001
1000
0100
0000
0000
0010
0000
,
0001
0000
1000
0001
0000
1000
0001
0000
,
1000
0010
0000
1000
0100
0000
1000
0000
,
1000
0100
0000
1000
0100
0000
1000
0010
,
0000
0001
1000
0001
1000
0000
0010
0000
,
1001
0000
1010
0000
1001
0000
1000
0100
,
0000
0010
0001
0000
0100
0000
0002
0000
,
0013
0100
0001
1000
,
0002
0000
0003
0100
0010
0000
0010
0000
,
1100
0000
1000
0100
0000
0010
0000
0010
,
0001
0000
0001
0010
0000
0100
0000
0100
,
1000
0100
0100
0010
,
0001
2000
3001
0010
,
0101
0000
1001
0000
0101
0000
0001
0100
,
0000
0100
1000
0000
1000
0000
0200
0000
,
0301
0001
0010
0002
,
1003
0000
0000
0010
0001
0000
0001
0000
,
0110
0000
0010
1000
0000
1000
0000
0100
,
0010
0000
0010
0001
0000
0100
0000
0001
,
0010
0000
0100
0010
0000
0010
0000
0010
,
0001
1000
0010
0100
,
1001
0000
0010
0100
0010
0000
0010
0100
,
0010
0000
0010
0000
0001
1000
0001
0000
,
1000
0000
1000
0001
1000
0000
1000
0001
,
1000
0000
1000
0000
0001
0010
0001
0000
,
0100
0000
0100
0010
0100
0000
0100
0010
,
0100
0000
0100
0000
1000
0010
1000
0000
,
0001
0000
1000
0001
1000
0000
1000
0001
,
1000
1001
1001
0010
,
0110
0000
0110
0000
1000
0100
0010
0001
,
0000
0001
1000
0001
0000
0100
0001
0000
,
0010
0000
0001
0000
0100
0000
0010
1000
,
0000
0100
1000
0010
0000
0100
0001
0000
,
0010
0000
0001
0100
0000
0001
0100
0000
,
0001
0010
0000
0001
1000
0000
0001
0000
,
0001
1000
0000
0001
0100
0000
0001
0010
,
0000
1000
0100
0010
0001
0000
1010
0000
,
0101
0000
0100
0000
0100
0000
0100
1000
,
0010
0000
0010
0000
0010
1000
0100
1000
,
0001
0000
0001
0000
0001
0010
0001
0100
,
0010
0000
0100
0010
0000
1000
0100
0010
,
0001
0000
1000
0001
0000
1000
0000
0100
,
0010
0000
0001
0100
0000
1000
0000
0010
,
1000
0100
0010
0001
,
1000
0001
1000
0000
0001
0010
0001
0000
,
0101
0000
0001
0000
1000
0000
0001
0010
,
0100
0000
0100
0000
0100
0000
0100
1000
,
0010
0000
0010
0000
0010
0000
0010
1000
,
0100
0000
0010
0100
0100
0000
0001
0000
,
0101
0000
0010
1000
0000
0100
0000
1000
,
0001
0000
0010
0001
0000
0100
0000
0001
,
1000
0001
1000
0100
,
0010
0001
1000
0000
0010
1000
0001
0000
,
2002
0000
0000
0000
,
0000
0000
0000
0000
,
0000
0000
0000
0000
,
0000
0000
0000
0000
3000
1003
0001
1000
;

//---------------dance-single - Copied from Copied f----------------
#NOTES:
     dance-single:
     Copied from Copied f:
     Challenge:
     9:
     0.719,0.691,0.689,0.233,0.000: // measure 1
0000
0000
0000
0000
,  // measure 2
0000
0000
0000
0000
,  // measure 3
2002
0000
0000
0000
,  // measure 4
0000
0000
0000
0000
0000
3000
0000
0100
,  // measure 5
0200
0000
0000
0303
,  // measure 6
0000
1000
0100
0010
0001
0000
1010
0000
,  // measure 7
0101
0000
0001
0000
1000
0001
0100
0010
,  // measure 8
1000
0000
1000
0000
0001
1000
0010
1000
,  // measure 9
0100
0000
0010
0000
1000
0001
0100
0001
,  // measure 10
1000
0000
0100
0010
0000
0000
1000
0000
,  // measure 11
0110
0000
1000
0001
0000
0011
0000
0001
,  // measure 12
0000
0000
0010
1000
0000
1100
0000
1000
,  // measure 13
0000
0000
0001
1000
0000
0110
0000
0001
,  // measure 14
1000
0000
0010
0000
0010
0100
0010
0100
,  // measure 15
1001
0000
0001
0000
1000
0100
1000
0001
,  // measure 16
1000
0000
0010
0000
0001
0000
0010
0100
,  // measure 17
1000
0000
0010
0000
1000
0100
0010
0001
,  // measure 18
0010
0000
0010
0100
0000
0000
1100
0000
,  // measure 19
0101
0000
0100
0010
0000
0110
0000
0100
,  // measure 20
0000
0000
0001
0010
0000
0110
0000
0100
,  // measure 21
1000
0100
0010
0000
0100
0010
0001
0000
,  // measure 22
0010
0001
1000
0000
0010
1000
0001
0000
,  // measure 23
1001
1100
0110
0011
,  // measure 24
0001
1000
0000
0101
0000
0011
0000
0101
,  // measure 25
0000
0001
0010
0001
1000
0000
0100
0001
,  // measure 26
0000
0000
1000
0000
0001
1000
0000
1000
,  // measure 27
0100
0000
1000
0000
0010
0000
0010
0100
,  // measure 28
0000
0010
0100
0000
1010
0000
0101
0000
,  // measure 29
2020
0000
3030
0000
0100
0010
0001
0100
,  // measure 30
0010
1000
0100
0010
0000
0000
0011
0000
,  // measure 31
0101
0010
1000
1000
,  // measure 32
0010
0001
0000
0110
0000
1010
0000
0110
,  // measure 33
0000
0000
1000
0000
0100
0010
0001
0000
,  // measure 34
0100
0000
0010
1000
0000
0010
0001
0010
,  // measure 35
0100
0100
1000
0100
,  // measure 36
0010
0001
1000
0001
0000
0010
0001
0100
,  // measure 37
0010
0100
0001
0100
0010
1000
0100
1000
,  // measure 38
0000
0100
0010
0001
0100
0000
1001
0000
,  // measure 39
0110
0000
0110
0000
1000
0100
0010
0001
,  // measure 40
0000
0010
0100
1000
0000
0001
0010
0001
,  // measure 41
0101
0000
0101
0000
0001
1000
0100
0010
,  // measure 42
0000
0010
0100
1000
0000
0100
0010
0001
,  // measure 43
0010
0100
0010
0001
0000
0100
0010
0001
,  // measure 44
1000
0100
0010
1000
0100
0010
1000
0100
,  // measure 45
1000
0100
0010
1000
0100
0010
1000
0002
,  // measure 46
0000
0013
1000
0100
0010
0000
1001
0000
,  // measure 47
1100
0000
0110
0000
0011
0000
0001
0100
,  // measure 48
0000
0010
1000
0000
0110
0000
0012
0000
,  // measure 49
0103
0100
1000
0001
,  // measure 50
2000
0000
0000
3001
0010
0100
0110
0000
,  // measure 51
1001
0000
0001
0100
0000
1000
0000
0100
,  // measure 52
0000
0000
0001
0010
0000
0001
0000
0010
,  // measure 53
1000
0000
0100
0010
0100
0000
0010
1000
,  // measure 54
0101
1010
0011
1100
,  // measure 55
1001
0000
0110
0000
1001
0000
1000
0010
,  // measure 56
0000
0100
0001
0000
0010
0000
1000
0000
,  // measure 57
0100
0010
0001
0002
,  // measure 58
0203
0000
0000
0310
1000
0000
1100
0000
,  // measure 59
0011
0000
0010
1000
0000
0001
0000
0100
,  // measure 60
0010
0000
0010
0100
0000
1000
0000
0100
,  // measure 61
0010
0000
1000
0001
0000
0110
0000
1000
,  // measure 62
0011
1100
1010
0101
,  // measure 63
1001
0100
0010
0001
1000
0100
0010
0001
,  // measure 64
1000
0100
1000
0010
2000
0000
3001
0000
,  // measure 65
0001
0010
0100
1000
0001
0010
0100
1000
,  // measure 66
0001
0100
0001
0010
0002
0000
1003
0000
,  // measure 67
0100
0010
1000
0010
0100
0010
1000
0010
,  // measure 68
0100
0010
1000
0100
0020
0000
1030
0000
,  // measure 69
0010
0100
0001
0100
0010
0100
0001
0100
,  // measure 70
0010
0100
0001
0010
0200
0000
0301
0000
,  // measure 71
1001
0000
1001
0000
0001
0100
0010
1000
,  // measure 72
0000
0010
1000
0100
0000
0010
0001
1000
,  // measure 73
0110
0000
0110
0000
0001
0100
0010
1000
,  // measure 74
0000
0001
0010
0100
0000
1000
0001
0100
,  // measure 75
0001
0010
0100
0001
0000
0001
0010
0100
,  // measure 76
0001
0010
0100
0001
0010
0100
0001
0010
,  // measure 77
0001
0010
0100
0001
0010
0100
0001
0010
,  // measure 78
0000
0001
0010
0100
1000
0000
0110
0000
,  // measure 79
1001
0000
0010
0000
0001
0000
0100
0001
,  // measure 80
0011
0000
1000
0000
0001
1000
0010
1000
,  // measure 81
1100
0000
0010
0000
0001
1000
0100
0010
,  // measure 82
0001
1000
0010
0200
0000
0310
0100
1000
,  // measure 83
0100
0000
0001
1000
0000
0011
0000
0220
,  // measure 84
0000
0330
1000
0100
0000
0110
0000
0022
,  // measure 85
0000
0033
0100
1000
0000
0110
0000
2200
,  // measure 86
0300
3001
1000
0000
0001
0010
0001
1000
,  // measure 87
1001
0000
1000
0000
1000
0001
0100
0010
,  // measure 88
1000
0000
1000
0000
1000
0010
0100
0001
,  // measure 89
0100
0000
0100
0000
0100
1000
0001
1000
,  // measure 90
0020
0000
0130
0100
0110
0000
0011
0000
,  // measure 91
1010
0000
0010
1000
0000
0110
0000
2200
,  // measure 92
0000
3300
1000
0001
0000
0110
0000
0202
,  // measure 93
0003
0301
0010
0100
1000
0001
0010
0100
,  // measure 94
1100
1010
0011
0101
,  // measure 95
2002
0000
0000
0000
,  // measure 96
0000
0000
0000
0000
,  // measure 97
0000
0000
0000
0000
,  // measure 98
0000
0000
0000
0000
3000
1003
0001
0110
;
