#TITLE:BRIDAL FESTIVAL !!!;
#SUBTITLE:;
#ARTIST:S.S.D. feat. Nanacchi;
#TITLETRANSLIT:;
#SUBTITLETRANSLIT:;
#ARTISTTRANSLIT:;
#GENRE:;
#CREDIT:;
#MENUCOLOR:;
#NEWMETERSYSTEM:NO;
#BANNER:BRIDAL FESTIVAL !!!-bn.png;
#BACKGROUND:BRIDAL FESTIVAL !!!-bg.png;
#LYRICSPATH:;
#CDTITLE:MixMania III CD Title.png;
#MUSIC:BRIDAL FESTIVAL !!!.mp3;
#OFFSET:1.360;
#SAMPLESTART:21.220;
#SAMPLELENGTH:12.000;
#SELECTABLE:YES;
#LISTSORT:;
#BPMS:0.000=69.000,8.000=138.000,168.000=69.000,176.000=138.020;
#STOPS:8.000=1.740
;
#BGCHANGES:;
#ATTACKS:;

//---------------dance-single - ----------------
#NOTES:
     dance-single:
     :
     Easy:
     4:
     0.286,0.338,0.165,0.107,0.000:
0000
0000
0000
0000
,
0000
0000
0200
0000
,
0310
1000
0100
0010
,
0001
0000
0000
0001
,
0100
0100
0100
0010
,
1000
0000
1000
0001
,
1001
0001
1000
0100
,
1000
0000
0000
0010
,
0100
0100
0001
0010
,
0001
0000
0000
1000
,
0100
0010
0100
0010
,
0001
0100
0001
1001
,
0001
1000
0100
1000
,
0010
0100
0010
0110
,
1000
0100
0010
0001
,
1000
0001
0100
0101
,
0001
1000
0100
0010
,
0001
1000
1010
0000
,
0200
0000
0010
0310
,
2000
0000
0100
3100
,
0020
0000
0001
0031
,
0200
0000
0001
0301
,
0011
0000
1000
0100
,
1100
0000
1000
0010
,
0110
0000
0001
1000
,
0002
0023
0230
2300
,
3100
0000
0100
0100
,
0001
0010
0001
0000
,
1000
0000
0001
0001
,
0100
0010
1000
0000
,
1000
1000
0100
0010
,
0001
0100
0001
0000
,
0010
0001
0100
0010
,
1000
0100
0010
0000
,
0100
0100
0001
0000
,
1000
0001
1000
1100
,
1000
0010
0100
0000
,
0010
0010
0001
1001
,
1000
0100
0010
0000
,
0010
0001
0100
0110
,
0010
1000
0100
0000
,
0010
0100
0010
0001
,
1001
0100
0010
0100
,
1000
0100
0010
0100
,
0110
0000
0010
0000
,
0020
2030
3200
0320
,
0031
0000
1001
0000
,
1000
0001
0100
0010
,
1001
1000
0100
0000
,
0001
0010
0001
0000
,
0010
0001
0100
0010
,
1000
0001
0100
0010
,
1001
0001
0100
0000
,
1000
1000
0100
0000
,
0010
1000
0100
0010
,
0001
1000
0001
0100
,
1001
0000
0100
0100
,
0010
0000
0100
0100
,
0010
1000
0100
0010
,
0001
1000
0001
1000
,
1001
0100
0001
0000
,
1001
0010
1000
0000
,
0010
0010
0100
0010
,
1001
0000
0000
0000
;

//---------------dance-single - Copied from----------------
#NOTES:
     dance-single:
     Copied from:
     Beginner:
     2:
     0.096,0.130,0.000,0.017,0.000:
0000
0000
0000
0000
,
0000
0000
0010
0000
,
0010
0000
0000
0000
,
0100
0000
0000
0000
,
0001
0000
0000
0000
,
0001
0000
0000
0000
,
1000
0000
0000
0000
,
0100
0000
0000
0000
,
0100
0000
0000
0000
,
0100
0000
0000
0000
,
0010
0000
0000
0000
,
0000
0000
0000
0010
,
0010
0000
0000
0000
,
0000
0000
0000
1000
,
1000
0000
0000
0000
,
0000
0000
0000
0001
,
0001
0000
0000
0000
,
0000
0000
0000
0000
,
0100
0000
0000
0000
,
0010
0000
0000
0000
,
1000
0000
0000
0000
,
0100
0000
0000
0000
,
0010
0000
0000
0000
,
0001
0000
0000
0000
,
0100
0000
0000
0000
,
0010
0000
0010
0000
,
0010
0000
0000
0000
,
0000
0000
1000
0000
,
1000
0000
0000
0000
,
0000
0000
0001
0000
,
0001
0000
0000
0000
,
0000
0000
0010
0000
,
0010
0000
0000
0000
,
0000
0000
0100
0000
,
0100
0000
0000
0010
,
0010
0000
0000
0001
,
0001
0000
0000
1000
,
1000
0000
0000
0100
,
0100
0000
0000
0010
,
0010
0000
0000
0001
,
0001
0000
0000
1000
,
1000
0000
0000
0010
,
0010
0000
0010
0000
,
0010
0000
0010
0000
,
0200
0000
0000
0000
,
0300
0000
0000
0000
,
0020
0000
0000
0000
,
0030
0000
0000
0000
,
0001
0000
0000
1000
,
1000
0000
0000
0001
,
0001
0000
0000
0000
,
0100
0000
0000
0000
,
0010
0000
0000
1000
,
1000
0000
0000
0100
,
0100
0000
0000
0000
,
0010
0000
0000
0000
,
0001
0000
0000
0010
,
0010
0000
0000
0001
,
0001
0000
0000
0000
,
0100
0000
0000
0000
,
0010
0000
0000
0010
,
0010
0000
0000
1000
,
1000
0000
0000
0000
,
0001
0000
0000
0000
;

//---------------dance-single - Copied from----------------
#NOTES:
     dance-single:
     Copied from:
     Medium:
     6:
     0.379,0.364,0.182,0.083,0.235:
0000
0000
0000
0000
,
0000
0000
0000
0000
0010
0000
1000
0001
,
0100
0000
0000
0010
0000
0000
0010
0000
0000
1000
0000
0001
,
0100
0000
0000
0100
0000
0000
0100
0000
0000
0010
0000
1000
,
0100
0000
0000
0100
0000
0000
0100
0000
0000
0010
0000
0001
,
0100
0100
0100
0010
,
1001
0000
0000
0010
0000
0000
0010
0000
0000
0001
0000
1000
,
0010
0000
0000
0010
0000
0000
0010
0000
0000
1000
0000
0001
,
0010
0000
0000
0010
0000
0000
0010
0000
0000
0100
0000
1000
,
0010
0000
0000
0010
0000
0000
0010
0000
0000
0001
0000
1000
,
0100
0000
0000
0010
0000
0000
0001
0000
0000
1000
0000
0001
,
0100
0000
0000
0010
0000
0000
0100
0000
0010
0100
0000
0000
,
0010
0000
0000
1000
0000
0000
0100
0000
0010
0001
0000
0000
,
1000
0000
0000
0001
0000
1000
0100
0000
1000
0100
0000
0000
,
0010
0000
0000
0001
0000
0000
0100
0000
0010
0100
0000
0000
,
0001
0000
0000
0010
0000
0000
0001
0000
1000
0100
0000
0000
,
0010
0000
0000
0001
0000
0000
1000
0000
0001
0010
0000
0000
,
0001
0000
0100
0010
0000
0100
0010
0000
0000
0000
0000
0000
,
1001
0000
0001
0000
0000
1000
0100
0000
0000
0100
0000
0000
,
1001
0000
1000
0000
0000
0001
0100
0000
0000
0010
0000
0000
,
1001
0000
0010
0000
0000
0100
0010
0000
0000
0010
0000
0000
,
1001
0000
0100
0000
0000
0010
0100
0000
0000
0100
0000
0000
,
0001
0000
1000
0010
0000
1000
0010
0000
0000
0100
0000
0000
,
0001
0000
0010
0100
0000
0010
0100
0000
0000
0010
0000
0000
,
1000
0000
0100
1000
0000
0100
1000
0000
0000
0010
0000
0000
,
0100
0110
0010
1010
,
1001
0000
0000
1000
0000
0000
0100
0000
0000
0010
0000
0001
,
0100
0000
0000
0010
0000
1000
0100
0000
0000
0010
0000
0000
,
0100
0000
0000
0001
0000
0000
0010
0000
0000
0100
0000
1000
,
0100
0000
0000
0010
0000
0001
0100
0000
0000
0010
0000
0000
,
0100
0000
0000
0001
0000
0000
0010
0000
0000
0100
0000
1000
,
0010
0000
0000
0100
0000
0001
0010
0000
0000
0100
0000
0000
,
0010
0000
0000
1000
0000
0000
0001
0000
0000
0100
0000
0010
,
1000
0000
0000
0100
0000
0010
0001
0000
0000
0100
0000
0000
,
0001
1000
0100
0100
,
0010
0100
2002
3003
,
0010
0001
0100
0010
,
0010
1000
2200
3300
,
0010
0100
0100
1000
,
0100
0010
0202
0303
,
0010
0001
0100
1000
,
0010
0100
0220
0330
,
0001
0000
0000
0000
0000
1000
0001
0000
0000
0000
0000
0000
0001
0000
0000
0000
0000
1000
0001
0000
0000
0000
0000
0000
,
0001
0000
0000
0000
0000
0100
0001
0000
0000
0000
0000
0000
0001
0000
0000
0000
0000
0100
0001
0000
0000
0000
0000
0000
,
1001
0000
0000
0000
0100
0010
0100
0000
0000
1000
0000
0000
,
0001
0000
0000
0100
0000
0000
0010
0000
0000
0100
0000
1000
,
0200
0300
1002
0000
,
0103
0000
0000
0010
0000
0000
1000
0000
0000
0001
0000
0100
,
0010
0000
0000
0100
0000
0000
0001
0000
0000
0010
0000
0100
,
1000
0000
0000
1000
0000
0000
0010
0000
0000
0100
0000
0001
,
1000
0000
0000
0100
0000
0010
0100
0000
0000
0001
0000
0000
,
0010
0000
0000
0001
0000
0000
1000
0000
0000
0001
0000
0100
,
0010
0000
0000
1000
0000
0000
0100
0000
0000
0010
0000
0001
,
1000
0000
0000
0001
0000
0000
0100
0000
0000
0010
0000
1000
,
0001
0000
0000
0010
0000
0001
0100
0000
0000
0010
0000
0000
,
1000
0100
0010
0001
,
1001
0000
0010
0100
,
0110
0000
1000
0001
,
0101
0000
0000
0001
0000
1000
0100
0000
0000
0010
0000
0000
,
0100
0010
0001
1000
,
1001
0010
1001
0000
,
1001
0100
1001
0000
,
1000
0000
0000
0100
0000
0001
0100
0000
1000
0100
0000
0000
,
0110
0000
0000
0000
;

//---------------dance-single - Copied from----------------
#NOTES:
     dance-single:
     Copied from:
     Hard:
     8:
     0.433,0.520,0.190,0.041,0.384: // measure 1
0000
0000
0000
0000
,  // measure 2
1001
0000
0000
0000
0000
0000
0000
0000
0000
0000
0000
0000
1001
0000
0000
0000
0000
0001
0100
0000
0000
0001
0000
0000
,  // measure 3
0110
0000
0000
1000
0000
0000
0100
0000
0000
0010
0001
0100
,  // measure 4
0001
0000
0000
0010
0000
0000
0001
0000
0000
0100
0000
0010
,  // measure 5
1000
0000
0000
0100
0000
0000
1000
0000
0000
0010
0000
0100
,  // measure 6
0001
0010
0001
0100
,  // measure 7
0110
0000
0000
1000
0000
0000
0100
0000
0000
0010
0001
1000
,  // measure 8
0100
0000
0000
0100
0000
0000
0010
0000
0000
0001
0000
1000
,  // measure 9
0001
0000
0000
0100
0000
0000
0010
0000
0000
0100
0000
0001
,  // measure 10
1000
0000
0000
0100
0000
0000
0010
0000
0000
1000
0000
0001
,  // measure 11
0100
0010
1000
0100
,  // measure 12
0010
0000
0000
0001
0000
0000
1000
0000
0001
0010
0000
0000
,  // measure 13
0001
1000
0010
0100
,  // measure 14
0010
0000
0000
0001
0000
0000
1000
0000
0001
1000
0000
0000
,  // measure 15
1001
0010
0001
0100
,  // measure 16
0010
0000
0000
1000
0000
0000
0100
0000
1000
0100
0000
0000
,  // measure 17
0010
1000
0100
0001
,  // measure 18
0100
0000
0000
1000
0000
0001
0020
0000
0000
0100
0000
0000
,  // measure 19
0130
0000
0001
0000
0000
0100
0010
0000
0000
0100
0000
0000
,  // measure 20
0001
0000
1000
0000
0000
1000
0100
0000
0000
0100
0000
0000
,  // measure 21
0010
0000
0100
0000
0000
0001
0100
0000
0000
0010
0000
0000
,  // measure 22
1000
0000
0100
0000
0000
0010
0001
0000
0000
1001
0000
0000
,  // measure 23
0110
0000
0001
0100
0000
0010
1000
0000
0000
0100
0000
0000
,  // measure 24
1100
0000
0100
0010
0000
0010
0001
0000
0000
0100
0000
0000
,  // measure 25
1001
0000
0010
0100
0000
0100
0001
0000
0000
1000
0000
0000
,  // measure 26
0020
0230
0302
2003
,  // measure 27
3100
0000
0100
1000
0000
0100
1000
0000
0000
0010
0000
0000
,  // measure 28
0100
0000
0001
0010
0000
0010
0100
0000
0000
1000
0000
0000
,  // measure 29
0001
0000
0100
0001
0000
0001
0010
0000
0000
0100
0000
0000
,  // measure 30
0010
0000
0010
1000
0000
1000
0100
0000
0000
0010
0000
0000
,  // measure 31
1000
0000
0001
0010
0000
0001
0010
0000
0000
0100
0000
0000
,  // measure 32
0010
0000
1000
0100
0000
1000
0100
0000
0000
0010
0000
0000
,  // measure 33
0100
0000
0001
1000
0000
0001
1000
0000
0000
0100
0000
0000
,  // measure 34
0100
1000
0001
0010
0000
0010
0100
0000
0000
0010
0000
0100
,  // measure 35
0010
0000
0000
0010
0000
0100
0001
0000
0000
1000
0000
0000
,  // measure 36
0100
0000
1000
0010
0000
0100
0010
0000
0000
0001
0000
0000
,  // measure 37
0100
0000
0001
0010
0000
0010
0100
0000
0000
1000
0000
0000
,  // measure 38
0001
0000
1000
0100
0000
0010
1000
0000
0100
0010
0000
0000
,  // measure 39
1000
0000
0001
0100
0000
0010
1000
0000
0000
0100
0000
0000
,  // measure 40
0001
0000
1000
0100
0000
0010
0001
0000
0000
0100
0000
0000
,  // measure 41
0010
0000
0100
0001
0000
0010
0100
0000
0000
1000
0000
0000
,  // measure 42
0010
0000
0100
0010
0000
1000
0001
0000
0000
0100
0000
0000
,  // measure 43
0110
0000
0000
0000
0000
0010
0100
0000
0000
0010
0000
1000
0100
0000
0000
0000
0000
0000
0100
0000
0010
0100
0000
0000
,  // measure 44
0010
0000
0000
0000
0000
0001
0100
0000
0000
0010
0000
0000
0100
0000
0000
0000
0000
0010
1000
0000
0000
0100
0000
0000
,  // measure 45
0110
0000
0000
0000
1000
0001
1000
0000
0000
0000
0000
0000
,  // measure 46
0110
0000
0000
0101
0000
0000
1100
0000
0000
0110
0010
1000
,  // measure 47
0100
0100
0110
0000
,  // measure 48
0001
0000
0000
0100
0000
0000
0010
0000
0000
1000
0100
0010
,  // measure 49
0100
0000
0000
0001
0000
0000
1000
0000
0000
0001
0000
0100
,  // measure 50
0010
0000
0000
0100
0000
0000
0001
0000
0000
1000
0000
0100
,  // measure 51
0010
0000
0010
0100
0000
0000
0001
0000
1000
0100
0000
0000
,  // measure 52
0010
0000
0000
0101
0000
0000
1100
0000
0000
0010
0100
0001
,  // measure 53
0010
0000
0000
0100
0000
0000
0010
0000
0000
1000
0000
0100
,  // measure 54
1000
0000
0000
0010
0000
0000
0100
0000
0000
0001
0000
0010
,  // measure 55
0001
0000
0000
0100
0000
0010
1000
0000
0000
0100
0000
0000
,  // measure 56
0100
0000
0000
0011
0000
0000
1100
0000
0000
0001
0010
0100
,  // measure 57
1000
0000
0000
1000
0000
0000
0010
0000
0000
0100
0000
0001
,  // measure 58
0010
0000
0000
0100
0000
0000
1000
0000
0000
0010
0000
1000
,  // measure 59
0100
0000
0000
0010
0000
0001
0100
0000
0000
0010
0000
0000
,  // measure 60
0010
0000
0000
0101
0000
0000
1100
0000
0000
0010
1000
0100
,  // measure 61
0010
0000
0000
0001
0000
0000
0100
0000
0000
0001
0000
0010
,  // measure 62
0001
0000
0000
1000
0000
0000
0010
0000
0000
0100
0000
0010
,  // measure 63
1000
0000
0000
0100
0000
0010
0100
0000
0001
0100
0000
0000
,  // measure 64
1001
0000
0000
0000
;

//---------------dance-single - Copied from ----------------
#NOTES:
     dance-single:
     Copied from:
     Challenge:
     9:
     0.586,0.862,0.297,0.041,0.847: // measure 1
0000
0000
0000
0000
,  // measure 2
1001
0000
0000
0000
0000
0000
0010
0000
0000
0000
0000
0000
1001
0000
0000
0000
0000
0100
0001
0000
0000
1000
0000
0000
,  // measure 3
1100
0000
0000
1000
0000
0000
0001
0000
0000
0100
0001
0010
,  // measure 4
0100
0000
0000
1000
0000
0000
0100
0000
0000
1000
0000
0010
,  // measure 5
1000
0000
0000
0100
0000
0000
0010
0000
0000
0001
0000
0100
,  // measure 6
0001
0010
0001
0110
,  // measure 7
1001
0000
0000
0001
0000
0000
0100
0000
0000
0010
1000
0100
,  // measure 8
0010
0000
0000
0100
0000
0000
0001
0000
0000
1000
0000
0010
,  // measure 9
0100
0000
0000
0001
0000
0000
0010
0000
0000
0100
0000
0010
,  // measure 10
0100
0000
0000
0010
0000
0000
1000
0000
0000
0100
0000
0010
,  // measure 11
0001
0000
0001
0100
0010
0100
0010
0000
1000
0100
0000
0010
,  // measure 12
0001
0000
0001
0100
0010
1000
0001
0000
0001
0100
0000
0000
,  // measure 13
0010
0000
1000
0100
0010
0001
0100
0000
0001
0010
0000
0010
,  // measure 14
0100
0000
0100
0010
1000
0100
0010
0000
0010
0100
0000
0000
,  // measure 15
1001
0000
0100
0001
0010
0100
0010
0000
1000
0100
0000
0100
,  // measure 16
0010
0000
0010
0001
0100
0001
0010
0000
0010
1000
0000
0000
,  // measure 17
0100
0000
1000
0010
0100
0010
0001
0000
0001
0010
0000
0010
,  // measure 18
0100
0000
0100
0001
1000
0001
1000
0000
0000
0100
0000
0000
,  // measure 19
1100
0000
0010
0000
0000
0010
0100
0000
0000
0110
0000
0000
,  // measure 20
1001
0000
0100
0000
0000
0100
0010
0000
0000
0011
0000
0000
,  // measure 21
0101
0000
0001
0000
0000
0100
0010
0000
0000
1010
0000
0000
,  // measure 22
1100
0000
1000
0000
0000
0010
0100
0000
0000
0110
0000
0000
,  // measure 23
1001
0000
0001
0100
0000
0100
1000
0000
1000
0100
0000
0100
,  // measure 24
0010
0000
0010
1000
0000
1000
0100
0000
0000
0110
0000
0000
,  // measure 25
0011
0000
0001
0100
0000
0100
0010
0000
0010
1000
0000
1000
,  // measure 26
0100
1010
0011
0101
,  // measure 27
1100
0000
1000
0100
0000
0100
0010
0000
0001
0100
0000
0100
,  // measure 28
0010
0000
0010
1000
0000
1000
0001
0000
0000
1001
0000
0000
,  // measure 29
0010
0000
0100
0001
0000
0010
0100
0000
1000
0010
0000
0100
,  // measure 30
0001
0000
0001
0010
0000
0100
0010
0000
0000
1000
0000
0001
,  // measure 31
0100
0000
0100
0010
0000
1000
0001
0000
0100
0010
0000
0001
,  // measure 32
0010
0000
0100
0010
0000
1000
0100
0000
0000
1000
0000
0010
,  // measure 33
0100
0000
0001
0010
0000
0100
0010
0000
1000
0100
0000
0100
,  // measure 34
0010
0001
0100
0010
0000
1000
0010
0000
0000
0100
0000
0010
,  // measure 35
0100
0000
0100
0001
0010
0100
1000
0000
0100
0010
0000
1000
,  // measure 36
0100
0000
0100
0010
0001
1000
0100
0000
0100
0020
0000
0000
,  // measure 37
0031
0000
0001
0100
0010
1000
0001
0000
0100
0010
0000
1000
,  // measure 38
0001
0000
0010
0001
0000
0100
0010
0000
0010
1000
0000
0000
,  // measure 39
0100
0000
0010
1000
0100
1000
0001
0000
0010
0001
0000
1000
,  // measure 40
0010
0000
0100
0001
0000
1000
0100
0000
0001
0200
0000
0000
,  // measure 41
0310
0000
1000
0001
0000
0100
0001
0000
0010
1000
0000
0100
,  // measure 42
1000
0000
0010
0100
0001
1000
0200
0000
0000
0310
0000
0100
,  // measure 43
0010
0000
0100
0010
0000
0001
0010
0000
0100
0010
0000
0100
0001
0000
0001
0010
0000
0010
0100
0000
1000
0100
0000
0000
,  // measure 44
0110
0000
0001
1000
0000
0001
0100
0000
0010
1000
0000
0100
0010
0000
0100
0001
0000
0100
1000
0000
1000
0001
0000
0000
,  // measure 45
1001
0000
0000
0000
0100
0010
0100
0000
0000
0001
0000
0000
,  // measure 46
1100
0000
0000
0110
0000
0000
0011
0000
0000
0100
0001
0010
,  // measure 47
0200
0000
0310
0000
,  // measure 48
1010
0000
0000
0101
0000
0000
1100
0000
0000
0001
0100
0010
,  // measure 49
1000
0000
0000
0000
1000
0000
0100
0000
0000
0000
0100
0000
0010
0000
0000
0000
0010
0000
0001
0000
0000
0000
0001
0100
,  // measure 50
0001
0000
0000
0000
0001
0000
0100
0000
0000
0000
0010
0000
1000
0000
0000
0000
0010
0000
0100
0000
0000
0000
0100
0010
,  // measure 51
0100
0000
0100
0001
0000
0100
1000
0000
1000
0100
0000
0100
,  // measure 52
0001
0000
0000
0011
0000
0000
1100
0000
0000
0010
1000
0001
,  // measure 53
0100
0000
0000
0000
0001
0000
0010
0000
0000
0000
0100
0000
1000
0000
0000
0000
1000
0000
0100
0000
0000
0000
0010
0001
,  // measure 54
0010
0000
0000
0000
0010
0000
0100
0000
0000
0000
0100
0000
1000
0000
0000
0000
1000
0000
0001
0000
0000
0000
0001
0100
,  // measure 55
0001
0000
1000
0100
0000
0100
0010
0000
0010
0001
0000
0001
,  // measure 56
1000
0000
0000
1010
0000
0000
0101
0000
0000
0001
1000
0001
,  // measure 57
0100
0000
0000
0000
0010
0000
0100
0000
0000
0000
0010
0000
0100
0000
0000
0000
0000
0000
0001
0000
0000
0000
1000
0100
,  // measure 58
1000
0000
0000
0000
0001
0000
1000
0000
0000
0000
0001
0000
1000
0000
0000
0000
0000
0000
0001
0000
0000
0000
0010
0100
,  // measure 59
0010
0000
0010
0001
0000
0001
1000
0000
1000
0100
0000
0010
,  // measure 60
0100
0000
0000
0110
0000
0000
0011
0000
0000
0001
1000
0010
,  // measure 61
0100
0000
0000
0000
0001
0000
0100
0000
0000
0000
0010
0000
0100
0000
0000
0000
0000
0000
0001
0000
0000
0000
1000
0010
,  // measure 62
1000
0000
0000
0000
0001
0000
1000
0000
0000
0000
0100
0000
1000
0000
0000
0000
0000
0000
0100
0000
0000
0000
0001
0010
,  // measure 63
0001
0000
0001
1000
0010
0100
0001
0100
0010
1000
0010
0100
,  // measure 64
0020
0030
0000
0000
;
