#TITLE:Aqua;
#SUBTITLE:;
#ARTIST:Akino;
#TITLETRANSLIT:;
#SUBTITLETRANSLIT:;
#ARTISTTRANSLIT:;
#GENRE:;
#CREDIT:;
#MENUCOLOR:;
#NEWMETERSYSTEM:NO;
#BANNER:Aqua-bn.png;
#BACKGROUND:Aqua-bg.png;
#LYRICSPATH:;
#CDTITLE:MixMania III CD Title.png;
#MUSIC:Aqua.mp3;
#OFFSET:-1.420;
#SAMPLESTART:32.680;
#SAMPLELENGTH:12.000;
#SELECTABLE:YES;
#LISTSORT:;
#BPMS:0.000=115.000;
#STOPS:;
#BGCHANGES:;
#ATTACKS:;

//---------------dance-single - ----------------
#NOTES:
     dance-single:
     :
     Easy:
     4:
     0.218,0.272,0.213,0.186,0.000:
0000
0000
0000
0000
,
0000
0000
0010
0010
,
0010
0100
0100
0100
,
0002
0000
0000
2003
,
0000
3000
0020
0000
,
0000
0230
0000
0310
,
0002
0000
0000
2003
,
0000
3100
0200
0000
,
0000
0320
0000
0032
,
1003
0000
0000
1000
0000
0000
0100
0000
,
0000
0100
0000
0000
0010
0000
0000
0010
,
0000
0000
0001
0000
0000
0001
0000
0000
,
1000
0000
0000
1000
0000
0000
0010
0000
,
0000
1000
0000
0000
0001
0000
0000
0100
,
0000
0000
0001
0000
0000
1000
0000
0000
,
1001
0000
0000
0100
0000
0000
1000
0000
,
0000
0001
0000
0000
1001
0000
0000
0010
,
0000
0000
0001
0000
0000
0100
0000
0000
,
1001
0000
0000
0010
0000
0000
1000
0000
,
0000
1000
0000
0000
0100
0000
0000
0010
,
0000
0000
0001
0000
0000
0100
0000
0000
,
1001
0000
0000
0100
,
0000
1000
0000
0000
0010
0000
0000
0001
,
0000
0000
1000
0000
0000
1001
0000
0000
,
0200
0000
0000
0010
0000
0000
0010
0000
,
0000
0010
0000
0000
0302
0000
0000
2003
,
0000
0000
3001
0000
0000
1001
0000
0000
,
1001
0000
0000
0010
0000
0000
1001
0000
,
0000
1001
0000
0000
1001
0000
0000
0100
,
0000
0000
0011
0000
0000
1100
0000
0000
,
0011
0000
0000
2000
0000
0000
3200
0000
,
0000
0320
0000
0000
0031
0000
0000
1000
,
0000
0000
0001
0000
0000
0001
0000
0000
,
0101
0000
0000
0001
0000
0000
1000
0000
,
0000
0100
0000
0000
0110
0000
0000
0010
,
0000
0000
0100
0000
0000
0001
0000
0000
,
0100
0000
0000
0100
0000
0000
0200
0000
,
0000
0300
0000
0000
0010
0000
0000
0010
,
0000
0000
0020
0000
0000
0030
0000
0000
,
1001
0000
0000
0100
0000
0000
1000
0000
,
0000
0001
0000
0000
0010
0000
0000
0001
,
0000
0000
1000
0000
0000
0010
0000
0000
,
0100
0000
0000
0001
0000
0000
0010
0000
,
0000
0100
0000
0000
2000
0000
0000
3020
,
0000
0000
0230
0000
0000
0302
0000
0000
,
0013
0000
0000
1000
0000
0000
0010
0000
,
0000
0100
0000
0000
0001
0000
0000
1000
,
0000
0000
0100
0000
0000
0010
0000
0000
,
0011
0000
0000
1100
0000
0000
0011
0000
,
0000
1100
0000
0000
0101
0000
0000
1010
,
0000
0000
0101
0000
0000
1010
0000
0000
,
0000
0100
0000
0000
0000
0000
0000
0000
;

//---------------dance-single - Copied from----------------
#NOTES:
     dance-single:
     Copied from:
     Beginner:
     1:
     0.095,0.134,0.080,0.044,0.000:
0000
0000
0000
0000
,
0000
0000
1000
0000
,
0000
0001
0000
0000
,
1000
0000
0000
0100
,
0000
0000
0100
0000
,
0000
0010
0000
0000
,
0100
0000
0000
0100
,
0000
0000
0020
0000
,
0000
0000
0000
0000
,
0030
0000
0000
0000
,
0000
0000
1000
0000
,
0000
0001
0000
0000
,
0010
0000
0000
0100
,
0000
0000
0100
0000
,
0000
0010
0000
0000
,
1001
0000
0000
0000
,
0000
0000
1001
0000
,
0000
0000
0000
0000
,
1001
0000
0000
0000
,
0000
0000
1000
0000
,
0000
0010
0000
0000
,
0200
0000
0000
0000
,
0000
0000
0300
0000
,
0000
0000
0010
0000
0000
0010
0000
0000
,
0010
0000
0000
0000
,
0000
0000
0000
0000
0001
0000
0000
0001
,
0000
0001
0000
0000
,
1001
0000
0000
1000
,
0000
1000
0000
0000
1000
0000
0000
0000
,
0000
0000
0100
0000
0000
0100
0000
0000
,
0200
0000
0000
0300
,
0000
0000
0010
0000
,
0000
0000
0010
0000
0000
0010
0000
0000
,
0010
0000
0000
0100
,
0000
0000
0010
0000
,
0000
0001
0000
0000
,
1001
0000
0000
1001
,
0000
0000
1001
0000
,
0000
1001
0000
0000
,
1001
0000
0000
0000
,
0000
0000
0100
0000
,
0000
0000
0000
0000
0000
0010
0000
0000
,
0010
0000
0000
0000
,
0000
0000
0000
0000
0100
0000
0000
0100
,
0000
0000
0100
0000
0000
0100
0000
0000
,
0200
0000
0000
0300
,
0000
0000
0020
0000
,
0000
0030
0000
0000
,
1000
0000
0000
1000
0000
0000
1000
0000
,
0000
0000
0000
0000
0001
0000
0000
0001
,
0000
0001
0000
0000
;

//---------------dance-single - Copied from----------------
#NOTES:
     dance-single:
     Copied from:
     Medium:
     6:
     0.314,0.317,0.133,0.231,0.000:
0000
0000
0000
0000
,
0000
0000
1000
0001
,
1000
0010
0100
0010
,
0200
0000
0001
0000
0010
0001
0302
0000
,
1000
0000
0100
1000
2003
0000
0010
0000
,
0100
3010
0020
0000
0100
0000
1000
0100
,
0230
0000
0010
0000
0010
0001
0302
0000
,
1000
0000
0100
1000
2003
0000
0100
0000
,
0010
0010
3020
0000
0000
0230
0000
0000
,
0301
0000
0000
1000
0000
0000
0100
0000
,
0000
1000
0000
0000
0010
0000
0000
0001
,
0000
0000
1000
0000
0000
0100
0000
0000
,
0010
0000
0000
0100
0000
0000
0010
0000
,
0000
0001
0000
0000
1000
0000
0000
0001
,
0000
0000
0100
0000
0000
0010
0000
0000
,
1001
0000
0000
0100
0000
1000
0001
0100
,
0001
0010
0000
0000
1001
0000
0000
1000
,
0000
0000
1000
0100
0010
0100
0000
0000
,
1001
0000
0000
0010
0000
0000
0001
0100
,
0010
1000
0000
0000
0002
0000
0100
0200
,
0003
0010
0020
0300
1000
2000
0030
0100
,
3100
0100
0000
1000
1000
0000
0001
0001
,
0000
0010
0010
0000
1000
0000
1000
0100
,
0000
0010
0001
0000
0000
1001
0000
0000
,
1000
0000
0100
0010
0000
0001
1000
0000
,
0010
0100
0000
0000
0002
0000
1000
0103
,
0000
0001
0010
0000
0100
1000
0000
0000
,
1001
0000
0000
0100
0000
0010
1001
0000
,
0000
1001
0000
0000
1010
0000
0000
0100
,
0000
1000
0100
0000
0010
0100
0000
0010
,
0001
0000
0000
0200
0000
0010
0310
0000
,
0000
1100
0000
0000
0100
0000
0000
0001
,
0000
0000
1000
0001
1000
0001
0000
0010
,
0001
0000
0000
0100
0000
0000
0010
0000
,
1000
0100
0000
1000
0010
0000
0000
0001
,
0000
0100
0001
0000
0010
0001
0000
0001
,
0200
0000
0010
0320
0000
1000
1030
0100
,
0010
0001
0000
0000
0002
0000
1000
2003
,
0000
0100
3100
1000
0100
0020
0000
0030
,
0001
0000
1000
0001
0000
0000
0010
0000
,
0100
0010
0000
0000
1000
0000
0001
0100
,
0000
0000
0010
0000
1000
0100
0000
0000
,
1001
0000
0010
0100
0000
0000
0001
0000
,
0010
0001
0000
0000
2000
0000
0000
3002
,
0000
0000
0023
0000
0000
0032
0000
0000
,
0103
0000
0010
1000
0000
0000
0100
0000
,
1000
0100
0000
0000
0010
0000
0001
0100
,
0000
0000
0010
0000
0100
0010
0000
0000
,
1001
0000
0000
0110
0000
0000
1000
0100
,
0010
0200
0000
0300
0011
0000
0000
1100
,
0000
0000
0010
0100
0010
0002
0000
0003
,
0000
1001
0000
0000
0000
0000
0000
0000
;

//---------------dance-single - Copied from----------------
#NOTES:
     dance-single:
     Copied from:
     Hard:
     7:
     0.380,0.340,0.168,0.346,0.000:
0000
0000
0000
0000
,
0000
0000
0010
0100
,
0010
0001
1000
0001
,
0100
0000
0001
0010
0000
0010
0100
1000
,
0200
1300
0000
0000
1000
0000
1000
0100
,
0000
0100
0010
0001
0020
0130
0000
0000
,
1000
0000
0001
0100
0000
0010
1000
0010
,
0200
0301
0000
0000
1000
0000
0010
1000
,
0000
0001
0100
0000
0010
0001
0000
1000
,
0200
0000
0000
0010
0320
0000
0230
0000
,
0000
0320
0000
0000
2030
0000
0100
3200
,
0000
0010
0320
0000
0000
0032
0000
0000
,
0203
0000
0001
0302
0000
0010
0023
0000
,
0100
0230
0000
0000
2300
0000
0100
3200
,
0000
0000
0320
0000
0001
0032
0000
1003
,
0110
0000
0000
1001
0000
0000
1001
0100
,
0010
1001
0000
0000
1100
0000
0000
0011
,
0000
0000
0101
0010
1000
0101
0000
0000
,
1001
0000
0000
0110
0000
0000
1001
0100
,
0010
1001
0000
0000
1000
0100
0010
0001
,
0010
0100
1000
0100
0010
0001
0010
0100
,
1000
1000
0100
1000
1000
0100
0010
0000
,
0000
0001
0000
0000
1000
1000
0001
1000
,
1000
0001
0010
0000
0000
0001
0000
0000
,
0001
0001
0100
0001
0001
0100
0010
0000
,
0000
0100
0000
0000
0020
0000
1030
0200
,
0000
0310
0002
0000
0103
0010
0000
0000
,
1100
0000
0000
0100
0000
0010
0011
0000
,
0000
0101
0000
0000
1010
0000
0000
1000
,
0000
0001
1000
0000
0001
1000
0000
0010
,
0100
0000
0000
1000
0100
0010
0002
1000
,
1000
0103
0000
0000
1001
0000
0000
1100
,
0000
0000
0010
0100
0010
0001
0010
0100
,
1000
0000
0000
0100
0000
1000
0100
0000
,
0100
0010
0000
0010
0001
0000
0000
0100
,
0000
0001
0010
0000
0100
1000
0000
0001
,
2000
0000
0000
3200
0000
0000
0310
0100
,
0010
0002
0000
0000
0203
0000
0000
0320
,
0000
0000
1030
0001
1000
0200
0000
0000
,
1300
0100
0010
0010
0000
0001
0001
0000
,
0100
0001
0000
0010
0001
0010
0100
0100
,
0000
1000
1000
0000
0010
1000
0000
0000
,
0100
0010
0100
0100
0000
0010
1000
0000
,
0100
0010
0000
0001
0200
0000
0001
0302
,
0000
0010
0023
0000
0001
0032
0000
0100
,
0103
0010
1000
1000
0000
0100
0010
0000
,
0010
0001
0000
0000
0100
1000
0010
0010
,
0000
0100
0001
0000
0010
1000
0000
1000
,
0200
0000
0000
2300
0000
0000
3010
0100
,
0001
0200
0000
0000
0302
0000
0000
0203
,
0000
0000
0310
1000
0010
0002
0000
0003
,
0000
0110
0000
0000
0000
0000
0000
0000
;

//---------------dance-single - Copied from Copied f----------------
#NOTES:
     dance-single:
     Copied from Copied f:
     Challenge:
     8:
     0.485,0.523,0.328,0.115,0.204: // measure 1
0000
0000
0000
0000
,  // measure 2
0000
0000
1000
0100
,  // measure 3
0010
0001
0010
0100
,  // measure 4
2000
0000
0100
0010
0000
0010
3100
0001
,  // measure 5
0100
0010
0000
0000
0002
0000
0010
0100
,  // measure 6
0000
0100
0013
1000
0010
0100
0000
0100
,  // measure 7
0020
0000
1000
1000
0000
0001
0130
1000
,  // measure 8
0100
0010
0000
0100
1100
0000
0100
0110
,  // measure 9
0000
0001
0011
0000
0100
0110
0000
0001
,  // measure 10
1001
0000
0000
1000
0000
0000
0001
0000
0000
1000
0000
0000
0100
0000
0000
1000
,  // measure 11
0000
0000
0100
0000
0000
0010
0000
0000
0001
0000
0000
0100
0000
0000
0010
0000
,  // measure 12
0000
1000
0000
0000
0100
0000
0000
1000
0000
0000
0010
0000
0000
0100
0000
0000
,  // measure 13
0010
0000
0000
0100
0000
0000
0001
0000
0000
0010
0000
0000
1000
0000
0000
0010
,  // measure 14
0000
0000
0001
0000
0000
0100
0000
0000
0010
0000
0000
1000
0000
0000
0100
0000
,  // measure 15
0000
0010
0000
0000
0001
0000
0000
1000
0000
0000
0010
0000
0000
0001
0010
0100
,  // measure 16
0010
1000
1000
0100
0000
1000
0100
0010
,  // measure 17
0001
0000
0011
0000
0000
0000
0001
1000
0001
0000
1000
0000
0100
0000
0010
0000
,  // measure 18
0000
0000
0001
0000
1000
0000
0001
0000
0100
0000
0110
0000
0000
0000
0010
0100
,  // measure 19
1000
0001
0001
1000
0000
1000
0001
0100
,  // measure 20
0100
0000
1100
0000
0000
0000
0010
0100
0010
0000
0010
0000
0010
0000
0100
0000
,  // measure 21
0100
0100
1000
1000
1000
0100
0100
0100
,  // measure 22
1001
0001
0010
1001
0001
0010
0100
1000
,  // measure 23
0100
0020
0000
0030
1001
0100
0100
1001
,  // measure 24
0100
0100
1000
0100
0010
0002
0000
0003
,  // measure 25
1100
1000
0100
1100
1000
0100
0010
0001
,  // measure 26
0010
0200
0000
0300
0011
0100
1000
1100
,  // measure 27
0010
0001
1001
0010
0100
1001
0000
0000
,  // measure 28
1001
0000
0100
0010
0001
0010
1001
0000
,  // measure 29
1000
1100
0000
0010
1001
0000
0001
0100
,  // measure 30
1000
0100
0020
0000
0031
0200
0000
0310
,  // measure 31
1100
1000
0100
0010
0001
0010
0210
0000
,  // measure 32
0300
1001
0000
0000
1000
1000
0001
0001
,  // measure 33
0000
0000
0001
0010
0100
1000
0001
0010
,  // measure 34
0110
0000
0000
1000
0001
1000
1100
0000
,  // measure 35
0001
0011
0000
0100
1001
0000
0000
0100
,  // measure 36
0000
0010
1000
0000
1000
0001
0000
0001
,  // measure 37
0100
1000
0000
0100
1000
0000
1000
0100
0000
1000
0100
0000
0010
0000
0001
0000
,  // measure 38
0100
0000
0110
0000
0000
0000
0010
0000
1000
0001
0000
1000
0001
0000
0010
0100
,  // measure 39
0000
0010
0100
0000
1000
0000
0100
0000
0010
0000
1001
0000
0000
0000
0000
0000
,  // measure 40
1000
0001
1000
0100
0010
0000
0100
0000
0000
0000
0001
0000
0100
0000
0000
0000
,  // measure 41
0010
0000
1000
0000
0000
0000
1000
0000
0010
0100
0010
1000
0010
0000
0100
0000
,  // measure 42
0000
1000
0100
0000
0010
0001
0000
0100
,  // measure 43
0010
1000
0100
0010
0001
0000
0010
0000
0000
0000
1000
0000
0010
0000
0000
0000
,  // measure 44
0100
0001
0000
1000
0001
0001
0010
1000
,  // measure 45
1000
0010
0001
0001
0100
1000
1000
0100
,  // measure 46
1000
0001
1000
0001
1000
0000
0010
0000
0010
0000
0100
0000
0110
0000
0010
0000
,  // measure 47
0001
0000
0011
0000
0001
0000
0010
0000
0001
1000
0001
1000
0001
0000
0110
0000
,  // measure 48
0100
0100
0101
0100
0100
1100
0100
0100
,  // measure 49
1000
0100
0000
0010
0001
0000
0001
0010
0000
0100
1000
0000
0001
0000
1000
0000
,  // measure 50
0100
0000
0020
0000
0000
0000
0030
0000
0100
0010
0000
0001
0010
0000
0100
1000
,  // measure 51
0000
0100
0010
0000
0100
0000
0001
0000
1000
0000
0200
0000
0000
0000
0300
0000
,  // measure 52
0000
2002
3003
0000
0000
0000
0000
0000
;
