#TITLE:mei;
#SUBTITLE:;
#ARTIST:Amuro vs. Killer;
#TITLETRANSLIT:;
#SUBTITLETRANSLIT:;
#ARTISTTRANSLIT:;
#GENRE:;
#CREDIT:;
#MENUCOLOR:;
#NEWMETERSYSTEM:NO;
#BANNER:mei-bn.png;
#BACKGROUND:mei-bg.png;
#LYRICSPATH:;
#CDTITLE:MixMania II CD Title.png;
#MUSIC:mei.mp3;
#OFFSET:-0.100;
#SAMPLESTART:21.680;
#SAMPLELENGTH:12.000;
#SELECTABLE:YES;
#LISTSORT:;
#BPMS:0.000=200.000,200.000=100.000,216.000=110.000,220.000=120.000,224.000=130.000,228.000=140.000,232.000=150.000,236.000=160.000,240.000=170.000,244.000=180.000,248.000=190.000,256.000=200.000,370.000=180.000,372.000=175.000,374.500=165.000,378.000=140.000,379.000=100.000,380.000=110.000,381.000=90.000,382.000=66.000;
#STOPS:;
#BGCHANGES:;
#ATTACKS:;

//---------------dance-single - ----------------
#NOTES:
     dance-single:
     :
     Easy:
     5:
     0.370,0.492,0.139,0.161,0.004:
0000
0000
0000
0000
,
0000
0000
0000
0000
,
1000
0100
0001
0010
,
0200
0000
0300
1000
,
0001
1000
0010
0001
,
0020
0000
0030
0001
,
1000
0100
1000
0010
,
2000
0000
3000
0100
,
0100
1000
0100
0010
,
0200
0000
0300
0001
,
1001
0010
0001
0010
,
0100
0000
0100
0000
,
0010
0100
0001
1000
,
0001
0000
0100
0010
,
1001
0100
1000
0010
,
1000
0000
1000
0000
,
0100
0001
0010
1000
,
0220
0000
0330
0000
,
1001
0010
0000
1000
,
0100
1000
0000
0010
,
0001
0100
0000
0001
,
1000
0010
0200
0000
,
0301
0010
0000
1000
,
0001
1000
0000
0010
,
1000
0100
0000
0010
,
1000
0001
1000
0001
,
0010
0100
0000
0001
,
1000
0100
0000
1000
,
0010
0001
0000
0010
,
0001
1000
0100
0000
,
0010
1000
0000
0001
,
1000
0001
0000
1000
,
0100
0001
0000
0010
,
0002
0000
1000
1003
,
0100
1000
0010
0100
,
0001
0010
0001
0100
,
0010
1000
0100
1000
,
0010
1000
0001
0100
,
1001
0010
0100
0001
,
0010
1000
0100
1000
,
0100
1000
0010
0100
,
0010
0001
0010
0001
,
0100
0001
0010
0100
,
1000
0100
0010
0001
,
0010
1000
0001
0100
,
0010
1000
0100
0010
,
0001
1000
0001
0100
,
0010
0100
0001
0010
,
1000
0100
0001
0100
,
1000
0010
0100
0010
,
1001
0010
0100
0010
,
1000
0100
1000
0001
,
0010
0001
0100
0001
,
0010
0100
0010
0100
,
1001
0100
0010
0001
,
1001
0010
0100
1000
,
1001
0100
0010
0100
,
1001
0001
1000
0001
,
1001
0010
1001
0010
,
1001
0100
1001
0100
,
0020
0030
0200
0300
,
0001
0010
0100
1000
,
0002
2003
3200
0320
,
1030
0100
0010
0001
,
1001
1001
1001
1001
,
0110
1000
0100
0010
,
1000
0001
1000
0001
,
0100
0010
0001
0010
,
0100
0001
1000
0100
,
1000
0010
0100
0000
,
0001
0010
0100
0001
,
1000
0100
0010
0100
,
0020
0000
0000
0030
,
0100
1000
0001
0100
,
2000
3000
0100
0001
,
0020
0030
1000
0100
,
0002
0003
0010
1000
,
0200
0300
0010
1000
,
0001
1000
0100
0000
,
0010
1000
0100
0010
,
0001
0010
0100
0000
,
0001
0000
0000
1000
0000
0000
0100
0000
,
0001
0010
0100
0000
,
1000
0001
0100
0000
,
0010
1000
0100
0010
,
0001
0000
0000
0000
0100
0000
0000
1000
,
0000
0000
1000
0100
,
0010
0000
1000
0001
,
1000
0010
0100
0010
,
0002
0000
0000
0000
,
0003
0000
1000
1000
,
2000
0000
0000
0000
,
3000
0000
0010
0000
,
0100
1000
0100
0010
,
0001
0000
0000
0000
0000
0000
0000
0000
0010
0000
0000
0000
0000
1000
0000
0000
,
0010
0000
0001
0020
,
0000
0030
0000
0000
0000
0000
0000
0000
;

//---------------dance-single - Copied from----------------
#NOTES:
     dance-single:
     Copied from:
     Beginner:
     2:
     0.156,0.350,0.110,0.044,0.004: // measure 1
0000
0000
0000
0000
,  // measure 2
0000
0000
0000
0000
,  // measure 3
1000
0000
0000
0000
,  // measure 4
0000
0000
0000
0000
,  // measure 5
0010
0000
0000
0000
,  // measure 6
0000
0000
0000
0000
,  // measure 7
0100
0000
0000
0000
,  // measure 8
0000
0000
0000
0000
,  // measure 9
0001
0000
0000
0000
,  // measure 10
0000
0000
0000
0000
,  // measure 11
1001
0000
0000
0000
,  // measure 12
0100
0000
0010
0000
,  // measure 13
0100
0000
1000
0000
,  // measure 14
0100
0000
0001
0000
,  // measure 15
0010
0000
0000
0000
,  // measure 16
0000
0000
0000
0000
,  // measure 17
0100
0000
0000
0000
,  // measure 18
0000
0000
0000
0000
,  // measure 19
1001
0000
0000
0000
,  // measure 20
0010
0000
0000
0000
,  // measure 21
0100
0000
0000
0000
,  // measure 22
1000
0000
0100
0000
,  // measure 23
1000
0000
0000
0000
,  // measure 24
0010
0000
0000
0000
,  // measure 25
0001
0000
0000
0000
,  // measure 26
0020
0000
0030
0000
,  // measure 27
0100
0000
0000
0000
,  // measure 28
0001
0000
0000
0000
,  // measure 29
1000
0000
0000
0000
,  // measure 30
0100
0000
0010
0000
,  // measure 31
0100
0000
0000
0000
,  // measure 32
0001
0000
0000
0000
,  // measure 33
1000
0000
0000
0000
,  // measure 34
0220
0000
0330
0000
,  // measure 35
1000
0000
0001
0000
,  // measure 36
1000
0000
0001
0000
,  // measure 37
0010
0000
0100
0000
,  // measure 38
0010
0000
0100
0000
,  // measure 39
0001
0000
0100
0000
,  // measure 40
1000
0000
0100
0000
,  // measure 41
0001
0000
1000
0000
,  // measure 42
0001
0000
0000
0000
,  // measure 43
1000
0000
0010
0000
,  // measure 44
0100
0000
0010
0000
,  // measure 45
0001
0000
0010
0000
,  // measure 46
1000
0000
0100
0000
,  // measure 47
0001
0000
1000
0000
,  // measure 48
0001
0000
0100
0000
,  // measure 49
0010
0000
1000
0000
,  // measure 50
0100
0000
0010
0000
,  // measure 51
0100
0000
0000
0000
,  // measure 52
1000
0000
0000
0000
,  // measure 53
0100
0000
0000
0000
,  // measure 54
0001
0000
0000
0000
,  // measure 55
1001
0000
0000
0000
,  // measure 56
1001
0000
0000
0000
,  // measure 57
1001
0000
0000
0000
,  // measure 58
1001
0000
0000
0000
,  // measure 59
1001
0000
1001
0000
,  // measure 60
1001
0000
1001
0000
,  // measure 61
1001
0000
0000
0000
,  // measure 62
1001
0000
0000
0000
,  // measure 63
1001
0000
0000
0000
,  // measure 64
2002
0000
0000
0000
,  // measure 65
0000
0000
3003
0000
,  // measure 66
1000
0000
0100
0000
,  // measure 67
0010
0000
0001
0000
,  // measure 68
1000
0000
0001
0000
,  // measure 69
0100
0000
0010
0000
,  // measure 70
0100
0000
1000
0000
,  // measure 71
0000
0000
0100
0000
,  // measure 72
0001
0000
0010
0000
,  // measure 73
0100
0000
1000
0000
,  // measure 74
0100
0000
0000
0000
,  // measure 75
0010
0000
0000
0000
,  // measure 76
0100
0000
0000
0000
,  // measure 77
0010
0000
0000
0000
,  // measure 78
1000
0000
0000
0000
,  // measure 79
0100
0000
0000
0000
,  // measure 80
0001
0000
1000
0000
,  // measure 81
0020
0000
0030
0000
,  // measure 82
1000
0000
0100
0000
,  // measure 83
0010
0000
0001
0000
,  // measure 84
0010
0000
0100
0000
,  // measure 85
1000
0000
0000
0000
,  // measure 86
0001
0000
0010
0000
,  // measure 87
0100
0000
1000
0000
,  // measure 88
0100
0000
0010
0000
,  // measure 89
0001
0000
0000
0000
,  // measure 90
1000
0000
0000
0000
,  // measure 91
0001
0000
0000
0000
,  // measure 92
1000
0000
0000
0000
,  // measure 93
0010
0000
0000
0000
,  // measure 94
0100
0000
1000
0000
,  // measure 95
0100
0000
0000
0000
0000
0000
0000
0000
0010
0000
0000
0000
0000
0010
0000
0000
,  // measure 96
0010
0000
1000
1000
;

//---------------dance-single - Copied from----------------
#NOTES:
     dance-single:
     Copied from:
     Medium:
     7:
     0.409,0.421,0.029,0.044,0.004:
0000
0000
0000
0000
,
0000
0000
0000
0000
,
1000
0000
0000
0000
0100
0000
0000
0001
,
0000
0000
0000
0010
,
0010
0000
0001
0000
0010
0000
0000
0100
,
0000
0000
0000
1000
,
0001
0000
1000
0000
0100
0000
0000
0100
,
0000
0000
0000
1000
,
0010
0000
0001
0000
0010
0000
0000
0001
,
0000
0000
0000
0100
,
1001
0100
1000
0100
,
0010
0001
1000
0001
,
1000
0010
0100
1000
,
0100
0000
1000
0000
0010
0100
0010
0000
,
0100
0001
0010
0001
,
0100
0010
1000
0100
,
1000
0010
0100
0010
,
2002
0000
0000
3003
,
0010
0000
1000
0000
0000
0100
1000
0000
,
0100
0000
0010
0000
0000
0001
0100
0000
,
0001
0000
1000
0000
0000
0100
1000
0000
,
0010
0100
0010
0001
,
0100
0000
0010
0000
0000
1000
0100
0000
,
1000
0000
0010
0000
0000
0100
0010
0000
,
0001
0000
0100
0000
0000
0001
0010
0000
,
0100
0000
0001
0000
1000
0001
1000
0000
,
0001
0000
1000
0000
0000
0010
1000
0000
,
0100
0000
1000
0000
0000
1000
0010
0000
,
1000
0000
0100
0000
0000
0010
0001
0000
,
0100
0001
1000
0001
,
0010
0000
0100
0000
0000
0010
1000
0000
,
0100
0000
1000
0000
0000
0100
0010
0000
,
0010
0000
0001
0000
0000
0100
0001
0000
,
0020
0030
0100
0010
,
1000
0001
0100
0010
,
1000
0100
1000
0010
,
0001
0010
0100
1000
,
0001
0010
0100
0000
0010
0100
1000
0000
,
0100
1000
0001
1000
,
0100
0010
0001
1000
,
0010
0001
1000
0001
,
1000
0100
0010
0000
0100
0010
0001
0000
,
0100
0010
1000
0001
,
0100
0010
1000
0001
,
0010
0001
0100
0001
,
0100
1000
0010
0001
,
1000
0010
0100
0001
,
0010
0100
1000
0010
,
0100
0001
1000
0100
,
1000
0010
0100
0010
,
1001
0100
0010
0100
,
1000
0000
0100
0000
0010
0001
0100
0000
,
0010
1000
0001
1000
,
0100
0000
0010
0000
1000
0001
1000
0001
,
0010
0000
0100
0000
1000
0000
0010
1000
,
0100
0000
1000
0000
0100
0000
0010
0001
,
0100
0000
0010
0000
0100
0000
0010
0100
,
0010
0000
0100
0000
1000
0000
0001
1000
,
0001
0100
1000
0100
,
0010
1000
0100
0010
,
0001
0100
0000
0001
1000
0100
0000
1000
,
0010
0100
0010
0100
,
0001
0000
1000
0000
0001
1000
0001
1000
,
0001
1000
0100
0010
,
2002
0000
0000
3003
,
0010
0000
0100
0000
1000
0000
0100
1000
,
0000
0010
0100
0000
0001
1000
0010
0000
,
0001
0000
0100
0000
0001
0000
1000
0010
,
0000
0100
0001
0000
0010
0100
0001
0000
,
0100
0000
1000
0000
0100
0000
0010
0001
,
0000
0001
0010
0000
0100
1000
0010
0000
,
1000
0000
0001
0000
0100
0000
0010
1000
,
0000
1000
0100
0000
1000
0001
1000
0000
,
0100
0000
0010
0000
1000
0000
0010
0001
,
0000
0000
0100
0000
0001
0000
0010
1000
,
0100
0000
1000
0000
0010
0000
1000
0100
,
0000
0000
0010
0000
1000
0000
0100
0010
,
0001
0100
0010
0100
,
0001
0010
1000
0001
,
0100
0010
0001
1000
,
0100
1000
0010
0000
,
0100
0000
0000
0100
0000
0000
0010
0000
,
1000
0100
0001
0100
,
1000
0010
0100
1000
,
0100
0000
0010
0000
0100
0000
1000
0001
,
0100
0000
0010
0000
1000
0000
0100
0010
,
0000
0100
0001
1000
,
0100
0010
1000
0100
,
1000
0000
0001
0010
,
0100
0001
1000
0100
,
0000
1000
0010
0100
,
0001
0010
0100
1000
,
0100
0000
0010
0000
1000
0100
0010
0000
,
0100
0000
0001
0000
1000
0000
0001
0010
,
0100
0000
0000
0000
0000
0000
0000
0000
0100
0000
0000
0000
0000
0001
0000
0000
,
1000
0000
0000
1000
0010
0100
0002
0000
,
0003
0000
0000
0000
;

//---------------dance-single - Copied from----------------
#NOTES:
     dance-single:
     Copied from:
     Hard:
     10:
     0.681,0.668,0.409,0.044,0.143:
0000
0000
0000
0000
,
0000
0000
0000
0000
,
1100
0000
0010
0000
1000
0001
0100
0010
,
0000
0100
0000
0001
,
1000
0100
1000
0010
0100
0001
0010
0001
,
0000
0100
0000
0001
,
1000
0001
0010
0100
1000
0100
1000
0010
,
0000
0100
0000
1000
,
0001
1000
0100
0010
0100
1000
0100
1000
,
0000
0100
0000
1000
,
0010
0001
0010
0001
0100
1000
0010
1000
,
0100
0001
1000
0010
1000
0100
1000
0010
,
0001
0100
0001
0010
1000
0010
0001
1000
,
0100
0010
0100
0010
0001
0010
1000
0100
,
0010
0100
1000
0100
0010
0001
1000
0001
,
0010
1000
0100
0001
0010
0100
1000
0100
,
0010
1000
0010
0100
0001
0010
0100
1000
,
0002
0000
0000
0013
,
1001
0000
1100
0000
0010
0100
0001
0000
,
0110
0000
1100
0000
0001
1000
0010
0000
,
0110
0000
0011
0000
1000
0001
1000
0000
,
1001
0000
1010
0000
0100
0010
0001
1000
,
0110
0000
0011
0000
0001
1000
0001
0000
,
1001
0000
0110
0000
0001
1000
0010
0000
,
1100
0000
0110
0000
1000
0001
0010
0000
,
1000
0001
1000
0010
1000
0001
0010
0100
,
1000
0000
0101
0000
0100
0010
0100
0000
,
1010
0000
1100
0000
1000
0001
0010
0000
,
0101
0000
1010
0000
0010
1000
0010
0000
,
1100
0000
1001
0000
0001
1000
0100
0010
,
0011
0000
1100
0000
0010
0001
0010
0000
,
1001
0000
1100
0000
0010
1000
0001
0000
,
0101
0000
1100
0000
1000
0001
1000
0000
,
1002
0000
0103
0000
1000
0100
0010
0001
,
0100
0000
0010
0001
0000
0001
0010
0000
,
0100
1000
0000
1000
0001
0000
0010
0100
,
0010
1000
0100
0010
0001
1000
0100
0010
,
0100
0010
0100
1000
0100
0010
0001
0010
,
0100
0010
0000
0010
0001
0000
0010
0100
,
0000
0100
1000
0000
1000
0010
0000
0010
,
0100
0000
1001
0000
0010
0001
0100
0000
,
0010
0100
0010
0001
0010
0100
1000
0100
,
0010
0000
1001
0000
0100
1000
0100
0010
,
0000
1000
0001
0000
0010
0001
0100
0010
,
0100
0000
1001
0000
1000
0100
1000
0010
,
0000
0010
0100
0000
0001
0010
0001
0100
,
0001
0000
1001
0000
0100
0010
0001
0010
,
0000
0010
1000
0000
0010
0100
0010
0000
,
1000
0001
1000
0010
0100
0001
1000
0100
,
1000
0000
0000
0000
0110
0000
0000
0000
1000
0000
0001
0000
0010
0000
0001
0100
,
0010
1000
0100
1000
0000
0100
0010
0000
0001
0000
0000
1000
0000
0000
0100
0010
,
0000
0001
0100
0001
0000
1000
0010
0000
0100
0000
0000
1000
0000
0100
0010
0000
,
0000
1000
0100
0001
0000
0001
0100
0000
1000
0000
0000
0010
0000
0000
0100
0010
,
0000
0100
0001
0010
0000
0100
1000
0000
0100
0000
0000
0100
0000
0000
0010
0100
,
1000
0000
0000
0100
0000
0000
0001
0000
0010
0000
0000
1000
0000
0000
0010
0000
,
0100
0000
0000
0001
0000
0000
1000
0000
0010
0000
0000
0100
0000
0000
1000
0000
,
0100
0000
0000
1000
0000
0000
0100
0000
0010
0000
0000
0001
0000
0000
1000
0000
,
0001
0000
0000
1000
0000
0000
0010
0000
0100
0000
0000
1000
0000
0000
0100
0000
,
0010
0000
0000
0001
0000
0000
1000
0000
0001
0000
0000
0010
0000
0000
0100
0000
,
0001
0000
0000
1000
0000
0000
0100
0000
1000
0000
0000
0010
0000
0000
0100
0000
,
1000
0010
0000
0010
0001
0010
0000
0100
,
1100
0110
0011
1001
,
1000
0100
0010
0001
0010
0100
1000
0100
,
0010
0010
1000
1000
0100
0100
0001
0001
,
0110
1010
0101
1010
,
0001
0000
1000
0100
0010
0000
0001
0100
,
0000
0010
1000
0100
0010
0100
0001
1000
,
0100
0000
0001
0010
0100
0000
0100
1000
,
0000
1000
0010
0100
0001
0010
0001
0100
,
0001
0000
0001
1000
0010
0000
0010
0100
,
0000
0100
0010
1000
0010
0100
0001
0000
,
0001
0010
0100
1000
0100
0010
1000
0010
,
0100
1000
0001
1000
0001
0100
0010
0001
,
0010
0000
0000
0000
1000
0000
0100
1000
0100
0000
0000
0000
0010
0000
0001
0000
,
0000
0000
0010
0000
1000
0000
0010
0001
0010
0000
0000
0000
1000
0000
0001
0000
,
1100
0000
0000
0000
0010
0000
0100
0010
0100
0000
0000
0000
0001
0000
1000
0000
,
0000
0000
0000
0000
0100
0000
1000
0100
1000
0000
0000
0000
0010
0000
0100
0000
,
0011
0000
0100
1000
0001
1000
0010
0001
,
1000
0001
0010
1000
0001
1000
0100
0000
,
1000
0100
0010
0001
1000
0100
0010
0001
,
1000
0100
0010
0001
1000
0000
1001
0000
,
0011
0000
0010
2000
0000
3100
0020
0000
,
0130
0010
0001
0010
0100
1000
0100
1000
,
0010
0000
0100
0001
0010
0000
0100
1000
,
0001
0010
0100
0000
1100
0000
0100
1000
,
0001
0010
0001
0100
0010
0100
0001
1000
,
0000
0000
0010
0000
1001
0000
0000
0000
1000
0000
0000
0001
0000
0000
0010
0000
,
1000
0000
0100
0010
0100
0010
1000
0000
,
1100
0000
0010
0000
0101
0000
0010
0001
,
1001
1000
0001
0010
0100
0010
1000
0000
,
0000
0100
0010
1000
0100
0001
1000
0000
,
0110
0001
0010
0100
1000
0001
1000
0100
,
0010
0000
0100
1000
0100
0010
0001
0000
,
0100
0001
0100
0010
0100
0001
0100
1000
,
0100
0000
0000
0000
0100
0000
0000
0000
1010
0000
0000
0000
0000
0110
0000
0000
,
0011
0100
1000
0100
0001
1000
0220
0000
,
0000
0330
0000
0000
0000
0000
0000
0000
;

//---------------dance-single - Copied from Copied f----------------
#NOTES:
     dance-single:
     Copied from Copied f:
     Challenge:
     10:
     0.753,0.843,0.468,0.110,0.238:
0000
0000
0000
0000
,
0000
0000
0000
0000
,
1000
0100
0010
0001
0010
0100
0001
0010
,
0000
0000
0000
0000
0100
0000
0000
0000
0001
0000
0000
0000
1000
0100
1000
0000
,
1000
0010
0100
0001
0100
0010
1000
0010
,
0000
0000
0001
0000
0000
0000
0100
0010
,
0001
1000
0001
0010
0100
1000
0001
0100
,
0000
0000
0000
0000
1000
0000
0000
0000
0000
0000
0000
0000
0001
1000
0001
0000
,
1000
0001
1000
0010
0100
0001
0010
0100
,
0000
0000
0000
0000
1001
0000
0000
0000
0000
0000
0000
0000
0010
1000
0001
0000
,
1000
0100
0010
0001
0100
0001
0010
0100
,
0001
0010
0100
1000
0001
0100
0010
1000
,
0001
0100
0010
0001
0100
0001
0010
0100
,
1000
0100
0001
1000
0010
0100
1000
0100
,
0001
0100
0010
0001
0010
1000
0100
0010
,
0100
1000
0001
0100
0010
0100
0001
0010
,
0100
1000
0100
0010
0001
1000
0100
0010
,
2002
0000
3003
0100
,
1001
0000
0110
0000
0001
0010
0011
0000
,
0110
0000
1001
0000
0010
0100
1010
0000
,
0101
0000
1100
0000
1000
0001
0011
0000
,
0101
0000
0011
0000
0010
1000
0010
0001
,
1001
0000
1010
0000
0100
0010
0110
0000
,
1100
0000
0011
0000
0001
0010
1100
0000
,
0110
0000
0011
0000
1000
0001
1001
0000
,
0100
1000
0100
0010
0001
0010
0100
1000
,
0110
0000
1100
0000
0010
0100
0011
0000
,
1100
0000
1010
0000
0100
0001
1001
0000
,
0101
0000
1010
0000
0001
1000
0110
0000
,
1100
0000
0101
0000
1000
0001
1000
0010
,
0011
0000
0110
0000
0010
1000
1100
0000
,
0110
0000
1001
0000
0001
0100
0011
0000
,
1010
0000
1100
0000
0010
0100
0011
0000
,
2001
0000
3010
0000
0001
0010
0100
1000
,
0200
0000
0310
0002
0000
0013
0200
0000
,
1300
0200
0000
0310
0002
0000
0013
0100
,
0010
1000
0100
0010
0001
0010
0001
0100
,
0010
1000
0100
0010
1000
0001
0110
0000
,
0102
0000
0013
0200
0000
1300
0020
0000
,
0130
0002
0000
1003
0020
0000
0130
0001
,
1000
0001
1000
0010
0100
0001
0010
0100
,
1000
0100
0010
1000
0001
0010
0100
0000
,
1001
0000
0100
1000
0010
0000
0010
0100
,
0000
0100
0001
0010
0001
0100
1000
0100
,
1000
0000
0010
1000
0100
0000
0100
0010
,
0000
0010
0001
0010
0100
0010
0001
0010
,
1000
0000
1000
0100
1000
0000
1000
0001
,
0000
0001
0010
0100
0010
1000
0100
0010
,
0100
0000
0001
0100
1000
0010
0100
0001
,
1000
0000
0010
0000
0100
0000
0001
0000
0010
0000
0100
0000
1000
0000
0100
0010
,
1000
0100
0010
1000
0000
0100
0001
0100
0010
1000
0000
0001
0000
0100
0010
0001
,
0000
0100
0001
1000
0000
0010
0100
0000
1000
0100
0000
0010
0000
0100
0001
0010
,
0000
0001
0010
0100
0000
1000
0100
0000
1000
0010
0000
0100
0000
0100
0010
1000
,
0000
1000
0100
0010
0000
0010
0001
0000
0100
0001
0000
0010
0000
0001
1000
0100
,
0001
0000
0100
0010
0000
1000
0100
0000
0001
0000
0000
0010
0000
0000
0100
0001
,
1000
0000
0100
0010
0000
0001
0010
0000
0001
0000
0000
0010
0000
0000
0010
1000
,
0100
0000
0100
1000
0000
0010
0100
0000
0010
0000
0000
1000
0000
0000
0100
0010
,
0001
0000
0001
0100
0000
0100
0010
0000
1000
0000
0000
0100
0000
0000
1000
0010
,
0100
0000
0010
0001
0000
0001
0100
0000
0010
0000
0010
1000
0000
1000
0100
0000
,
1000
0000
0100
0010
0000
0010
0001
0000
0001
0000
0001
0010
0000
0010
0100
0000
,
1000
0001
0000
1000
0001
1000
0000
0001
,
0011
0110
1100
1001
,
1000
0100
1000
0100
0010
0100
0010
0001
,
0010
0010
0001
0001
0100
0100
0010
0010
,
1000
0000
0100
0000
0010
0000
0001
0000
1000
0000
0100
0000
0010
0001
0010
0001
,
0010
0000
1000
0001
0100
0000
1000
0010
,
0000
0100
0001
0010
0100
0001
1000
0001
,
0010
0000
1000
0100
0010
0000
0010
0001
,
0000
0001
0100
0010
1000
0001
0010
0000
,
0001
0000
0010
1000
0010
0000
0010
0001
,
0000
0001
0100
0000
0010
0001
1000
0000
,
1000
0001
1000
0100
0010
0100
0001
1000
,
0010
1000
0001
0010
0100
0010
0001
1000
,
0011
0000
0000
0000
0010
0000
0001
1000
0100
0000
0000
0000
0100
0000
0010
0000
,
0000
0000
0010
0000
1000
0000
0100
0001
1000
0000
0000
0000
0010
0000
0001
0000
,
0100
0000
0000
0000
0100
0000
0010
0100
1000
0000
0000
0000
1000
0000
0100
0000
,
0000
0000
0100
0000
0010
0000
1000
0001
0010
0000
0100
0000
0010
0000
0100
0000
,
0001
0000
0001
0010
0100
0000
0100
1000
,
0000
1000
0010
0100
0010
0100
0001
0000
,
1000
0100
0010
0001
1000
0001
0100
0001
,
0010
1000
0100
0010
0100
0000
1001
0000
,
0100
0000
1000
0100
0000
0100
0010
0000
,
0010
0001
0100
0010
1000
0001
0100
0000
,
0100
0001
1000
0001
0100
1000
0100
0010
,
1000
0001
0100
0000
0010
0000
0001
0100
,
1000
0100
0001
1000
0010
0100
0001
0100
,
0000
0000
0001
0000
1100
0000
0000
0000
0010
0000
0000
0001
0000
0000
1000
0000
,
0101
0000
1000
0100
0010
0001
0010
0000
,
1001
0000
0100
0000
0010
0000
0001
0100
,
1001
0010
0100
0001
0010
1000
0100
0000
,
1000
0010
0100
0001
0010
0001
0100
0000
,
0010
1000
0100
0010
0100
1000
0100
0010
,
0001
0010
0100
0010
0001
0010
1000
0000
,
1100
0001
0100
0010
0001
0010
0100
1000
,
0100
0000
0000
0000
0010
0000
0000
0000
1001
0000
0000
0000
0000
0110
0000
0000
,
1001
0100
0010
0011
0110
1100
2020
0000
,
0000
3030
0000
0000
0000
0000
0000
0000
0000
0000
0000
0000
0000
0000
0000
0000
;
