#TITLE:mei;
#SUBTITLE:(0270 Daddy's Tenderness Mix);
#ARTIST:Amuro vs. Killer remixed by kors k;
#TITLETRANSLIT:;
#SUBTITLETRANSLIT:;
#ARTISTTRANSLIT:;
#GENRE:;
#CREDIT:;
#MENUCOLOR:;
#NEWMETERSYSTEM:NO;
#BANNER:mei (0720 Daddy's Tenderness Mix)-bn.png;
#BACKGROUND:mei (0720 Daddy's Tenderness Mix)-bg.png;
#LYRICSPATH:;
#CDTITLE:MixMania II CD Title.png;
#MUSIC:mei (0720 Daddy's Tenderness Mix).mp3;
#OFFSET:0.000;
#SAMPLESTART:37.320;
#SAMPLELENGTH:12.000;
#SELECTABLE:YES;
#LISTSORT:;
#BPMS:0.000=180.000;
#STOPS:;
#BGCHANGES:;
#ATTACKS:;

//---------------dance-single - ----------------
#NOTES:
     dance-single:
     :
     Easy:
     5:
     0.403,0.460,0.118,0.263,0.000: // measure 1
0000
0000
0000
0000
,  // measure 2
0000
0000
0000
0000
,  // measure 3
0000
0000
0000
0000
,  // measure 4
0010
1000
0100
0001
,  // measure 5
0100
1000
0200
0000
,  // measure 6
1300
0010
0100
0001
,  // measure 7
0010
0001
0200
0000
,  // measure 8
0310
0001
1000
0100
,  // measure 9
0001
0100
0002
0000
,  // measure 10
1003
0010
0100
0010
,  // measure 11
2000
3020
2030
3001
,  // measure 12
1001
0001
0100
0001
,  // measure 13
0010
1000
0200
0000
,  // measure 14
1300
0010
0001
0010
,  // measure 15
1000
0100
0002
0000
,  // measure 16
0013
0100
1000
0010
,  // measure 17
0001
1000
0200
0000
,  // measure 18
1300
0010
0100
0010
,  // measure 19
2002
0000
0000
3003
,  // measure 20
0010
0000
0100
1001
,  // measure 21
0010
0100
0010
0100
,  // measure 22
0010
0100
0010
0100
,  // measure 23
0010
0100
1000
0100
,  // measure 24
0010
0001
0010
0100
,  // measure 25
1001
0010
0001
0100
,  // measure 26
0001
0010
1000
0100
,  // measure 27
1000
1000
0001
0001
,  // measure 28
1000
0100
0100
1001
,  // measure 29
0100
1000
0010
0100
,  // measure 30
0001
0010
0200
1000
,  // measure 31
1300
0010
0001
0100
,  // measure 32
0001
1000
0020
0001
,  // measure 33
0031
0100
0001
1000
,  // measure 34
0100
1000
0200
0010
,  // measure 35
0310
0001
1000
0100
,  // measure 36
0002
2003
3020
1030
,  // measure 37
1100
1000
0100
0001
,  // measure 38
0010
0001
0200
0010
,  // measure 39
0301
0010
1000
0001
,  // measure 40
0100
0010
2000
0100
,  // measure 41
3001
0100
1000
0001
,  // measure 42
0100
1000
0020
0100
,  // measure 43
1030
0100
1000
0010
,  // measure 44
0022
0000
0000
0033
,  // measure 45
1001
0000
0100
0000
0010
0001
0010
0000
,  // measure 46
0100
1000
0001
1000
,  // measure 47
0100
1000
0010
0100
,  // measure 48
0001
1000
0100
0010
,  // measure 49
0001
0010
1000
0100
,  // measure 50
1000
0100
1000
0010
,  // measure 51
0200
0000
2300
0000
,  // measure 52
3010
1000
0001
1000
,  // measure 53
1010
0000
0100
0000
1000
0000
0100
0001
,  // measure 54
0000
0000
0010
0000
0001
0000
0100
0001
,  // measure 55
0100
0000
0000
0000
0010
0000
1000
0010
,  // measure 56
0000
0000
0100
0000
1000
0000
0100
1000
,  // measure 57
0100
0100
0010
0001
,  // measure 58
1000
0100
0001
0010
,  // measure 59
1000
0001
0100
0010
,  // measure 60
0020
0000
0000
0130
,  // measure 61
1000
0000
0000
0100
0000
0000
0001
0000
,  // measure 62
1000
0100
1000
0010
,  // measure 63
0100
1000
0100
0010
,  // measure 64
0001
0010
0100
0001
,  // measure 65
0010
0000
0001
0000
1000
0000
0000
0100
,  // measure 66
0000
0020
0100
0031
,  // measure 67
0100
1000
0010
0100
,  // measure 68
0020
0000
2030
0000
,  // measure 69
3100
1000
0100
0001
,  // measure 70
0000
0010
0001
0100
,  // measure 71
0010
1000
0100
1000
,  // measure 72
0100
0001
1000
0001
,  // measure 73
0100
0010
0100
0010
,  // measure 74
0011
0000
1100
0000
,  // measure 75
1001
0000
0010
0100
,  // measure 76
0000
1000
0001
1001
,  // measure 77
0020
0000
0000
0000
,  // measure 78
0000
0000
0000
0000
,  // measure 79
0030
0000
0000
0000
;

//---------------dance-single - Copied from----------------
#NOTES:
     dance-single:
     Copied from:
     Beginner:
     2:
     0.178,0.276,0.054,0.073,0.000:
0000
0000
0000
0000
,
0000
0000
0000
0000
,
0000
0000
0000
0010
,
0010
0000
0000
0000
,
1000
0000
0000
0000
,
0001
0000
0000
0000
,
0100
0000
0010
0000
,
0010
0000
0000
0000
,
1000
0000
0000
0000
,
0001
0000
0000
0000
,
0020
0000
0030
0000
,
0100
0000
0000
0000
,
1000
0000
0000
0000
,
0001
0000
0000
0000
,
1000
0000
0100
0000
,
0010
0000
0000
0000
,
0100
0000
0000
0000
,
1000
0000
0000
0000
,
2000
0000
3000
0000
,
0200
0000
0300
0000
,
0010
0000
0001
0000
,
0100
0000
1000
0000
,
0100
0000
0000
0000
,
0100
0000
0000
0000
,
1000
0000
1000
0000
,
1000
0000
1000
0000
,
0001
0000
0001
0000
,
0002
0000
0003
0001
,
0001
0000
0010
0000
,
0100
0000
1000
0000
,
1000
0000
0100
0000
,
0010
0000
0001
0000
,
1000
0000
0001
0000
,
0010
0000
0100
0000
,
0001
0000
1000
0000
,
0220
0000
0330
0000
,
1001
0000
0100
0000
,
1000
0000
0100
0000
,
0010
0000
0001
0000
,
0100
0000
0010
0000
,
1000
0000
0100
0000
,
1000
0000
0010
0000
,
0001
0000
0100
0000
,
0200
0000
0300
0000
,
1001
0000
0000
0000
,
1001
0000
0010
0000
,
0100
0000
0010
0000
,
1000
0000
0100
0000
,
0001
0000
0010
0000
,
0001
0000
0010
0000
,
0100
0000
1000
0000
,
0100
0000
1000
0000
,
0010
0000
0100
0000
,
0100
0000
1000
0000
,
1000
0000
0001
0000
,
0001
0000
0010
0000
,
0010
0000
0100
0000
,
1000
0000
0100
0000
,
0010
0000
0001
0000
,
0010
0000
0100
0000
,
1001
0000
0010
0000
,
0100
0000
0010
0000
,
1000
0000
0100
0000
,
0010
0000
0001
0000
,
0100
0000
0010
0000
,
0010
0000
0100
0000
,
1000
0000
0100
0000
,
2000
0000
3000
0000
,
1001
0000
0000
0000
,
0000
0000
0100
0000
,
0100
0000
0000
0000
,
0010
0000
0000
0000
,
0001
0000
1000
0000
,
0001
0000
0001
0000
,
0010
0000
0100
0100
,
0000
0000
0000
1000
,
1000
0000
0000
0000
;

//---------------dance-single - Copied from----------------
#NOTES:
     dance-single:
     Copied from:
     Medium:
     6:
     0.422,0.494,0.218,0.154,0.005:
0000
0000
0000
0000
,
0000
0000
0000
0000
,
0000
0000
0000
0110
,
1000
0100
0001
0100
,
0010
0000
0001
0020
0000
0030
0000
0000
,
1000
0001
0100
0010
,
0100
0000
0010
2000
0000
3000
0000
0000
,
0100
1000
0100
0010
,
0100
0000
0010
0200
0000
0300
0000
0000
,
1000
0100
0010
0001
,
0100
0010
0011
1100
,
1001
0010
0001
0100
,
0010
0000
1000
0002
0000
0003
0000
0000
,
0010
0100
0010
0100
,
1000
0000
0100
2000
0000
3000
0000
0000
,
1000
0001
0100
0001
,
0010
0000
0100
0002
0000
0003
0000
0000
,
0010
0100
1000
0100
,
0010
0001
1010
0101
,
2002
0000
0000
3003
,
0010
1000
0100
1000
,
0010
0100
0001
0010
,
0100
0001
0010
1000
,
0100
1000
0100
1000
,
0010
1000
0100
0000
0100
0001
0010
0000
,
0010
0001
0100
0000
0010
1000
0100
0000
,
1000
0100
0001
0100
,
1000
0010
0100
1001
,
0100
1000
0100
0010
,
0001
0000
0010
0200
0000
0300
0000
0000
,
1000
0100
0001
0100
,
1000
0000
0100
0002
0000
0003
0000
0000
,
0010
0001
0010
0100
,
1000
0000
0100
2000
0000
3000
0000
0000
,
0010
0100
1000
0100
,
0010
1000
0011
1100
,
1001
0100
1000
0100
,
1000
0000
0010
0200
0000
0300
0000
0000
,
1000
0010
0001
0010
,
0100
0000
0010
0002
0000
0003
0000
0000
,
0010
0001
0100
0010
,
1000
0000
0100
2000
0000
3000
0000
0000
,
1000
0100
0010
1000
,
0202
0000
0000
0303
,
1000
0001
0100
0010
,
0001
0010
0100
1000
,
0001
1000
0100
0010
,
1000
0001
0010
0100
,
1000
0100
0001
0100
,
1000
0010
0100
0001
,
0010
0100
1000
0001
,
0100
0010
1010
0101
,
1001
0000
0010
0000
0100
0000
0001
0010
,
0000
0000
0100
0000
1000
0000
0010
1000
,
0100
0000
1000
0000
0010
0000
0100
0001
,
0000
0000
0010
0000
0001
0000
0100
0010
,
0100
0010
1000
0001
,
0100
1000
0100
0010
,
1000
0001
0010
0100
,
0010
0001
0011
1100
,
1001
0000
1000
0100
0000
0100
0010
0000
,
0001
0100
1000
0100
,
0010
0001
0010
0001
,
1000
0100
1000
0010
,
0100
0000
0001
0000
0010
0000
0001
0010
,
0000
0000
0000
0000
0100
0000
0000
0000
1000
0000
0000
0001
0000
0000
1000
0000
,
0001
0010
0100
0001
,
1100
1010
0011
0101
,
1001
0100
1000
0100
,
0000
0000
0010
0000
0001
0100
0010
0000
,
1000
0100
0001
0100
,
1000
0000
0100
0000
0010
0001
1000
0000
,
0001
0000
1000
0000
0100
0000
0010
1000
,
0100
0000
1000
0000
,
0001
0000
0010
0000
0100
0001
0010
0000
,
0100
1000
0010
1001
,
0002
0000
0000
0000
,
0000
0000
0000
0003
;

//---------------dance-single - Copied from----------------
#NOTES:
     dance-single:
     Copied from:
     Hard:
     8:
     0.577,0.635,0.463,0.209,0.095:
0000
0000
0000
0000
,
0000
0000
0000
0000
,
0000
0000
0000
1001
,
0100
1000
0010
0000
0001
0000
0010
0000
,
0100
0000
0000
1000
0000
0000
0100
0000
0000
0000
0000
0000
0010
0000
0000
0000
,
0001
1000
0001
0000
0010
0000
0100
0000
,
0010
0000
0000
0001
0000
0000
1000
0000
0000
0000
0000
0000
0010
0000
0000
0000
,
0100
1000
0010
0000
0100
0000
0001
0000
,
1000
0000
0000
0001
0000
0000
0100
0000
0000
0000
0000
0000
0001
0000
0000
0000
,
1000
0100
0010
0000
0100
0000
0001
0000
,
0110
0000
1001
0000
0011
1000
0100
0000
,
1000
0001
0100
0000
0010
0000
0100
0000
,
0001
0000
0000
0100
0000
0000
0010
0000
0000
0000
0000
0000
0100
0000
0000
0000
,
0010
0001
0100
0000
0010
0000
1000
0000
,
0100
0000
0000
0001
0000
0000
0100
0000
0000
0000
0000
0000
0010
0000
0000
0000
,
0010
0001
0100
0000
0010
0000
1000
0000
,
0001
0000
0000
1000
0000
0000
0010
0000
0000
0000
0000
0000
0100
0000
0000
0000
,
0010
0001
1000
0000
0010
0000
0100
0000
,
1001
0000
0110
0000
1100
1000
0010
0000
,
2200
0000
3300
0011
,
1001
0110
0011
1100
,
0110
1001
0101
0011
,
1010
1100
1001
1100
,
1010
0110
0101
0011
,
1001
0000
1000
0000
0010
1000
0001
0000
,
0010
0000
0100
0000
0100
0001
1000
0000
,
0100
1000
0100
0010
0100
0010
0001
0010
,
0001
0010
0100
0010
0100
0000
1001
0000
,
0010
0000
1000
0000
0200
0000
0000
0000
0300
0000
0001
0000
0000
1000
0000
0000
,
0100
0000
0000
0001
0000
0000
0010
0000
0000
0000
0000
0000
0010
0000
0000
0000
,
0010
0000
1000
0000
0002
0000
0000
0000
0003
0000
0010
0000
0000
1000
0000
0000
,
0001
0000
0000
0100
0000
0000
0010
0000
0000
0000
0000
0000
0010
0000
0000
0000
,
0001
0000
0100
0000
0020
0000
0000
0000
0030
0000
0100
0000
0000
1000
0000
0000
,
0010
0000
0000
0100
0000
0000
0001
0000
0000
0000
0000
0000
1000
0000
0000
0000
,
0100
0000
0010
0000
0200
0000
0000
0000
0300
0000
0001
0000
0000
0100
0000
0000
,
0001
0000
1100
0000
0110
0001
0100
0000
,
1001
0000
0001
0000
2000
0000
0000
0000
3000
0000
0010
0000
0000
0100
0000
0000
,
0001
0000
0000
0100
0000
0000
0010
0000
0000
0000
0000
0000
0100
0000
0000
0000
,
0100
0000
0010
0000
0002
0000
0000
0000
0003
0000
0010
0000
0000
0100
0000
0000
,
1000
0000
0000
0001
0000
0000
0010
0000
0000
0000
0000
0000
0100
0000
0000
0000
,
0010
0000
1000
0000
0200
0000
0000
0000
0300
0000
0010
0000
0000
0001
0000
0000
,
0010
0000
0000
1000
0000
0000
0100
0000
0000
0000
0000
0000
0001
0000
0000
0000
,
0010
0000
0100
0000
0002
0000
0000
0000
0003
0000
1000
0000
0000
0001
0000
0000
,
2020
0000
0000
3030
,
1001
0000
0100
0000
1000
0010
0100
0001
,
0010
0000
0100
0000
0001
1000
0100
0000
,
0010
0000
1000
0000
0100
0010
0001
0000
,
0010
0100
0001
0000
0010
1000
0100
0000
,
1000
0100
0010
0001
0100
0000
0001
0100
,
0010
1000
0100
0000
0001
0100
0010
0000
,
0100
1000
0100
0001
0100
1000
0010
0000
,
1001
0101
1100
1010
,
1001
0000
0100
0000
0001
0010
0100
2000
,
0000
3000
0000
1000
0100
0010
0001
0020
,
0100
0030
0000
0001
1000
0100
0010
0200
,
0000
0300
0000
0010
0100
1000
0100
0020
,
0001
0030
0100
1000
0001
0010
0100
0010
,
0000
0000
0100
1000
0010
0100
0001
0000
,
0010
0001
1000
0100
0010
0001
1000
0000
,
1001
0101
1010
1001
,
0100
0010
1000
0100
0000
0000
0010
0001
,
0010
0100
0000
0000
0001
1000
0010
0000
,
1001
0010
0001
0100
,
0010
1000
0100
1000
0010
0100
0001
0000
,
0100
0010
0001
1000
0100
0010
1000
0200
,
0000
0300
0000
0000
1001
0000
0000
0000
0001
0000
0000
1000
0000
0000
0001
0000
,
0110
0000
0001
1000
0100
1000
0000
0000
,
0110
0011
1100
0110
,
1000
0100
0010
0100
0010
0001
0020
0000
,
0030
0001
0010
0100
0010
0100
2000
0000
,
3100
0010
0100
1000
0001
0000
0100
0010
,
1000
0000
0010
1000
0001
0010
0100
0000
,
1000
0001
0010
0001
0100
0010
0100
1000
,
0200
0310
0002
0013
,
1001
0000
0010
0100
0010
0001
0010
0000
,
1000
0000
0010
0000
0001
1000
0110
0000
,
2002
0000
0000
0000
,
0000
0000
0000
3003
;

//---------------dance-single - Copied from Copied f----------------
#NOTES:
     dance-single:
     Copied from Copied f:
     Challenge:
     10:
     0.722,0.855,0.191,0.172,0.422:
0000
0000
0000
0000
,
0000
0000
0000
0000
,
0000
0000
0000
1001
,
0010
0000
1000
0000
0100
0000
0000
1000
0000
0000
0010
0000
0000
0100
0000
0000
,
0001
0000
0000
0010
0000
0000
0001
0000
0000
0000
0100
0000
0001
0000
1000
0000
,
0010
0000
0100
0000
0010
0000
0000
0100
0000
0000
1000
0000
0000
0100
0000
0000
,
0010
0000
0000
0001
0000
0000
0100
0000
0000
0000
0010
0000
0001
0000
0010
0000
,
0100
0000
0001
0000
0010
0000
0000
0100
0000
0000
1000
0000
0000
0100
0000
0000
,
1000
0000
0000
0010
0000
0000
0100
0000
0000
0000
0010
0000
1000
0000
0100
0000
,
0010
0000
0001
0000
0010
0000
0000
0100
0000
0000
0001
0000
0000
0010
0000
0000
,
1000
0000
0000
1000
0100
0000
0000
0100
1000
0000
0100
0000
1000
0001
0100
0000
,
0011
0000
0100
0000
0001
0000
0000
1000
0000
0000
0010
0000
0000
0100
0000
0000
,
0010
0000
0000
1000
0000
0000
0100
0000
0000
0000
0010
0000
0010
0000
0100
0000
,
0010
0000
0001
0000
0010
0000
0000
1000
0000
0000
0100
0000
0000
0010
0000
0000
,
1000
0000
0000
0100
0000
0000
0001
0000
0000
0000
1000
0000
0010
0000
1000
0000
,
0100
0000
1000
0000
0010
0000
0000
0001
0000
0000
0010
0000
0000
0001
0000
0000
,
0100
0000
0000
1000
0000
0000
0100
0000
0000
0000
0010
0000
0100
0000
0001
0000
,
0010
0000
0100
0000
1000
0000
0000
0100
0000
0000
1000
0000
0000
0001
0000
0000
,
0110
0000
0000
0001
0010
0000
0000
0100
1000
0000
0100
0000
0010
0100
0001
0100
,
0020
0000
0100
0000
1000
0130
0110
0000
,
1001
0000
0000
0010
0100
0000
0000
0010
0100
0000
0000
1000
0100
0000
0000
0010
,
0001
0000
0000
0010
0100
0000
0000
0100
1000
0000
0000
1000
0100
0000
0000
0010
,
0001
0000
0000
0010
0100
0000
0000
0010
0001
0000
0000
0001
1000
0000
0000
1000
,
0010
0000
0000
0010
0100
0000
0000
0100
0001
0000
0000
0001
0010
0000
0000
0010
,
1000
1000
0100
0100
0010
0010
0001
0001
,
0010
0010
0001
0001
0100
0100
1000
1000
,
0010
1000
0010
0000
0100
0001
0100
0000
0010
0100
0010
0000
1000
0001
1000
0001
,
0200
0010
0001
0010
0010
0301
0110
0000
,
1001
0000
0001
0000
0010
0000
0000
0001
0000
0000
0100
0000
0000
1000
0000
0000
,
0100
0000
0000
0100
0000
0000
0010
0000
0000
0000
1000
0000
0001
0000
0010
0000
,
0001
0000
0100
0000
0010
0000
0000
0010
0000
0000
0100
0000
0000
0100
0000
0000
,
1000
0000
0000
0100
0000
0000
0010
0000
0000
0000
0100
0000
0010
0000
0001
0000
,
0010
0000
0001
0000
1000
0000
0000
1000
0000
0000
0010
0000
0000
0010
0000
0000
,
0001
0000
0000
0100
0000
0000
0001
0000
0000
0000
0001
0000
0100
0000
0010
0000
,
0001
0000
1000
0000
0010
0000
0000
1000
0000
0000
0100
0000
0000
0100
0000
0000
,
1000
0000
0000
0010
0001
0000
0000
0001
0100
0000
1000
0000
0100
0001
0010
0000
,
0011
0000
0100
0000
1000
0000
0000
0100
0000
0000
0010
0000
0000
1000
0000
0000
,
0001
0000
0000
0100
0000
0000
0010
0000
0000
0000
0010
0000
0100
0000
1000
0000
,
0100
0000
0010
0000
0001
0000
0000
0100
0000
0000
0001
0000
0000
0010
0000
0000
,
0100
0000
0000
1000
0000
0000
0100
0000
0000
0000
1000
0000
0010
0000
1000
0000
,
0100
0000
0010
0000
1000
0000
0000
0100
0000
0000
1000
0000
0000
0010
0000
0000
,
0100
0000
0000
0001
0000
0000
0010
0000
0000
0000
0010
0000
0001
0000
0100
0000
,
0010
0000
0001
0000
0100
0000
0000
1000
0000
0000
0010
0000
0000
0100
0000
0000
,
2020
0000
0000
3030
,
0110
0000
1000
0000
0100
0000
0001
0000
0010
0001
0010
0000
0210
0000
0000
0000
,
0310
0001
0010
1000
0100
1000
0100
0010
,
0001
0010
0100
0001
0100
0010
0001
0010
,
0100
1000
0100
1000
0001
0010
0100
1000
,
0100
0010
1000
0001
0200
0000
0010
0000
,
0310
0100
1000
0001
0100
0010
0100
0001
,
1000
0100
0010
1000
0100
0001
0010
0100
,
0010
0000
0000
1000
0001
0000
0000
0001
1000
0000
0100
0000
1000
0010
1000
0001
,
0100
0000
0000
0000
0100
0000
0010
0001
0010
0000
0100
0000
0010
0000
2000
0000
,
0000
0000
3100
0000
0010
0000
0100
0010
0001
0000
0001
0000
0200
0000
0010
0000
,
0310
0000
1000
0000
0100
0000
0010
0100
0010
0000
0001
0000
0100
0000
0020
0000
,
0000
0000
0130
0000
0100
0000
0010
0001
1000
0000
0010
0000
0200
0000
0001
0000
,
0310
0100
1000
0010
0100
0010
0100
1000
,
0100
0010
0001
0010
0100
0001
0010
0100
,
1000
0001
0100
0010
0001
0100
0010
0100
,
1000
0000
0000
0010
0001
0000
0000
1000
0100
0000
1000
0000
0010
0100
0010
0100
,
0010
0001
0010
0010
0001
0010
0100
1000
,
0100
0010
0100
0001
0010
0100
0001
1000
,
0100
0010
0001
1000
0100
1000
0001
0010
,
0100
0001
0100
0010
1000
0100
0001
0010
,
0100
1000
0001
0100
0010
0001
0100
0020
,
0000
0000
0000
0000
0100
0000
0030
0000
1010
0000
0000
0101
0000
0000
0011
0000
,
1001
0000
0100
0010
0100
1000
0100
0000
,
1010
0000
0000
0100
0010
0000
0000
0010
0100
0000
1000
0000
0001
0010
0100
1000
,
0100
1000
0100
0010
0100
0001
0020
0000
,
0030
0100
1000
0100
1000
0001
0020
0000
,
0031
0010
0001
0100
1000
0100
0010
1000
,
0001
0010
0100
0001
1000
0100
2000
0000
,
3010
0100
0010
0100
0001
1000
0100
0010
,
0102
0013
2010
3100
,
1001
0000
1000
0100
0001
0010
0001
0000
,
0100
0001
1000
0010
0100
0010
1001
0000
,
0220
0000
0000
0300
,
2000
0000
0000
0000
,
0000
0000
3030
0000
;
